<?xml version="1.0" standalone="no"?>
<!DOCTYPE svg PUBLIC "-//W3C//DTD SVG 1.1//EN" "http://www.w3.org/Graphics/SVG/1.1/DTD/svg11.dtd" >
<svg xmlns="http://www.w3.org/2000/svg" xmlns:xlink="http://www.w3.org/1999/xlink" version="1.1">
<metadata>
Created by FontForge 20170731 at Fri May 16 14:35:27 2014
 By Aleksey,,,
Copyright (c) 2014 by (c) 2009 Designed by Svetoslav Simov (c) Fontfabric, Inc. All rights reserved.
</metadata>
<defs>
<font id="UniSansSemiBoldItalic" horiz-adv-x="512" >
  <font-face 
    font-family="Uni Sans SemiBold Italic"
    font-weight="600"
    font-style="italic"
    font-stretch="normal"
    units-per-em="1000"
    panose-1="0 0 5 0 0 0 0 0 0 0"
    ascent="756"
    descent="-244"
    x-height="518"
    cap-height="708"
    bbox="-79 -244 1045.24 941"
    underline-thickness="50"
    underline-position="-150"
    unicode-range="U+0020-FB02"
  />
<missing-glyph horiz-adv-x="588" 
d="M542 0h-518l98 700h518zM478 594h-223l89 -164zM286 351q-8 15 -15.5 28.5t-16.5 31t-21.5 41t-30.5 58.5l-44 -316zM506 510q-28 -35 -47 -58.5t-33 -41t-25 -31t-23 -28.5l84 -157zM410 107q-5 7 -10.5 16.5t-15 27t-24 46t-38.5 74.5l-135 -164h223z" />
    <glyph glyph-name="fi" unicode="fi" horiz-adv-x="519" 
d="M-31 -106q27 20 35 45.5t10 42.5l77 550q6 45 27.5 78.5t53.5 55.5t72.5 33.5t85.5 11.5l-15 -108q-46 0 -78 -18.5t-37 -52.5l-6 -42h99l-15 -108h-99l-56 -400q-14 -100 -112 -156zM382 639q5 30 27.5 50t51.5 20q31 0 48 -20t12 -50q-4 -29 -26.5 -49.5t-53.5 -20.5
q-29 0 -46 20.5t-13 49.5zM309 0l72 519h110l-72 -519h-110z" />
    <glyph glyph-name="fl" unicode="fl" horiz-adv-x="557" 
d="M-31 -106q27 20 35 45.5t10 42.5l77 550q6 45 27.5 78.5t53.5 55.5t72.5 33.5t85.5 11.5l-15 -108q-46 0 -78 -18.5t-37 -52.5l-5 -36h99l-15 -108h-99l-57 -406q-14 -100 -112 -156zM509 -10q-97 0 -141.5 47.5t-33.5 130.5l76 540h110l-76 -540q-5 -32 13.5 -53.5
t65.5 -21.5z" />
    <glyph glyph-name=".notdef" horiz-adv-x="588" 
d="M542 0h-518l98 700h518zM478 594h-223l89 -164zM286 351q-8 15 -15.5 28.5t-16.5 31t-21.5 41t-30.5 58.5l-44 -316zM506 510q-28 -35 -47 -58.5t-33 -41t-25 -31t-23 -28.5l84 -157zM410 107q-5 7 -10.5 16.5t-15 27t-24 46t-38.5 74.5l-135 -164h223z" />
    <glyph glyph-name=".null" horiz-adv-x="0" 
 />
    <glyph glyph-name="nonmarkingreturn" horiz-adv-x="333" 
 />
    <glyph glyph-name="space" unicode=" " horiz-adv-x="200" 
 />
    <glyph glyph-name="exclam" unicode="!" horiz-adv-x="235" 
d="M117 708h112l-75 -534h-112zM10 63q5 31 28 52t54 21t49.5 -21t13.5 -52t-28.5 -52t-54.5 -21t-49 21t-13 52z" />
    <glyph glyph-name="quotedbl" unicode="&#x22;" horiz-adv-x="353" 
d="M168 456h-93l35 252h112zM310 456h-93l35 252h112z" />
    <glyph glyph-name="numbersign" unicode="#" horiz-adv-x="731" 
d="M629 197h-158q-19 -42 -33 -74t-24 -55.5t-17 -40t-12 -28.5h-116l85 198h-101l-85 -198h-117l86 198h-125l38 109h135q11 23 19 40t18 41h-147l38 110h156q20 45 41 94t41 94h118l-82 -188h100l82 188h117l-84 -188h131l-45 -110h-134l-33 -81h148zM403 306l35 81h-100
l-35 -81h100z" />
    <glyph glyph-name="dollar" unicode="$" horiz-adv-x="581" 
d="M356 409q39 -9 75.5 -22t61.5 -37.5t36 -62.5t-1 -96q-8 -42 -30 -75t-53 -57t-69 -39t-77 -20l-14 -94h-104l14 94q-32 5 -62 18t-54.5 33.5t-43.5 48.5t-29 64l109 45q11 -39 38 -63t58 -32l28 202q-38 9 -72 22t-58 35t-34.5 56t0.5 86q7 42 26.5 74.5t48.5 56
t65.5 38t77.5 19.5l13 92h104l-13 -92q64 -10 116 -50t73 -111l-109 -46q-11 39 -37.5 63t-58.5 31zM185 508q-4 -17 0 -29.5t13.5 -21.5t24 -15.5t32.5 -11.5l22 158q-32 -9 -58.5 -29t-33.5 -50v-1zM315 114q35 8 63.5 29.5t38.5 53.5q3 20 -1.5 35.5t-15 27t-26 20
t-34.5 14.5z" />
    <glyph glyph-name="percent" unicode="%" horiz-adv-x="754" 
d="M623 734l83 -59l-595 -748l-82 59zM354 523q-6 -43 -22 -77t-39 -57.5t-52 -36t-61 -12.5q-70 0 -102 47t-19 138q6 42 22 75t39 56.5t51.5 36t60.5 12.5q70 0 102 -47t20 -135zM265 523q7 51 -6 74t-42 23q-28 0 -45.5 -22.5t-25.5 -72.5q-8 -53 4 -75.5t41 -22.5
q30 0 48.5 23t25.5 73zM710 179q-6 -43 -22 -77t-39 -57.5t-52 -36t-61 -12.5q-70 0 -102 47t-19 138q6 42 21.5 75t38.5 56.5t51.5 36t60.5 12.5q70 0 102.5 -47t20.5 -135zM621 180q7 51 -6.5 74t-42.5 23q-28 0 -45.5 -22.5t-24.5 -72.5q-8 -53 3.5 -75.5t40.5 -22.5
q30 0 49 23t26 73z" />
    <glyph glyph-name="ampersand" unicode="&#x26;" horiz-adv-x="642" 
d="M570 289l-79 -106l106 -145h-145l-39 50q-44 -43 -92.5 -67.5t-112.5 -24.5q-45 0 -83 14.5t-63.5 41t-37 64.5t-4.5 86q5 35 19.5 63t35 50.5t45.5 40t51 32.5q-20 30 -33 63t-8 74q6 40 25.5 71.5t48.5 53t64 32.5t71 11q33 0 62 -11.5t49.5 -32.5t30.5 -50t5 -64
q-5 -34 -18 -59.5t-32 -45.5t-43 -36t-49 -29l80 -102l55 74zM322 592q-29 0 -52.5 -18t-27.5 -47q-4 -23 8 -47t28 -44q16 8 33 17.5t30.5 21.5t23 26t11.5 31q4 27 -11 43.5t-43 16.5zM228 313q-17 -10 -34.5 -21.5t-31.5 -25t-24 -29.5t-13 -35q-7 -48 23 -76t80 -28
q35 0 66.5 19t57.5 46z" />
    <glyph glyph-name="quotesingle" unicode="'" horiz-adv-x="213" 
d="M172 455h-97l36 252h110z" />
    <glyph glyph-name="parenleft" unicode="(" horiz-adv-x="293" 
d="M328 706q-39 -41 -69 -88.5t-51.5 -96.5t-35.5 -97.5t-20 -91.5q-14 -98 7.5 -190t66.5 -186l-97 -58q-59 103 -81 216.5t-8 217.5q16 109 70 222.5t137 210.5z" />
    <glyph glyph-name="parenright" unicode=")" horiz-adv-x="296" 
d="M-34 -67q38 41 68.5 88t53.5 95.5t37.5 96t20.5 91.5q14 100 -4.5 198.5t-66.5 193.5l98 59q29 -51 49 -108.5t31 -116t12.5 -116.5t-5.5 -110q-15 -109 -69 -222t-139 -211z" />
    <glyph glyph-name="asterisk" unicode="*" horiz-adv-x="446" 
d="M450 529l-120 -35l59 -98l-87 -60l-61 100l-86 -100l-75 58l89 101l-111 36l42 97l113 -38l17 120h100l-17 -121l121 37z" />
    <glyph glyph-name="plus" unicode="+" horiz-adv-x="572" 
d="M275 586h111l-28 -198h196l-16 -112h-196l-28 -201h-111l28 201h-204l16 112h204z" />
    <glyph glyph-name="comma" unicode="," horiz-adv-x="246" 
d="M54 -122h-111l111 262h125z" />
    <glyph glyph-name="hyphen" unicode="-" horiz-adv-x="385" 
d="M322 239h-278l16 112h278z" />
    <glyph glyph-name="period" unicode="." horiz-adv-x="226" 
d="M8 67q5 31 28 52t54 21t49.5 -21t13.5 -52t-28.5 -52t-54.5 -21t-49 21t-13 52z" />
    <glyph glyph-name="slash" unicode="/" horiz-adv-x="438" 
d="M75 -40l-98 37l400 746l97 -36z" />
    <glyph glyph-name="zero" unicode="0" horiz-adv-x="609" 
d="M261 -10q-45 0 -89 12.5t-77 38.5t-50.5 66t-9.5 94l42 305q7 55 36 95t69.5 66t88 38.5t92.5 12.5t89 -12.5t76.5 -38.5t49.5 -66t10 -95l-42 -305q-8 -54 -36 -94t-68.5 -66t-88 -38.5t-92.5 -12.5zM146 206q-4 -28 6.5 -47t30 -31t44.5 -17t49 -5t50 5t48.5 17
t38.5 31t20 47l43 295q4 28 -6.5 47.5t-29.5 31t-44 16.5t-49 5t-50.5 -5t-49 -16.5t-38.5 -31t-20 -47.5z" />
    <glyph glyph-name="one" unicode="1" horiz-adv-x="334" 
d="M119 0l76 534l-85 -79l-76 69l200 184h96l-100 -708h-111z" />
    <glyph glyph-name="two" unicode="2" horiz-adv-x="566" 
d="M327 601q-51 0 -95.5 -24.5t-71.5 -70.5l-95 41q47 83 123 127t159 44q61 0 103.5 -19.5t67.5 -51.5t32.5 -74t-3 -87t-38 -89.5t-71.5 -82.5l-234 -198h294l-16 -116h-460l-23 79l370 314q38 34 57 71t15.5 67.5t-31 50t-83.5 19.5z" />
    <glyph glyph-name="three" unicode="3" horiz-adv-x="589" 
d="M111 205q9 -24 24.5 -42.5t35.5 -31t44 -19t48 -6.5q28 0 55 6.5t49.5 20t37.5 34t19 47.5q8 59 -22.5 85t-90.5 25h-84l14 105h84q44 0 75 21.5t38 64.5q3 23 -5.5 39.5t-24.5 27t-37 15t-43 4.5q-41 0 -81 -20t-70 -64l-93 52q23 37 53.5 64.5t65 46.5t70.5 28.5
t71 9.5q45 0 85.5 -12.5t70 -37.5t44 -63.5t7.5 -89.5q-5 -35 -26 -72t-69 -58q30 -13 48.5 -31.5t27.5 -41t10 -47.5t-3 -52q-9 -56 -37.5 -98t-69.5 -69.5t-90 -41t-99 -13.5q-39 0 -76.5 10.5t-70 31t-57.5 51.5t-39 72z" />
    <glyph glyph-name="four" unicode="4" horiz-adv-x="562" 
d="M506 170h-52l-24 -170h-112l24 170h-290l-53 87l424 451h106l-61 -432h52zM388 463q10 34 17 60q6 23 11 42t6 19h-15q-20 -27 -36 -49q-14 -19 -25.5 -35.5t-13.5 -18.5l-185 -205h212z" />
    <glyph glyph-name="five" unicode="5" horiz-adv-x="576" 
d="M117 198q17 -45 56.5 -68.5t84.5 -23.5q27 0 54 6.5t49.5 20t38 33.5t18.5 47l5 39q3 27 -6 46t-26.5 31t-42 17.5t-52.5 5.5q-45 0 -83.5 -9.5t-85.5 -29.5l-64 -2l56 396h447l-17 -115h-335l-20 -144q29 8 58 13.5t60 4.5q46 0 90 -12.5t76 -38.5t48.5 -66t8.5 -96
l-6 -41q-8 -55 -36 -96.5t-68 -69.5t-88.5 -42t-96.5 -14q-37 0 -72.5 10t-66 30.5t-54.5 50.5t-38 69z" />
    <glyph glyph-name="six" unicode="6" horiz-adv-x="604" 
d="M486 534q-12 37 -49 52t-83 15q-29 0 -56.5 -6t-50.5 -19t-38.5 -32t-19.5 -44l-15 -104q17 19 38 31.5t42 19.5t41.5 9.5t37.5 2.5q49 0 93.5 -13.5t77 -40.5t48.5 -66.5t9 -92.5l-6 -44q-7 -53 -34 -92.5t-67 -66t-88.5 -40t-97.5 -13.5q-50 0 -95.5 13t-78.5 39.5
t-50 66.5t-9 93l43 304q7 53 35 93t68.5 66.5t89.5 39.5t99 13q38 0 72.5 -7.5t64 -25t52 -44.5t35.5 -66zM449 245q3 25 -6.5 44t-28 32t-44 19.5t-53.5 6.5q-29 0 -56.5 -6.5t-50.5 -19t-38.5 -32t-18.5 -44.5l-5 -37q-3 -26 7 -45t29 -31.5t45 -19t55 -6.5q28 0 55.5 6.5
t49.5 19.5t37 32t18 44z" />
    <glyph glyph-name="seven" unicode="7" horiz-adv-x="518" 
d="M534 708l25 -70l-443 -638h-127l410 592h-324l17 116h442z" />
    <glyph glyph-name="eight" unicode="8" horiz-adv-x="612" 
d="M253 -10q-55 0 -100.5 15.5t-76 45.5t-44.5 73t-7 99q3 21 12 45t24 47t37.5 43t52.5 33q-19 9 -30.5 24t-17.5 33.5t-7 37.5t1 35q7 54 32 91.5t61 61t78.5 34t86.5 10.5h17q44 0 84 -11t69 -35t43 -61.5t7 -89.5q-5 -35 -25.5 -72.5t-62.5 -54.5q28 -12 45 -30.5
t25 -41t9 -48t-3 -51.5q-9 -56 -35 -99t-65 -73t-88.5 -45.5t-104.5 -15.5h-17zM341 619q-23 0 -45 -6.5t-40.5 -18.5t-31 -29.5t-15.5 -40.5q-3 -25 5.5 -42.5t24 -28t36.5 -15.5t43 -5t46 5t44.5 15.5t35.5 28t18 42.5q3 23 -4.5 40.5t-22.5 29.5t-35 18.5t-42 6.5h-17z
M285 97q25 0 52.5 7.5t50.5 22.5t39.5 37t20.5 51q5 34 -4 57.5t-27.5 38t-44 21t-54.5 6.5h-17q-29 0 -56 -6.5t-49.5 -21t-38 -38t-20.5 -57.5q-4 -29 6.5 -51t29.5 -37t44 -22.5t50 -7.5h18z" />
    <glyph glyph-name="nine" unicode="9" horiz-adv-x="607" 
d="M118 192q23 -48 63.5 -67t86.5 -19q29 0 57 6t50.5 18t38 30.5t18.5 44.5l14 100q-14 -17 -33 -28.5t-40.5 -18.5t-43.5 -10t-41 -3q-49 0 -93.5 13.5t-76.5 40t-48.5 66t-10.5 92.5l6 49q6 53 33.5 92.5t67.5 66t89 40t98 13.5q50 0 95.5 -13t78.5 -39.5t49.5 -66.5
t9.5 -93l-42 -302q-8 -53 -36 -93t-68.5 -67t-89.5 -40.5t-98 -13.5q-38 0 -74 10t-66.5 29.5t-55 49t-37.5 67.5zM172 457q-3 -25 6.5 -44t28 -31.5t44 -19t53.5 -6.5q29 0 57 6t51 19t38 31.5t18 44.5l5 43q3 26 -7 45t-28.5 31.5t-44.5 18.5t-55 6q-28 0 -55.5 -6
t-50 -19t-37.5 -32t-18 -44z" />
    <glyph glyph-name="colon" unicode=":" horiz-adv-x="254" 
d="M69 415q5 31 28.5 51.5t54.5 20.5t49.5 -20.5t13.5 -51.5t-28.5 -52t-54.5 -21t-49.5 21t-13.5 52zM22 80q5 32 28.5 52.5t54.5 20.5t49.5 -20.5t13.5 -52.5q-5 -31 -28.5 -51.5t-54.5 -20.5t-49.5 20.5t-13.5 51.5z" />
    <glyph glyph-name="semicolon" unicode=";" horiz-adv-x="266" 
d="M70 402q5 31 28 51.5t55 20.5q31 0 48.5 -20.5t12.5 -51.5t-27.5 -52t-53.5 -21q-32 0 -50 21t-13 52zM71 -122h-110l101 262h134z" />
    <glyph glyph-name="less" unicode="&#x3c;" horiz-adv-x="444" 
d="M169 298q10 -7 23 -14.5t35 -21t57.5 -35.5t91.5 -57l-18 -128l-340 217l11 77l402 221l-18 -128z" />
    <glyph glyph-name="equal" unicode="=" horiz-adv-x="531" 
d="M478 324h-420l15 108h420zM454 153h-420l15 106h420z" />
    <glyph glyph-name="greater" unicode="&#x3e;" horiz-adv-x="447" 
d="M415 259l-403 -217l18 128l247 129l-210 129l18 129l341 -221z" />
    <glyph glyph-name="question" unicode="?" horiz-adv-x="489" 
d="M64 600q49 64 108 91t116 27q44 0 83.5 -14t67.5 -41t41.5 -67.5t5.5 -92.5q-7 -48 -26.5 -86t-48 -65t-64 -44t-74.5 -23l-26 -124h-99l23 219q46 -10 85 3.5t66.5 38.5t41 57t9 60.5t-29 48t-73.5 19.5q-32 0 -68 -17.5t-69 -52.5zM116 56q4 28 26 48t51 20t46 -20
t13 -48q-4 -26 -26.5 -46t-51.5 -20t-45.5 20t-12.5 46z" />
    <glyph glyph-name="at" unicode="@" horiz-adv-x="753" 
d="M641 413q7 51 -5.5 89.5t-40.5 64.5t-68 39t-87 13q-62 0 -113.5 -23t-90.5 -60.5t-63.5 -85.5t-33.5 -98q-11 -68 6.5 -126t61.5 -95t113 -46t159 22l30 -80q-50 -19 -88.5 -27t-71.5 -8q-92 0 -154.5 28t-99 77t-48.5 115t-1 141q10 75 47 141t92 114.5t123.5 76.5
t143.5 28q71 0 128.5 -23t96 -63t56 -94.5t8.5 -117.5q-9 -62 -36 -114.5t-64.5 -91.5t-81.5 -61t-87 -22q-20 0 -38 9t-26 30q-46 -28 -89 -27.5t-74.5 21t-48.5 57.5t-10 84q6 40 18.5 77.5t33 69.5t48 58t62.5 42q21 10 49 16t54.5 4.5t46.5 -13t25 -35.5l11 23l72 -14
l-105 -304q22 1 44.5 18.5t42 45t34 60.5t19.5 65zM289 301q-4 -23 6.5 -41t31.5 -18q24 0 48 17t43 42.5t32.5 54.5t16.5 54q4 28 -3.5 45.5t-28.5 17.5q-31 1 -56.5 -16t-44 -42.5t-30 -56t-15.5 -57.5z" />
    <glyph glyph-name="A" unicode="A" horiz-adv-x="627" 
d="M587 0h-121l-44 184h-254l-89 -184h-124l354 708h121zM346 591l-40 -114l-82 -177h175l-33 179l-6 112h-14z" />
    <glyph glyph-name="B" unicode="B" horiz-adv-x="624" 
d="M588 513q-5 -36 -25.5 -73.5t-58.5 -60.5q27 -12 43 -30t24 -40t9 -46.5t-3 -51.5q-9 -59 -34 -99t-61.5 -65t-83 -36t-98.5 -11h-275l99 709h276q44 0 81.5 -12t63.5 -36.5t38 -61.5t5 -86zM360 426q44 0 75.5 21t38.5 70q6 41 -21 60.5t-69 19.5h-160l-24 -171h160z
M316 111q28 -1 53 4.5t44.5 18t32 32.5t16.5 49q8 58 -24 83t-92 24h-160l-30 -211h160z" />
    <glyph glyph-name="C" unicode="C" horiz-adv-x="599" 
d="M73 490q8 57 37.5 99.5t72 71t93.5 43t103 14.5q39 0 76 -10t68.5 -30t56 -50.5t37.5 -71.5l-110 -51q-19 48 -59.5 72.5t-87.5 24.5q-29 0 -58.5 -7t-53.5 -21t-40 -35t-20 -49l-37 -272q-4 -28 6.5 -49t30.5 -35t47 -21t56 -7q48 0 95 24t79 72l97 -48q-26 -41 -59 -72
t-71 -51.5t-78 -30.5t-79 -10q-51 0 -97.5 14t-80.5 42.5t-51.5 71.5t-9.5 100z" />
    <glyph glyph-name="D" unicode="D" horiz-adv-x="634" 
d="M377 708q52 0 98 -13t79 -40.5t49 -69.5t8 -100l-38 -266q-8 -58 -35.5 -99.5t-68 -68t-90 -39t-101.5 -12.5h-254l99 708h254zM294 116q30 0 57.5 5.5t50 18t37 32t18.5 47.5l38 266q4 28 -5.5 48.5t-28 33.5t-44.5 19t-56 6h-139l-67 -476h139z" />
    <glyph glyph-name="E" unicode="E" horiz-adv-x="576" 
d="M198 412h323l-16 -116h-323l-25 -180h351l-16 -116h-467l99 709h467l-16 -116h-351z" />
    <glyph glyph-name="F" unicode="F" horiz-adv-x="564" 
d="M196 393h307l-17 -116h-307l-38 -277h-116l99 708h466l-16 -116h-350z" />
    <glyph glyph-name="G" unicode="G" horiz-adv-x="631" 
d="M74 492q8 57 37.5 99t71.5 70.5t93 42.5t102 14q39 0 75.5 -8.5t67.5 -27.5t55 -48t38 -70l-111 -52q-17 48 -57.5 68.5t-86.5 20.5q-29 0 -57.5 -7t-52 -21t-40 -35t-20.5 -49l-38 -269q-4 -29 6.5 -50.5t30.5 -35.5t47.5 -21t56.5 -7q30 0 59.5 7t54 21t41 35.5
t20.5 50.5l7 56h-199l16 111h314l-23 -166q-8 -58 -37.5 -101.5t-72.5 -72t-94 -42.5t-103 -14q-51 0 -98 14t-81 42.5t-51 72t-9 101.5z" />
    <glyph glyph-name="H" unicode="H" horiz-adv-x="681" 
d="M140 0h-116l99 708h116l-42 -297h315l42 297h116l-99 -708h-116l41 296h-315z" />
    <glyph glyph-name="I" unicode="I" horiz-adv-x="250" 
d="M140 0h-115l99 708h115z" />
    <glyph glyph-name="J" unicode="J" horiz-adv-x="596" 
d="M590 708l-69 -493q-8 -56 -37 -98.5t-70 -71t-90.5 -42.5t-98.5 -14q-44 0 -84.5 13.5t-72.5 40.5t-52 67.5t-23 94.5l119 19q1 -30 13 -52.5t30 -37t41 -21.5t48 -7q27 0 54 7t49.5 21.5t38 35.5t19.5 49l54 382h-176l15 107h292z" />
    <glyph glyph-name="K" unicode="K" horiz-adv-x="628" 
d="M545 708h143l-366 -342l269 -366h-147l-216 284l-57 -50l-32 -234h-115l99 708h115l-44 -313z" />
    <glyph glyph-name="L" unicode="L" horiz-adv-x="517" 
d="M124 708h115l-83 -592h323l-16 -116h-438z" />
    <glyph glyph-name="M" unicode="M" horiz-adv-x="785" 
d="M123 708h129l130 -460l262 460h130l-99 -708h-116l45 325l49 192h-10l-83 -167l-152 -252h-91l-81 252l-35 170h-10l-7 -196l-45 -324h-115z" />
    <glyph glyph-name="N" unicode="N" horiz-adv-x="681" 
d="M24 0l99 708h122l187 -418l53 -141l8 2l4 152l57 405h116l-99 -708h-135l-184 410l-47 135l-7 -2l-3 -148l-55 -395h-116z" />
    <glyph glyph-name="O" unicode="O" horiz-adv-x="668" 
d="M74 489q8 57 38.5 100t74.5 71.5t97.5 43t107.5 14.5t103.5 -14.5t86 -43t55 -71.5t10.5 -100l-39 -269q-8 -57 -39 -100.5t-75.5 -72t-98 -43t-107.5 -14.5t-103.5 14.5t-85.5 43t-54 72t-10 100.5zM151 221q-4 -29 7.5 -50.5t33 -35.5t51.5 -21.5t62 -7.5q33 0 65 7.5
t58 21.5t44 35.5t22 50.5l38 265q4 30 -7.5 52t-34 36t-52.5 20.5t-62 6.5t-64 -7t-58 -21t-43.5 -35.5t-21.5 -51.5z" />
    <glyph glyph-name="P" unicode="P" horiz-adv-x="610" 
d="M123 708h274q61 0 104 -20t69 -53t35.5 -75t3.5 -85q-6 -44 -27 -85.5t-56 -73.5t-83.5 -51.5t-109.5 -19.5h-161l-34 -245h-114zM347 351q33 0 58.5 11t44.5 28t30 39t14 44t-2 43.5t-19 38.5t-37 27.5t-55 9.5h-160l-34 -241h160z" />
    <glyph glyph-name="Q" unicode="Q" horiz-adv-x="668" 
d="M392 718q54 0 103.5 -14.5t86 -43t55 -71.5t10.5 -100l-39 -269q-6 -41 -23.5 -74.5t-43.5 -59.5l49 -71l-86 -57l-48 69q-39 -19 -82 -28t-86 -9q-54 0 -103.5 14.5t-85.5 43t-54 72t-10 100.5l39 269q8 57 38.5 100t74.5 71.5t97.5 43t107.5 14.5zM478 176q12 19 15 45
l39 265q4 30 -7.5 52t-34 36t-52.5 20.5t-62 6.5t-63.5 -7t-57.5 -21t-44 -35.5t-22 -51.5l-39 -265q-4 -29 7.5 -50.5t33 -35.5t51.5 -21.5t62 -7.5q51 0 90 11l-45 65l86 56z" />
    <glyph glyph-name="R" unicode="R" horiz-adv-x="620" 
d="M263 274h-85l-38 -274h-116l99 708h274q52 0 95 -12.5t72.5 -38.5t43 -68t6.5 -100q-7 -50 -26 -87t-47.5 -62.5t-65 -40.5t-77.5 -21l180 -278h-141zM351 375q60 0 99.5 26.5t47.5 86.5q4 30 -2.5 50t-22.5 32.5t-39 17.5t-52 4h-159l-31 -217h159z" />
    <glyph glyph-name="S" unicode="S" horiz-adv-x="586" 
d="M184 520q-5 -23 5 -39.5t30 -28t46.5 -19t53.5 -12.5q45 -9 89.5 -23t77.5 -40.5t48.5 -67.5t3.5 -103q-9 -51 -38 -88t-69 -61t-88.5 -36t-96.5 -12q-41 0 -78.5 10.5t-69.5 32t-56 53.5t-37 74l113 48q16 -51 56 -76t90 -25q27 0 53 5t48 16t37 28t20 40
q6 30 -3.5 49.5t-30 32.5t-49.5 20t-61 12q-44 7 -84.5 21.5t-71 39.5t-46 62.5t-8.5 90.5q10 48 37.5 84.5t66.5 61t85 36.5t93 12q40 0 76.5 -8t67.5 -25.5t54 -46.5t35 -71l-111 -46q-16 50 -52 70.5t-85 20.5q-26 0 -51 -6t-46 -17.5t-35.5 -29t-18.5 -39.5z" />
    <glyph glyph-name="T" unicode="T" horiz-adv-x="572" 
d="M383 592l-82 -592h-116l82 592h-215l17 117h546l-17 -117h-215z" />
    <glyph glyph-name="U" unicode="U" horiz-adv-x="671" 
d="M166 222q-4 -30 6.5 -52t30.5 -36.5t47.5 -21.5t56.5 -7q30 0 59 7t53.5 21.5t41 36.5t20.5 52l69 486h116l-69 -486q-8 -58 -38 -101.5t-72.5 -72.5t-93.5 -43.5t-102 -14.5t-98.5 14.5t-82 43.5t-51.5 72.5t-9 101.5l69 486h116z" />
    <glyph glyph-name="V" unicode="V" horiz-adv-x="627" 
d="M269 258q-1 0 1.5 -21t5.5 -46l8 -66h10l49 135l221 448h122l-354 -708h-122l-157 708h123z" />
    <glyph glyph-name="W" unicode="W" horiz-adv-x="925" 
d="M168 0l-106 708h120l63 -443q-1 0 -0.5 -20.5t1.5 -45.5q1 -29 1 -66h9l41 137l159 334h97l63 -336q-1 0 1 -21t4 -46l6 -66h9l35 132l186 441h119l-304 -708h-123l-64 346l-1 89h-7q-9 -25 -15 -44q-5 -17 -10 -30.5t-4 -13.5l-157 -347h-123z" />
    <glyph glyph-name="X" unicode="X" horiz-adv-x="622" 
d="M440 0l-135 263l-207 -263h-142l291 353l-190 355h140l134 -266l208 266h140l-291 -355l193 -353h-141z" />
    <glyph glyph-name="Y" unicode="Y" horiz-adv-x="599" 
d="M199 0l38 275l-185 433h133l126 -322l215 322h135l-308 -433l-38 -275h-116z" />
    <glyph glyph-name="Z" unicode="Z" horiz-adv-x="590" 
d="M590 708l24 -75l-467 -527h380l-15 -106h-505l-21 76l465 516h-372l17 116h494z" />
    <glyph glyph-name="bracketleft" unicode="[" horiz-adv-x="284" 
d="M126 -12h80l-15 -105h-193l119 845h193l-15 -106h-80z" />
    <glyph glyph-name="backslash" unicode="\" horiz-adv-x="437" 
d="M75 690l110 36l187 -730l-109 -35z" />
    <glyph glyph-name="bracketright" unicode="]" horiz-adv-x="283" 
d="M156 626h-79l15 103h193l-119 -845h-192l15 102h78z" />
    <glyph glyph-name="asciicircum" unicode="^" horiz-adv-x="582" 
d="M569 424h-137l-104 153l-143 -153h-135l261 282h71z" />
    <glyph glyph-name="underscore" unicode="_" horiz-adv-x="610" 
d="M503 -77h-501l14 110h502z" />
    <glyph glyph-name="grave" unicode="`" horiz-adv-x="257" 
d="M65 907h149l70 -151h-120z" />
    <glyph glyph-name="a" unicode="a" 
d="M314 45q-29 -29 -63 -42t-68 -13q-35 0 -66 12t-54 35t-34 56t-5 74l26 180q7 51 30 85.5t56 56t73.5 30.5t82.5 9q48 0 97.5 -13t88.5 -33l-67 -482h-89zM361 417q-14 8 -33 12.5t-39 4.5q-22 0 -43.5 -4.5t-39.5 -15t-31 -27t-16 -39.5l-26 -181q-3 -20 2.5 -33.5
t16.5 -22.5t26.5 -13.5t33.5 -4.5q29 -1 58 8t49 24z" />
    <glyph glyph-name="b" unicode="b" horiz-adv-x="510" 
d="M195 507q48 21 100 21q38 0 72.5 -12t60 -34.5t38 -56t6.5 -76.5l-26 -185q-11 -49 -34 -82t-54.5 -53.5t-69 -29.5t-77.5 -9q-51 0 -100.5 11.5t-91.5 28.5l95 679h110zM138 96q14 -7 34 -11t41 -3q20 0 40.5 4.5t37.5 14.5t29 25.5t16 37.5l27 190q1 21 -7 36t-22 24.5
t-32.5 14.5t-38.5 5q-21 0 -42.5 -5.5t-38.5 -15.5z" />
    <glyph glyph-name="c" unicode="c" horiz-adv-x="473" 
d="M51 350q6 45 28.5 78.5t54.5 55.5t70 33t76 11q30 0 60.5 -7.5t55.5 -23.5t43 -42t23 -63l-105 -38q-5 35 -32 50.5t-59 16.5q-18 0 -36 -4.5t-32.5 -13.5t-24.5 -22t-12 -30l-26 -180q-2 -17 4 -31t18 -23.5t28.5 -14.5t35.5 -5q32 1 63.5 19t45.5 52l95 -42
q-16 -37 -41 -63t-55 -42t-63 -23.5t-63 -7.5q-38 0 -72.5 11.5t-60 34.5t-38 57t-6.5 79z" />
    <glyph glyph-name="d" unicode="d" 
d="M415 30q-46 -17 -98.5 -28.5t-103.5 -11.5q-40 0 -75.5 9t-62 29t-40.5 53.5t-11 82.5l26 185q6 43 28 76t53.5 56t69.5 35t76 12q52 0 94 -21l29 202h110zM358 413q-16 11 -36.5 16.5t-43.5 4.5q-19 -1 -38 -6t-35 -15t-27.5 -24.5t-16.5 -34.5l-27 -190q-2 -22 6 -37.5
t22 -25.5t33 -14.5t39 -4.5q22 -1 42.5 3t37.5 11z" />
    <glyph glyph-name="e" unicode="e" horiz-adv-x="479" 
d="M401 91q-40 -50 -91.5 -75.5t-102.5 -25.5q-38 0 -73.5 11.5t-61.5 34.5t-39.5 57t-7.5 79l24 172q6 46 28.5 80.5t54.5 57.5t70 34.5t77 11.5t73.5 -11.5t60 -34t37.5 -56.5t6 -79q-5 -37 -23.5 -64.5t-46 -45.5t-63.5 -26.5t-76 -8.5q-57 0 -108 20l-6 -50
q-3 -20 2.5 -34.5t17.5 -25t28.5 -16t34.5 -5.5q29 -1 61.5 12t53.5 40zM151 304q17 -5 44 -11t59 -6q44 0 68 20t26 50q2 26 -19 46.5t-64 20.5q-19 0 -37 -5.5t-33 -16.5t-25 -26.5t-13 -35.5z" />
    <glyph glyph-name="f" unicode="f" horiz-adv-x="288" 
d="M-31 -106q27 20 35 45.5t10 42.5l77 550q6 45 27.5 78.5t53.5 55.5t72.5 33.5t85.5 11.5l-15 -108q-46 0 -78 -18.5t-37 -52.5l-7 -41h99l-15 -108h-99l-55 -401q-14 -100 -112 -156z" />
    <glyph glyph-name="g" unicode="g" horiz-adv-x="504" 
d="M63 -45q18 -29 52.5 -47t70.5 -18q19 0 38 8t34.5 23.5t26.5 37.5t15 51q-25 -10 -50 -14.5t-49 -4.5q-39 0 -74 12t-60 35t-37 56t-6 77l25 175q7 48 31 83t58.5 57t76.5 32t85 10q49 -1 94 -14.5t77 -38.5l-70 -489q-7 -49 -29 -85t-53.5 -59t-69.5 -34.5t-77 -11.5
q-29 0 -57 6.5t-52.5 18.5t-43.5 30t-31 41zM352 406q-13 10 -32.5 15.5t-40.5 5.5q-20 0 -40 -4.5t-36.5 -14t-28.5 -25t-15 -37.5l-27 -173q-2 -20 5.5 -34.5t20 -23.5t30 -14t36.5 -5q23 0 46 6t40 17z" />
    <glyph glyph-name="h" unicode="h" horiz-adv-x="520" 
d="M197 508q51 20 102 20q37 0 71 -10.5t58.5 -33t36 -56.5t5.5 -81l-47 -347h-109l47 342q3 21 -3.5 36t-19.5 24.5t-31 14t-37 4.5q-23 0 -46.5 -5.5t-41.5 -16.5l-55 -399h-110l99 708h109z" />
    <glyph glyph-name="i" unicode="i" horiz-adv-x="228" 
d="M170 718q31 0 48 -20t12 -50q-4 -29 -26.5 -49.5t-53.5 -20.5q-29 0 -46 20.5t-13 49.5q5 30 27.5 50t51.5 20zM199 519l-73 -519h-110l73 519h110z" />
    <glyph glyph-name="j" unicode="j" horiz-adv-x="228" 
d="M90 648q5 30 28 50t52 20q30 0 47.5 -20t12.5 -50q-5 -29 -27.5 -49.5t-52.5 -20.5q-29 0 -47 20.5t-13 49.5zM-64 -74q23 0 37.5 5.5t23.5 15t13 23t6 29.5l73 520h110l-73 -520q-11 -83 -60 -129.5t-144 -46.5z" />
    <glyph glyph-name="k" unicode="k" horiz-adv-x="500" 
d="M385 518h138l-249 -239l176 -279h-129l-134 212l-35 -31l-25 -181h-110l99 708h110l-56 -399z" />
    <glyph glyph-name="l" unicode="l" horiz-adv-x="260" 
d="M211 -10q-97 0 -141.5 47.5t-33.5 130.5l75 540h110l-75 -540q-5 -32 13.5 -53.5t65.5 -21.5z" />
    <glyph glyph-name="m" unicode="m" horiz-adv-x="774" 
d="M80 473q38 24 88 39.5t98 15.5q46 -1 84.5 -18.5t55.5 -54.5q28 34 68.5 53.5t89.5 19.5q35 0 66.5 -12.5t54.5 -35.5t34 -56.5t5 -76.5l-48 -347h-109l48 343q7 35 -14.5 56.5t-53.5 21.5q-16 0 -33 -6t-31.5 -16t-25 -23.5t-12.5 -28.5l-48 -347h-108l49 352
q2 17 -3.5 30t-16.5 21.5t-26.5 13t-32.5 4.5q-20 1 -41.5 -4.5t-39.5 -16.5l-55 -400h-108z" />
    <glyph glyph-name="n" unicode="n" horiz-adv-x="518" 
d="M83 486q43 20 93 31t98 11q43 -1 81 -11.5t65.5 -32.5t41 -56.5t6.5 -83.5l-48 -344h-109l47 339q2 22 -6 37.5t-22 25.5t-32.5 14.5t-38.5 4.5q-21 0 -41.5 -4.5t-36.5 -13.5l-56 -403h-110z" />
    <glyph glyph-name="o" unicode="o" horiz-adv-x="496" 
d="M50 349q6 45 28.5 78t54.5 55.5t70.5 34t76.5 11.5q37 0 72 -11.5t60.5 -34t38.5 -55.5t7 -78l-25 -180q-6 -45 -28.5 -78.5t-54.5 -56t-70 -33.5t-75 -11q-38 0 -73.5 11t-61 33.5t-38.5 56t-7 78.5zM265 421q-17 0 -34.5 -4.5t-32.5 -13.5t-25 -22.5t-13 -31.5
l-24 -175q-3 -18 3.5 -32.5t19 -24.5t29 -15t33.5 -5q16 0 33 5t32 15t25 24.5t13 32.5l24 175q3 18 -4 31.5t-19 22.5t-28 13.5t-32 4.5z" />
    <glyph glyph-name="p" unicode="p" horiz-adv-x="511" 
d="M83 487q45 19 98.5 30t104.5 11q42 0 78.5 -9.5t63 -30.5t39 -55.5t5.5 -84.5l-26 -184q-6 -44 -28.5 -77t-55 -54.5t-71 -32t-76.5 -10.5q-50 0 -90 18l-24 -177h-110zM138 99q17 -6 37.5 -9.5t41.5 -2.5q41 0 75 17.5t44 59.5l27 186q3 23 -3.5 39t-20.5 26t-33.5 14
t-40.5 4q-43 0 -82 -17z" />
    <glyph glyph-name="q" unicode="q" 
d="M302 8q-47 -18 -98 -18q-38 0 -73 11t-60.5 33t-38.5 54.5t-7 75.5l25 184q7 50 29 84.5t54.5 55.5t72 30.5t81.5 9.5q52 0 102 -11t90 -30l-92 -656h-110zM359 416q-18 9 -40.5 13.5t-45.5 3.5q-41 -1 -73.5 -20.5t-38.5 -62.5l-26 -186q-1 -21 6.5 -35.5t21 -23.5
t31.5 -13.5t38 -4.5q21 -1 42 2.5t41 9.5z" />
    <glyph glyph-name="r" unicode="r" horiz-adv-x="326" 
d="M285 528q13 0 27 -1t31 -5l-14 -97q-20 6 -46 5t-49.5 -10.5t-41 -27.5t-21.5 -44l-49 -348h-110l49 350q8 56 40.5 97t77.5 59q33 14 64 18t42 4z" />
    <glyph glyph-name="s" unicode="s" horiz-adv-x="445" 
d="M91 166q16 -37 49 -55.5t65 -18.5q29 0 52 14.5t28 43.5q2 14 -4.5 23.5t-17.5 16t-24.5 10.5t-26.5 7q-27 5 -57.5 15.5t-56 29.5t-40 48.5t-8.5 73.5q6 43 25 72.5t46.5 47.5t60 26t65.5 8q21 0 43.5 -4t45 -12.5t43 -21.5t37.5 -32l-76 -72q-16 17 -46 28.5t-63 12.5
q-25 1 -44.5 -10t-26.5 -37q-4 -17 3 -29.5t20 -21t29.5 -13.5t32.5 -8q30 -5 59.5 -15t51 -28.5t33 -46.5t6.5 -69q-6 -41 -25.5 -70.5t-48 -49.5t-63 -29.5t-69.5 -9.5q-30 0 -59.5 7.5t-55 23t-44.5 38.5t-29 54z" />
    <glyph glyph-name="t" unicode="t" horiz-adv-x="299" 
d="M234 -7q-14 -3 -31 -3h-19q-37 0 -67.5 11t-50.5 33.5t-29 57t-2 82.5l68 473h100l-10 -129h99l-13 -101h-99l-36 -242q-5 -31 2.5 -48.5t22 -26t35 -10.5t43.5 -2z" />
    <glyph glyph-name="u" unicode="u" horiz-adv-x="519" 
d="M423 33q-50 -20 -103 -31.5t-102 -11.5q-42 0 -78 10t-61.5 32t-37.5 56t-5 82l49 348h110l-49 -350q-2 -21 5.5 -37t21.5 -26t33 -15t39 -5t41 4.5t38 13.5l58 415h109z" />
    <glyph glyph-name="v" unicode="v" horiz-adv-x="491" 
d="M398 518h117l-256 -518h-113l-111 518h116l62 -302l2 -103h7l33 103z" />
    <glyph glyph-name="w" unicode="w" horiz-adv-x="724" 
d="M456 506l25 -385h2l50 163l100 234h111l-227 -518h-111l-21 374h-2l-146 -374h-115l-84 518h111l34 -236l10 -163h2l157 387h104z" />
    <glyph glyph-name="x" unicode="x" horiz-adv-x="497" 
d="M443 0h-127l-85 173l-135 -173h-128l212 259l-140 259h128l87 -174l133 174h126l-205 -259z" />
    <glyph glyph-name="y" unicode="y" horiz-adv-x="527" 
d="M423 -14q-7 -50 -30 -86t-56 -59t-72 -34t-79 -11q-30 0 -58 6.5t-53 18.5t-44 30t-31 41l75 63q17 -29 52 -44.5t73 -15.5q44 0 79 27.5t43 87.5q-52 -20 -104 -20q-39 1 -75 13t-62 35.5t-38.5 56.5t-6.5 76l48 347h110l-49 -345q-2 -20 6 -35.5t22 -26t32.5 -16
t38.5 -5.5q24 0 48 6t41 17l56 405h109z" />
    <glyph glyph-name="z" unicode="z" horiz-adv-x="470" 
d="M423 518l33 -66l-305 -346h259l-15 -106h-369l-36 65l310 349h-245l14 104h354z" />
    <glyph glyph-name="braceleft" unicode="{" horiz-adv-x="310" 
d="M272 626q-15 0 -19.5 -10.5t-6.5 -29.5l-20 -142q-6 -50 -30.5 -87.5t-52.5 -50.5q26 -17 39 -52.5t5 -86.5l-20 -145q-6 -36 10 -36h54l-15 -102h-61q-36 0 -58 9.5t-33 27t-13 42.5t2 57l18 129q3 20 3 39t-5 33.5t-16 23.5t-29 9l15 103q18 0 31.5 9t22.5 24t14.5 34
t8.5 39l18 129q9 63 42 100t107 37h52l-15 -103h-48z" />
    <glyph glyph-name="bar" unicode="|" horiz-adv-x="225" 
d="M-8 -157l125 884h110l-125 -884h-110z" />
    <glyph glyph-name="braceright" unicode="}" horiz-adv-x="311" 
d="M141 729q45 0 70.5 -9.5t37 -27.5t11.5 -43.5t-4 -56.5l-18 -129q-3 -20 -3 -39t5 -34t16 -24t30 -9l-15 -103q-19 0 -32.5 -9t-22.5 -23.5t-14.5 -33.5t-8.5 -39l-18 -129q-4 -32 -13 -57t-26.5 -42.5t-45.5 -27t-70 -9.5h-44l15 102h43q14 0 20.5 9t9.5 27l20 145
q6 50 28.5 88t53.5 52q-26 8 -38.5 47t-4.5 90l20 142q2 19 0.5 29.5t-18.5 10.5h-46l15 103h47z" />
    <glyph glyph-name="asciitilde" unicode="~" horiz-adv-x="479" 
d="M440 304q-26 -37 -61 -63.5t-83 -26.5q-29 0 -52.5 15.5t-44.5 30.5q-14 11 -25 15t-21.5 1t-21.5 -13t-25 -26l-67 65q26 32 59.5 56t76.5 24q34 0 58 -13.5t41 -27.5q15 -14 26.5 -18t22 0t22 15.5t27.5 29.5z" />
    <glyph glyph-name="uni00A0" unicode="&#xa0;" horiz-adv-x="200" 
 />
    <glyph glyph-name="exclamdown" unicode="&#xa1;" horiz-adv-x="227" 
d="M207 455q-5 -31 -28 -52t-54 -21t-49.5 21t-13.5 52t28.5 52t54.5 21t49 -21t13 -52zM100 -190h-112l75 534h112z" />
    <glyph glyph-name="cent" unicode="&#xa2;" horiz-adv-x="481" 
d="M316 521q25 -4 49.5 -13.5t44 -25.5t33 -39.5t18.5 -54.5l-105 -38q-5 26 -20 41t-36 21l-43 -308q23 7 42.5 22t30.5 41l97 -38q-14 -32 -34.5 -55t-45 -39.5t-51.5 -26t-54 -12.5l-10 -72h-74l10 72q-32 4 -60.5 17t-48.5 35t-29.5 52.5t-3.5 70.5l24 175q6 39 24 70
t44 52.5t58 34.5t66 18l11 77h74zM135 170q0 -23 13.5 -39t35.5 -24l42 303q-23 -8 -41 -24t-25 -39z" />
    <glyph glyph-name="sterling" unicode="&#xa3;" horiz-adv-x="520" 
d="M131 315h-92l15 102h92l12 90q5 33 20 70.5t43 68.5t70.5 51.5t102.5 20.5q41 0 77 -17.5t59 -56.5l-75 -68q-22 28 -52 34t-58.5 -5.5t-50 -37t-25.5 -60.5l-12 -90h145l-15 -102h-145l-27 -209h242l-14 -106h-445l14 106h92z" />
    <glyph glyph-name="currency" unicode="&#xa4;" horiz-adv-x="609" 
d="M82 206q-33 59 -22 137q5 37 20.5 72t39.5 64l-11 15l-32 35l82 77l45 -54q64 39 141 39q75 0 129 -39l62 54l59 -77l-58 -49q16 -29 22 -64t1 -73q-12 -80 -62 -137l12 -14l33 -35l-81 -77l-47 54q-35 -21 -68.5 -30t-71.5 -9q-35 0 -68.5 10t-61.5 29l-18 -18l-42 -35
l-60 76zM168 342q-4 -29 3.5 -55t24 -45.5t40.5 -30.5t53 -11t56 11t49 30.5t37 45.5t19 55q4 30 -3.5 56t-24 45.5t-40.5 31t-53 11.5t-56 -11.5t-49 -31t-37 -45.5t-19 -56z" />
    <glyph glyph-name="yen" unicode="&#xa5;" horiz-adv-x="634" 
d="M482 265h-117l-6 -38h139l-33 -87h-118l-19 -140h-112l19 140h-143l33 87h122l6 38h-141l35 91h82l-152 352h130l121 -306l207 306h132l-251 -352h100z" />
    <glyph glyph-name="brokenbar" unicode="&#xa6;" horiz-adv-x="231" 
d="M61 315l52 369h111l-52 -369h-111zM-1 -128l52 370h111l-52 -370h-111z" />
    <glyph glyph-name="section" unicode="&#xa7;" horiz-adv-x="470" 
d="M89 39q10 -32 38 -48t58.5 -16t55.5 17t30 50q4 27 -13.5 45.5t-45 34t-60 30.5t-59.5 35.5t-42.5 49t-9.5 70.5q5 41 28.5 70t54.5 49q-17 20 -26.5 47t-4.5 60q6 45 31 80t59.5 57.5t75.5 31.5t79.5 3t71 -29t50.5 -64l-96 -54q-12 32 -37 41.5t-50.5 3t-46 -25.5
t-24.5 -44t13 -43t43.5 -33t58.5 -30.5t58 -36t41 -48t10 -66.5q-5 -38 -24 -68t-49 -51q17 -21 25.5 -48t4.5 -59q-8 -55 -37 -94t-68.5 -60.5t-85 -26.5t-86.5 6.5t-73.5 40t-46.5 73.5zM267 212q17 11 35 27.5t20 31.5q1 11 -3 20.5t-11.5 17.5t-17 14.5t-17.5 11.5
l-52 31q-23 -8 -44.5 -22.5t-24.5 -34.5q-4 -24 8.5 -36t30.5 -22z" />
    <glyph glyph-name="dieresis" unicode="&#xa8;" horiz-adv-x="340" 
d="M76 830q4 29 26 49t51 20t46 -20t13 -49t-26 -48.5t-51 -19.5t-46 19.5t-13 48.5zM277 830q4 29 26 49t51 20t46.5 -20t13.5 -49t-26.5 -48.5t-51.5 -19.5t-46 19.5t-13 48.5z" />
    <glyph glyph-name="copyright" unicode="&#xa9;" horiz-adv-x="791" 
d="M43 351q10 74 48 139.5t93.5 114t125 77t143.5 28.5t135 -28.5t103 -77t61 -114t9 -139.5q-11 -74 -48.5 -139.5t-93 -114.5t-124.5 -77t-143 -28t-135.5 28t-103.5 77t-61.5 114.5t-8.5 139.5zM134 351q-8 -56 6 -104.5t45.5 -85.5t77.5 -58t102 -21q55 0 106.5 21
t93 58t69.5 85.5t36 104.5t-6.5 105t-45.5 85t-77 57t-101 21q-56 0 -108 -21t-93 -57t-69 -85t-36 -105zM216 404q6 43 27.5 74.5t51.5 52.5t66.5 31.5t72.5 10.5q29 0 57.5 -7t52.5 -22.5t41 -40t22 -59.5l-100 -36q-5 34 -31.5 49.5t-58 14t-60 -19t-36.5 -47.5l-15 -113
q-1 -30 22.5 -47.5t54.5 -19t61.5 13.5t45.5 50l92 -36q-15 -35 -39 -59.5t-52.5 -40t-59.5 -22.5t-60 -7q-36 0 -69.5 10.5t-57.5 31.5t-36.5 52.5t-6.5 74.5z" />
    <glyph glyph-name="ordfeminine" unicode="&#xaa;" horiz-adv-x="388" 
d="M89 626q31 38 73 57t84 19q28 0 53 -8.5t43 -25.5t27 -42.5t4 -58.5l-33 -233q-35 -9 -71.5 -15t-71.5 -6q-32 0 -60 6.5t-47.5 22t-28.5 41t-4 63.5q5 33 19.5 55.5t35 36t44.5 19.5t48 6q33 0 59 -9q5 30 -11.5 45t-40.5 15q-20 0 -41 -9t-38 -26zM253 482q-14 6 -32 6
q-21 0 -39.5 -9.5t-23.5 -30.5q-3 -28 14.5 -38.5t39.5 -10.5q8 0 15.5 1t14.5 3z" />
    <glyph glyph-name="guillemotleft" unicode="&#xab;" horiz-adv-x="487" 
d="M292 454l-134 -163l88 -164l-103 -56l-117 220l179 220zM472 454l-134 -164l3 -6t10.5 -19t25.5 -47t49 -90l-104 -57l-116 220l178 220z" />
    <glyph glyph-name="logicalnot" unicode="&#xac;" horiz-adv-x="587" 
d="M62 413h482l-37 -263h-109l21 154h-373z" />
    <glyph glyph-name="uni00AD" unicode="&#xad;" horiz-adv-x="399" 
d="M322 188h-278l16 112h278z" />
    <glyph glyph-name="registered" unicode="&#xae;" horiz-adv-x="791" 
d="M43 351q10 74 48 139.5t93.5 114t125 77t143.5 28.5t135 -28.5t103 -77t61 -114t9 -139.5q-11 -74 -48.5 -139.5t-93 -114.5t-124.5 -77t-143 -28t-135.5 28t-103.5 77t-61.5 114.5t-8.5 139.5zM134 351q-8 -56 6 -104.5t45.5 -85.5t77.5 -58t102 -21q55 0 106.5 21
t93 58t69.5 85.5t36 104.5t-6.5 105t-45.5 85t-77 57t-101 21q-56 0 -108 -21t-93 -57t-69 -85t-36 -105zM282 527h162q40 0 66.5 -14t40 -36.5t14.5 -49.5t-8.5 -53t-30 -48t-50.5 -33l68 -124h-116l-61 117h-21l-17 -117h-98zM418 366q20 0 31.5 12t13 26t-7 26t-27.5 12
h-60l-11 -76h61z" />
    <glyph glyph-name="macron" unicode="&#xaf;" horiz-adv-x="305" 
d="M87 873h263l-17 -96h-263z" />
    <glyph glyph-name="degree" unicode="&#xb0;" horiz-adv-x="363" 
d="M197 413q-31 0 -56.5 11.5t-43 32t-25.5 47.5t-4 58t19.5 58t38.5 47t52 31.5t60 11.5q30 0 55.5 -11.5t43 -31.5t25 -47t3.5 -58q-4 -30 -19.5 -57.5t-38.5 -47.5t-51.5 -32t-58.5 -12zM210 508q22 0 39.5 15.5t20.5 37.5t-10 38t-35 16t-40.5 -16t-21.5 -38t11 -37.5
t36 -15.5z" />
    <glyph glyph-name="plusminus" unicode="&#xb1;" horiz-adv-x="542" 
d="M259 620h111l-22 -154h165l-15 -110h-165l-22 -154h-111l22 154h-161l15 110h161zM456 52h-440l15 109h440z" />
    <glyph glyph-name="twosuperior" unicode="&#xb2;" horiz-adv-x="410" 
d="M81 608q34 58 79 81t96 23q54 0 88.5 -26t45.5 -64.5t-4.5 -83.5t-61.5 -83l-111 -89h157l-14 -101h-291l-20 71l214 186q14 10 22 25.5t7.5 30t-11.5 24.5t-35 9q-26 -1 -46.5 -16t-33.5 -32z" />
    <glyph glyph-name="threesuperior" unicode="&#xb3;" horiz-adv-x="386" 
d="M314 509q29 -12 41.5 -34.5t11.5 -49t-13.5 -53.5t-34.5 -48q-30 -29 -71 -41.5t-77 -11.5q-42 2 -74.5 25.5t-48.5 65.5l-3 13l88 42q8 -23 24.5 -32t33.5 -10q14 -2 32 3t30 16q9 11 10 24q2 17 -9 31.5t-36 12.5h-42l12 79h43q20 3 29.5 14t8.5 23.5t-11 22.5t-29 10
q-17 0 -31.5 -7t-24.5 -16l-9 -11l-80 44q17 25 36.5 41.5t39.5 26.5t39 14.5t36 5.5q38 2 71 -11t51 -41q10 -16 13.5 -37t-1 -42t-18 -39.5t-37.5 -29.5z" />
    <glyph glyph-name="acute" unicode="&#xb4;" horiz-adv-x="224" 
d="M115 756h-114l114 151h141z" />
    <glyph glyph-name="mu" unicode="&#xb5;" horiz-adv-x="520" 
d="M318 38q-17 -23 -45 -35.5t-57 -13t-53 12t-34 39.5l-34 -242h-112l101 717h113l-45 -318q-4 -30 7 -50.5t30 -31t42.5 -10.5t45.5 11t39 33t22 57l43 309h113l-71 -518h-104z" />
    <glyph glyph-name="paragraph" unicode="&#xb6;" horiz-adv-x="627" 
d="M254 237q-79 0 -127.5 35t-67.5 87t-10.5 113.5t42.5 113.5t93 87t140 35h296l-115 -820h-112l101 717h-75l-101 -717h-113z" />
    <glyph glyph-name="periodcentered" unicode="&#xb7;" horiz-adv-x="236" 
d="M46 311q5 31 28 52t55 21q31 0 48.5 -21t12.5 -52t-27.5 -51.5t-53.5 -20.5q-32 0 -50 20.5t-13 51.5z" />
    <glyph glyph-name="cedilla" unicode="&#xb8;" horiz-adv-x="251" 
d="M203 -53q23 -3 38 -15t22 -29.5t5 -38.5t-13 -43q-18 -35 -54 -50t-77 -15q-22 0 -48.5 7t-55.5 26l34 67q26 -17 47.5 -19.5t35.5 3t20 16t2 22t-19 19.5t-43 9l58 105h85z" />
    <glyph glyph-name="onesuperior" unicode="&#xb9;" horiz-adv-x="280" 
d="M52 562l135 128h87l-61 -435h-105l41 286l-49 -41z" />
    <glyph glyph-name="ordmasculine" unicode="&#xba;" horiz-adv-x="413" 
d="M206 309q-30 0 -58 9t-49 26.5t-32 44t-6 61.5l14 102q5 36 23 62.5t44 44t57 26t61 8.5t58.5 -8.5t49.5 -26t32 -44t6 -62.5l-14 -102q-5 -35 -23 -61.5t-44.5 -44t-57.5 -26.5t-61 -9zM166 450q-2 -21 15.5 -31.5t40 -10.5t42 10.5t22.5 31.5l14 102q2 23 -15 34.5
t-39.5 11.5t-42.5 -11.5t-23 -34.5z" />
    <glyph glyph-name="guillemotright" unicode="&#xbb;" horiz-adv-x="486" 
d="M10 127l136 164l-88 163l102 57l117 -220l-179 -220zM191 128l134 163l-88 164l103 56l117 -220l-179 -220z" />
    <glyph glyph-name="onequarter" unicode="&#xbc;" horiz-adv-x="745" 
d="M134 -41l-85 55l535 713l85 -55zM222 276h-105l40 286l-48 -41l-48 62l135 128h87zM697 457l-37 -264h36l-13 -93h-36l-14 -100h-110l14 100h-163l-40 77l268 280h95zM465 192h86l18 108z" />
    <glyph glyph-name="onehalf" unicode="&#xbd;" horiz-adv-x="815" 
d="M135 -41l-82 56l534 712l83 -55zM222 276h-105l40 286l-48 -41l-48 62l135 128h87zM463 343q34 58 78.5 81t95.5 23q54 0 88.5 -26t45.5 -64.5t-4 -83.5t-61 -83l-111 -89h157l-14 -101h-291l-21 71l215 186q14 13 22 29t7 29.5t-12 22.5t-34 8q-26 -1 -47 -16t-34 -32z
" />
    <glyph glyph-name="threequarters" unicode="&#xbe;" horiz-adv-x="812" 
d="M200 -41l-83 56l535 712l83 -55zM36 375l88 42q5 -15 13 -23.5t17.5 -13t19 -5.5t18.5 -1q23 0 41.5 12t20.5 32q2 17 -9 30.5t-36 13.5h-42l12 79h43q20 0 29.5 11t8.5 24t-11 24t-29 11q-20 0 -33 -7t-32 -27l-80 44q17 25 36.5 42t39.5 27t39 14.5t36 4.5q40 0 72 -12
t50 -40q10 -16 13.5 -37t-1 -42t-18 -39.5t-37.5 -29.5q29 -12 41.5 -34.5t11.5 -49t-13.5 -53.5t-34.5 -48q-29 -29 -67 -41t-74 -12q-15 0 -33 4t-36.5 14.5t-34.5 28t-26 44.5zM673 457h95l-37 -264h36l-13 -93h-36l-14 -100h-110l14 100h-163l-40 77zM640 300l-104 -108
h86z" />
    <glyph glyph-name="questiondown" unicode="&#xbf;" horiz-adv-x="483" 
d="M357 462q-4 -28 -26 -48t-51 -20t-46 20t-13 48q4 26 26.5 46t51.5 20t45.5 -20t12.5 -46zM409 -82q-49 -64 -108 -91t-116 -27q-44 0 -83.5 14t-67.5 41t-41.5 67t-5.5 93q7 48 26.5 86t48 65t64 44t74.5 23l26 124h99l-23 -219q-46 10 -85 -3.5t-66.5 -38.5t-41 -57
t-9 -60.5t29 -48t73.5 -19.5q32 0 68 17.5t69 52.5z" />
    <glyph glyph-name="Agrave" unicode="&#xc0;" horiz-adv-x="627" 
d="M247 907h149l70 -151h-120zM587 0h-121l-44 184h-254l-89 -184h-124l354 708h121zM346 591l-40 -114l-82 -177h175l-33 179l-6 112h-14z" />
    <glyph glyph-name="Aacute" unicode="&#xc1;" horiz-adv-x="627" 
d="M416 756h-114l114 151h141zM587 0h-121l-44 184h-254l-89 -184h-124l354 708h121zM346 591l-40 -114l-82 -177h175l-33 179l-6 112h-14z" />
    <glyph glyph-name="Acircumflex" unicode="&#xc2;" horiz-adv-x="627" 
d="M557 756h-127l-46 53l-56 -53h-129l160 151h81zM587 0h-121l-44 184h-254l-89 -184h-124l354 708h121zM346 591l-40 -114l-82 -177h175l-33 179l-6 112h-14z" />
    <glyph glyph-name="Atilde" unicode="&#xc3;" horiz-adv-x="627" 
d="M210 803q20 59 46.5 82t62.5 23q23 0 43 -10.5t37.5 -18t31.5 -5.5t25 27l74 -30q-11 -54 -39 -78.5t-55 -24.5q-25 0 -47.5 11t-42 18.5t-36.5 4.5t-30 -32zM587 0h-121l-44 184h-254l-89 -184h-124l354 708h121zM346 591l-40 -114l-82 -177h175l-33 179l-6 112h-14z
" />
    <glyph glyph-name="Adieresis" unicode="&#xc4;" horiz-adv-x="627" 
d="M217 830q4 29 26 49t51 20t46 -20t13 -49t-26 -48.5t-51 -19.5t-46 19.5t-13 48.5zM418 830q4 29 26 49t51 20t46.5 -20t13.5 -49t-26.5 -48.5t-51.5 -19.5t-46 19.5t-13 48.5zM587 0h-121l-44 184h-254l-89 -184h-124l354 708h121zM346 591l-40 -114l-82 -177h175
l-33 179l-6 112h-14z" />
    <glyph glyph-name="Aring" unicode="&#xc5;" horiz-adv-x="627" 
d="M466 0l-44 184h-254l-89 -184h-124l354 708q-23 14 -35 38.5t-8 54.5q3 27 15.5 47.5t30.5 34.5t40 21t46 7q23 0 43 -9t33.5 -24.5t20 -35.5t3.5 -42q-4 -29 -22.5 -53.5t-45.5 -38.5l157 -708h-121zM328 800q-3 -21 11.5 -34.5t36.5 -13.5q20 0 38 12.5t22 35.5
q3 22 -12 36t-36 14q-22 0 -39 -12t-21 -38zM366 479l-6 112h-14l-40 -114l-82 -177h175z" />
    <glyph glyph-name="AE" unicode="&#xc6;" horiz-adv-x="802" 
d="M546 592l-26 -181h228l-16 -115h-228l-25 -182h255l-16 -114h-368l30 215h-164l-137 -215h-132l476 708h394l-16 -116h-255zM414 459l22 110h-6q-13 -25 -24 -45q-9 -17 -16.5 -33t-9.5 -19l-99 -148h114z" />
    <glyph glyph-name="Ccedilla" unicode="&#xc7;" horiz-adv-x="599" 
d="M291 106q48 0 95 24t79 72l97 -48q-42 -66 -101.5 -105t-123.5 -53l-28 -49q23 -3 38 -15t22 -29.5t5 -38.5t-13 -43q-18 -35 -54 -50t-77 -15q-22 0 -48.5 7t-55.5 26l34 67q26 -17 47.5 -19.5t35.5 3t20 16t2 22t-19 19.5t-43 9l47 85q-47 3 -89 19t-72.5 44.5
t-45.5 69t-7 94.5l37 272q8 57 37.5 99.5t72 71t93.5 43t103 14.5q39 0 76 -10t68.5 -30t56 -50.5t37.5 -71.5l-110 -51q-19 48 -59.5 72.5t-87.5 24.5q-29 0 -58.5 -7t-53.5 -21t-40 -35t-20 -49l-37 -272q-4 -28 6.5 -49t30.5 -35t47 -21t56 -7z" />
    <glyph glyph-name="Egrave" unicode="&#xc8;" horiz-adv-x="576" 
d="M235 907h149l70 -151h-120zM198 412h323l-16 -116h-323l-25 -180h351l-16 -116h-467l99 709h467l-16 -116h-351z" />
    <glyph glyph-name="Eacute" unicode="&#xc9;" horiz-adv-x="576" 
d="M404 756h-114l114 151h141zM198 412h323l-16 -116h-323l-25 -180h351l-16 -116h-467l99 709h467l-16 -116h-351z" />
    <glyph glyph-name="Ecircumflex" unicode="&#xca;" horiz-adv-x="576" 
d="M545 756h-127l-46 53l-56 -53h-129l160 151h81zM198 412h323l-16 -116h-323l-25 -180h351l-16 -116h-467l99 709h467l-16 -116h-351z" />
    <glyph glyph-name="Edieresis" unicode="&#xcb;" horiz-adv-x="576" 
d="M205 830q4 29 26 49t51 20t46 -20t13 -49t-26 -48.5t-51 -19.5t-46 19.5t-13 48.5zM406 830q4 29 26 49t51 20t46.5 -20t13.5 -49t-26.5 -48.5t-51.5 -19.5t-46 19.5t-13 48.5zM198 412h323l-16 -116h-323l-25 -180h351l-16 -116h-467l99 709h467l-16 -116h-351z" />
    <glyph glyph-name="Igrave" unicode="&#xcc;" horiz-adv-x="250" 
d="M59 907h149l70 -151h-120zM140 0h-115l99 708h115z" />
    <glyph glyph-name="Iacute" unicode="&#xcd;" horiz-adv-x="250" 
d="M228 756h-114l114 151h141zM140 0h-115l99 708h115z" />
    <glyph glyph-name="Icircumflex" unicode="&#xce;" horiz-adv-x="250" 
d="M342 756h-97l-47 57l-65 -57h-109l140 151h81zM140 0h-115l99 708h115z" />
    <glyph glyph-name="Idieresis" unicode="&#xcf;" horiz-adv-x="250" 
d="M31 832q4 29 25.5 48t49.5 19t44.5 -19t12.5 -48q-4 -28 -25.5 -47t-49.5 -19t-44.5 19t-12.5 47zM229 832q4 29 25 48t50 19t45.5 -19t12.5 -48q-4 -28 -25.5 -47t-50.5 -19t-45 19t-12 47zM140 0h-115l99 708h115z" />
    <glyph glyph-name="Eth" unicode="&#xd0;" horiz-adv-x="642" 
d="M129 708h266q51 0 95 -12.5t75 -39.5t45.5 -68.5t6.5 -99.5l-38 -269q-8 -58 -34 -99.5t-64.5 -68t-86 -39t-98.5 -12.5h-266l42 302h-57l13 95h57zM312 116q60 0 102 23.5t50 79.5l38 269q4 28 -3.5 48t-24 32.5t-41 18t-54.5 5.5h-150l-28 -195h114l-13 -95h-114
l-26 -186h150z" />
    <glyph glyph-name="Ntilde" unicode="&#xd1;" horiz-adv-x="681" 
d="M247 803q20 59 46.5 82t62.5 23q23 0 43 -10.5t37.5 -18t31.5 -5.5t25 27l74 -30q-11 -54 -39 -78.5t-55 -24.5q-25 0 -47.5 11t-42 18.5t-36.5 4.5t-30 -32zM24 0l99 708h122l187 -418l53 -141l8 2l4 152l57 405h116l-99 -708h-135l-184 410l-47 135l-7 -2l-3 -148
l-55 -395h-116z" />
    <glyph glyph-name="Ograve" unicode="&#xd2;" horiz-adv-x="668" 
d="M269 917h149l70 -151h-120zM74 489q8 57 38.5 100t74.5 71.5t97.5 43t107.5 14.5t103.5 -14.5t86 -43t55 -71.5t10.5 -100l-39 -269q-8 -57 -39 -100.5t-75.5 -72t-98 -43t-107.5 -14.5t-103.5 14.5t-85.5 43t-54 72t-10 100.5zM151 221q-4 -29 7.5 -50.5t33 -35.5
t51.5 -21.5t62 -7.5q33 0 65 7.5t58 21.5t44 35.5t22 50.5l38 265q4 30 -7.5 52t-34 36t-52.5 20.5t-62 6.5t-64 -7t-58 -21t-43.5 -35.5t-21.5 -51.5z" />
    <glyph glyph-name="Oacute" unicode="&#xd3;" horiz-adv-x="668" 
d="M438 766h-114l114 151h141zM74 489q8 57 38.5 100t74.5 71.5t97.5 43t107.5 14.5t103.5 -14.5t86 -43t55 -71.5t10.5 -100l-39 -269q-8 -57 -39 -100.5t-75.5 -72t-98 -43t-107.5 -14.5t-103.5 14.5t-85.5 43t-54 72t-10 100.5zM151 221q-4 -29 7.5 -50.5t33 -35.5
t51.5 -21.5t62 -7.5q33 0 65 7.5t58 21.5t44 35.5t22 50.5l38 265q4 30 -7.5 52t-34 36t-52.5 20.5t-62 6.5t-64 -7t-58 -21t-43.5 -35.5t-21.5 -51.5z" />
    <glyph glyph-name="Ocircumflex" unicode="&#xd4;" horiz-adv-x="668" 
d="M579 766h-127l-46 53l-56 -53h-129l160 151h81zM74 489q8 57 38.5 100t74.5 71.5t97.5 43t107.5 14.5t103.5 -14.5t86 -43t55 -71.5t10.5 -100l-39 -269q-8 -57 -39 -100.5t-75.5 -72t-98 -43t-107.5 -14.5t-103.5 14.5t-85.5 43t-54 72t-10 100.5zM151 221
q-4 -29 7.5 -50.5t33 -35.5t51.5 -21.5t62 -7.5q33 0 65 7.5t58 21.5t44 35.5t22 50.5l38 265q4 30 -7.5 52t-34 36t-52.5 20.5t-62 6.5t-64 -7t-58 -21t-43.5 -35.5t-21.5 -51.5z" />
    <glyph glyph-name="Otilde" unicode="&#xd5;" horiz-adv-x="668" 
d="M232 813q20 59 46.5 82t62.5 23q23 0 43 -10.5t37.5 -18t31.5 -5.5t25 27l74 -30q-11 -54 -39 -78.5t-55 -24.5q-25 0 -47.5 11t-42 18.5t-36.5 4.5t-30 -32zM74 489q8 57 38.5 100t74.5 71.5t97.5 43t107.5 14.5t103.5 -14.5t86 -43t55 -71.5t10.5 -100l-39 -269
q-8 -57 -39 -100.5t-75.5 -72t-98 -43t-107.5 -14.5t-103.5 14.5t-85.5 43t-54 72t-10 100.5zM151 221q-4 -29 7.5 -50.5t33 -35.5t51.5 -21.5t62 -7.5q33 0 65 7.5t58 21.5t44 35.5t22 50.5l38 265q4 30 -7.5 52t-34 36t-52.5 20.5t-62 6.5t-64 -7t-58 -21t-43.5 -35.5
t-21.5 -51.5z" />
    <glyph glyph-name="Odieresis" unicode="&#xd6;" horiz-adv-x="668" 
d="M239 840q4 29 26 49t51 20t46 -20t13 -49t-26 -48.5t-51 -19.5t-46 19.5t-13 48.5zM440 840q4 29 26 49t51 20t46.5 -20t13.5 -49t-26.5 -48.5t-51.5 -19.5t-46 19.5t-13 48.5zM74 489q8 57 38.5 100t74.5 71.5t97.5 43t107.5 14.5t103.5 -14.5t86 -43t55 -71.5
t10.5 -100l-39 -269q-8 -57 -39 -100.5t-75.5 -72t-98 -43t-107.5 -14.5t-103.5 14.5t-85.5 43t-54 72t-10 100.5zM151 221q-4 -29 7.5 -50.5t33 -35.5t51.5 -21.5t62 -7.5q33 0 65 7.5t58 21.5t44 35.5t22 50.5l38 265q4 30 -7.5 52t-34 36t-52.5 20.5t-62 6.5t-64 -7
t-58 -21t-43.5 -35.5t-21.5 -51.5z" />
    <glyph glyph-name="multiply" unicode="&#xd7;" horiz-adv-x="513" 
d="M429 518l66 -79l-160 -141l120 -139l-88 -78l-120 140l-166 -145l-64 80l162 141l-124 145l87 77l125 -144z" />
    <glyph glyph-name="Oslash" unicode="&#xd8;" horiz-adv-x="668" 
d="M555 678q48 -28 74.5 -75t17.5 -114l-39 -269q-8 -57 -39 -100.5t-75.5 -72t-98 -43t-107.5 -14.5q-55 0 -100 13l-43 -80l-69 28l44 82q-46 28 -70.5 74.5t-14.5 112.5l39 269q8 57 38.5 100t74.5 71.5t97.5 43t107.5 14.5q25 0 50 -3t48 -10l43 78l64 -28zM151 221
q-4 -25 4.5 -44.5t25.5 -33.5l249 453q-28 5 -54 5q-32 0 -64 -7t-58 -21t-43.5 -35.5t-21.5 -51.5zM532 486q5 29 -5 49.5t-30 34.5l-249 -458q27 -6 57 -6q33 0 65 7.5t58 21.5t44 35.5t22 50.5z" />
    <glyph glyph-name="Ugrave" unicode="&#xd9;" horiz-adv-x="671" 
d="M270 907h149l70 -151h-120zM166 222q-4 -30 6.5 -52t30.5 -36.5t47.5 -21.5t56.5 -7q30 0 59 7t53.5 21.5t41 36.5t20.5 52l69 486h116l-69 -486q-8 -58 -38 -101.5t-72.5 -72.5t-93.5 -43.5t-102 -14.5t-98.5 14.5t-82 43.5t-51.5 72.5t-9 101.5l69 486h116z" />
    <glyph glyph-name="Uacute" unicode="&#xda;" horiz-adv-x="671" 
d="M439 756h-114l114 151h141zM166 222q-4 -30 6.5 -52t30.5 -36.5t47.5 -21.5t56.5 -7q30 0 59 7t53.5 21.5t41 36.5t20.5 52l69 486h116l-69 -486q-8 -58 -38 -101.5t-72.5 -72.5t-93.5 -43.5t-102 -14.5t-98.5 14.5t-82 43.5t-51.5 72.5t-9 101.5l69 486h116z" />
    <glyph glyph-name="Ucircumflex" unicode="&#xdb;" horiz-adv-x="671" 
d="M580 756h-127l-46 53l-56 -53h-129l160 151h81zM166 222q-4 -30 6.5 -52t30.5 -36.5t47.5 -21.5t56.5 -7q30 0 59 7t53.5 21.5t41 36.5t20.5 52l69 486h116l-69 -486q-8 -58 -38 -101.5t-72.5 -72.5t-93.5 -43.5t-102 -14.5t-98.5 14.5t-82 43.5t-51.5 72.5t-9 101.5
l69 486h116z" />
    <glyph glyph-name="Udieresis" unicode="&#xdc;" horiz-adv-x="671" 
d="M240 830q4 29 26 49t51 20t46 -20t13 -49t-26 -48.5t-51 -19.5t-46 19.5t-13 48.5zM441 830q4 29 26 49t51 20t46.5 -20t13.5 -49t-26.5 -48.5t-51.5 -19.5t-46 19.5t-13 48.5zM166 222q-4 -30 6.5 -52t30.5 -36.5t47.5 -21.5t56.5 -7q30 0 59 7t53.5 21.5t41 36.5
t20.5 52l69 486h116l-69 -486q-8 -58 -38 -101.5t-72.5 -72.5t-93.5 -43.5t-102 -14.5t-98.5 14.5t-82 43.5t-51.5 72.5t-9 101.5l69 486h116z" />
    <glyph glyph-name="Yacute" unicode="&#xdd;" horiz-adv-x="599" 
d="M403 756h-114l114 151h141zM199 0l38 275l-185 433h133l126 -322l215 322h135l-308 -433l-38 -275h-116z" />
    <glyph glyph-name="Thorn" unicode="&#xde;" horiz-adv-x="608" 
d="M123 708h114l-16 -116h160q61 0 104 -20t69 -53t35.5 -75t3.5 -85q-6 -44 -27 -85.5t-56 -73.5t-83.5 -51.5t-109.5 -19.5h-161l-18 -129h-114zM331 235q33 0 58.5 11t44.5 28t30 39t14 44t-2 43.5t-19 38.5t-37 27.5t-55 9.5h-160l-34 -241h160z" />
    <glyph glyph-name="germandbls" unicode="&#xdf;" horiz-adv-x="580" 
d="M190 132q29 -20 66.5 -24t71.5 7.5t59.5 37t30.5 63.5q4 28 -3 48t-22.5 33t-37.5 19t-49 6h-92l15 105h92q40 0 73 26.5t39 71.5q3 23 -4.5 39.5t-22.5 27t-34.5 15.5t-40.5 5t-43 -5.5t-40.5 -17t-31.5 -29t-16 -41.5l-72 -519h-111l72 519q7 48 32 85t60.5 62
t78.5 37.5t85 12.5t81 -11.5t68 -35.5t44 -60t8 -84q-3 -20 -9.5 -41t-17.5 -40.5t-26.5 -36t-35.5 -26.5q50 -26 66.5 -68.5t8.5 -96.5q-11 -67 -49 -114.5t-89.5 -73t-110 -28.5t-109.5 20z" />
    <glyph glyph-name="agrave" unicode="&#xe0;" 
d="M171 727h139l70 -151h-110zM314 45q-29 -29 -63 -42t-68 -13q-35 0 -66 12t-54 35t-34 56t-5 74l26 180q7 51 30 85.5t56 56t73.5 30.5t82.5 9q48 0 97.5 -13t88.5 -33l-67 -482h-89zM361 417q-14 8 -33 12.5t-39 4.5q-22 0 -43.5 -4.5t-39.5 -15t-31 -27t-16 -39.5
l-26 -181q-3 -20 2.5 -33.5t16.5 -22.5t26.5 -13.5t33.5 -4.5q29 -1 58 8t49 24z" />
    <glyph glyph-name="aacute" unicode="&#xe1;" 
d="M340 576h-114l114 151h141zM314 45q-29 -29 -63 -42t-68 -13q-35 0 -66 12t-54 35t-34 56t-5 74l26 180q7 51 30 85.5t56 56t73.5 30.5t82.5 9q48 0 97.5 -13t88.5 -33l-67 -482h-89zM361 417q-14 8 -33 12.5t-39 4.5q-22 0 -43.5 -4.5t-39.5 -15t-31 -27t-16 -39.5
l-26 -181q-3 -20 2.5 -33.5t16.5 -22.5t26.5 -13.5t33.5 -4.5q29 -1 58 8t49 24z" />
    <glyph glyph-name="acircumflex" unicode="&#xe2;" 
d="M471 576h-124l-44 64l-61 -64h-129l160 151h81zM314 45q-29 -29 -63 -42t-68 -13q-35 0 -66 12t-54 35t-34 56t-5 74l26 180q7 51 30 85.5t56 56t73.5 30.5t82.5 9q48 0 97.5 -13t88.5 -33l-67 -482h-89zM361 417q-14 8 -33 12.5t-39 4.5q-22 0 -43.5 -4.5t-39.5 -15
t-31 -27t-16 -39.5l-26 -181q-3 -20 2.5 -33.5t16.5 -22.5t26.5 -13.5t33.5 -4.5q29 -1 58 8t49 24z" />
    <glyph glyph-name="atilde" unicode="&#xe3;" 
d="M134 623q20 59 46.5 82t62.5 23q23 0 43 -10.5t37.5 -18t31.5 -5.5t25 27l74 -30q-11 -54 -39 -78.5t-55 -24.5q-25 0 -47.5 11t-42 18.5t-36.5 4.5t-30 -32zM314 45q-29 -29 -63 -42t-68 -13q-35 0 -66 12t-54 35t-34 56t-5 74l26 180q7 51 30 85.5t56 56t73.5 30.5
t82.5 9q48 0 97.5 -13t88.5 -33l-67 -482h-89zM361 417q-14 8 -33 12.5t-39 4.5q-22 0 -43.5 -4.5t-39.5 -15t-31 -27t-16 -39.5l-26 -181q-3 -20 2.5 -33.5t16.5 -22.5t26.5 -13.5t33.5 -4.5q29 -1 58 8t49 24z" />
    <glyph glyph-name="adieresis" unicode="&#xe4;" 
d="M141 650q4 29 26 49t51 20t46 -20t13 -49t-26 -48.5t-51 -19.5t-46 19.5t-13 48.5zM342 650q4 29 26 49t51 20t46.5 -20t13.5 -49t-26.5 -48.5t-51.5 -19.5t-46 19.5t-13 48.5zM314 45q-29 -29 -63 -42t-68 -13q-35 0 -66 12t-54 35t-34 56t-5 74l26 180q7 51 30 85.5
t56 56t73.5 30.5t82.5 9q48 0 97.5 -13t88.5 -33l-67 -482h-89zM361 417q-14 8 -33 12.5t-39 4.5q-22 0 -43.5 -4.5t-39.5 -15t-31 -27t-16 -39.5l-26 -181q-3 -20 2.5 -33.5t16.5 -22.5t26.5 -13.5t33.5 -4.5q29 -1 58 8t49 24z" />
    <glyph glyph-name="aring" unicode="&#xe5;" 
d="M198 669q3 27 16 47.5t31.5 34.5t41 21t46.5 7q23 0 43.5 -9t34.5 -24.5t21 -35.5t4 -42t-15.5 -42t-31 -35t-41 -23.5t-45.5 -8.5q-24 0 -44.5 8.5t-35 23.5t-21.5 35t-4 43zM369 668q3 21 -11.5 35t-34.5 14q-21 0 -38 -12t-20 -37q-3 -20 11 -33.5t35 -13.5
q20 0 37.5 12t20.5 35zM314 45q-29 -29 -63 -42t-68 -13q-35 0 -66 12t-54 35t-34 56t-5 74l26 180q7 51 30 85.5t56 56t73.5 30.5t82.5 9q48 0 97.5 -13t88.5 -33l-67 -482h-89zM361 417q-14 8 -33 12.5t-39 4.5q-22 0 -43.5 -4.5t-39.5 -15t-31 -27t-16 -39.5l-26 -181
q-3 -20 2.5 -33.5t16.5 -22.5t26.5 -13.5t33.5 -4.5q29 -1 58 8t49 24z" />
    <glyph glyph-name="ae" unicode="&#xe6;" horiz-adv-x="779" 
d="M698 90q-40 -50 -88 -73.5t-99 -23.5q-31 0 -61 7.5t-55 22.5l-6 -23h-74l2 45q-29 -26 -62.5 -40.5t-68.5 -14.5t-66.5 12t-54.5 35t-34.5 56t-5.5 74l24 176q7 49 28.5 83.5t53 57t70 33t79.5 11.5q45 1 89 -9t80 -27q29 17 63 26.5t68 9.5q39 0 73.5 -11.5t60 -34.5
t37.5 -57t6 -79q-5 -39 -24.5 -66.5t-47.5 -45t-62.5 -26t-70.5 -8.5q-29 0 -58.5 6t-54.5 18l-7 -52q-3 -20 3 -35t18.5 -25.5t29.5 -15.5t36 -5q29 0 58.5 12.5t50.5 38.5zM134 171q-3 -20 2.5 -35t17 -25t28 -15t35.5 -5q28 0 56.5 9.5t51.5 29.5q-1 10 0 20.5t3 21.5
l24 171q2 18 6 34.5t12 31.5q-36 22 -85 22q-23 0 -44.5 -5.5t-39 -16t-29 -27t-14.5 -38.5zM450 299q20 -6 45.5 -12t48.5 -6q19 0 36.5 3t32 10.5t24 20t12.5 31.5t-3.5 34t-18.5 25t-28 15t-34 5t-36.5 -5t-33.5 -15.5t-25.5 -25.5t-13.5 -35z" />
    <glyph glyph-name="ccedilla" unicode="&#xe7;" horiz-adv-x="473" 
d="M220 97q32 1 63.5 19t45.5 52l95 -42q-24 -56 -67 -86.5t-91 -41.5l-29 -51q23 -3 38 -15t22 -29.5t5 -38.5t-13 -43q-18 -35 -54 -50t-77 -15q-22 0 -48.5 7t-55.5 26l34 67q26 -17 47.5 -19.5t35.5 3t20 16t2 22t-19 19.5t-43 9l47 85q-34 3 -64.5 16.5t-52 36t-32 55
t-4.5 73.5l25 178q6 45 28.5 78.5t54.5 55.5t70 33t76 11q30 0 60.5 -7.5t55.5 -23.5t43 -42t23 -63l-105 -38q-5 35 -32 50.5t-59 16.5q-18 0 -36 -4.5t-32.5 -13.5t-24.5 -22t-12 -30l-26 -180q-2 -17 4 -31t18 -23.5t28.5 -14.5t35.5 -5z" />
    <glyph glyph-name="egrave" unicode="&#xe8;" horiz-adv-x="479" 
d="M156 727h149l70 -151h-120zM401 91q-40 -50 -91.5 -75.5t-102.5 -25.5q-38 0 -73.5 11.5t-61.5 34.5t-39.5 57t-7.5 79l24 172q6 46 28.5 80.5t54.5 57.5t70 34.5t77 11.5t73.5 -11.5t60 -34t37.5 -56.5t6 -79q-5 -37 -23.5 -64.5t-46 -45.5t-63.5 -26.5t-76 -8.5
q-57 0 -108 20l-6 -50q-3 -20 2.5 -34.5t17.5 -25t28.5 -16t34.5 -5.5q29 -1 61.5 12t53.5 40zM151 304q17 -5 44 -11t59 -6q44 0 68 20t26 50q2 26 -19 46.5t-64 20.5q-19 0 -37 -5.5t-33 -16.5t-25 -26.5t-13 -35.5z" />
    <glyph glyph-name="eacute" unicode="&#xe9;" horiz-adv-x="479" 
d="M305 576h-114l114 151h141zM401 91q-40 -50 -91.5 -75.5t-102.5 -25.5q-38 0 -73.5 11.5t-61.5 34.5t-39.5 57t-7.5 79l24 172q6 46 28.5 80.5t54.5 57.5t70 34.5t77 11.5t73.5 -11.5t60 -34t37.5 -56.5t6 -79q-5 -37 -23.5 -64.5t-46 -45.5t-63.5 -26.5t-76 -8.5
q-57 0 -108 20l-6 -50q-3 -20 2.5 -34.5t17.5 -25t28.5 -16t34.5 -5.5q29 -1 61.5 12t53.5 40zM151 304q17 -5 44 -11t59 -6q44 0 68 20t26 50q2 26 -19 46.5t-64 20.5q-19 0 -37 -5.5t-33 -16.5t-25 -26.5t-13 -35.5z" />
    <glyph glyph-name="ecircumflex" unicode="&#xea;" horiz-adv-x="479" 
d="M456 576h-127l-43 59l-59 -59h-129l160 151h81zM401 91q-40 -50 -91.5 -75.5t-102.5 -25.5q-38 0 -73.5 11.5t-61.5 34.5t-39.5 57t-7.5 79l24 172q6 46 28.5 80.5t54.5 57.5t70 34.5t77 11.5t73.5 -11.5t60 -34t37.5 -56.5t6 -79q-5 -37 -23.5 -64.5t-46 -45.5
t-63.5 -26.5t-76 -8.5q-57 0 -108 20l-6 -50q-3 -20 2.5 -34.5t17.5 -25t28.5 -16t34.5 -5.5q29 -1 61.5 12t53.5 40zM151 304q17 -5 44 -11t59 -6q44 0 68 20t26 50q2 26 -19 46.5t-64 20.5q-19 0 -37 -5.5t-33 -16.5t-25 -26.5t-13 -35.5z" />
    <glyph glyph-name="edieresis" unicode="&#xeb;" horiz-adv-x="479" 
d="M116 650q4 29 26 49t51 20t46 -20t13 -49t-26 -48.5t-51 -19.5t-46 19.5t-13 48.5zM317 650q4 29 26 49t51 20t46.5 -20t13.5 -49t-26.5 -48.5t-51.5 -19.5t-46 19.5t-13 48.5zM401 91q-40 -50 -91.5 -75.5t-102.5 -25.5q-38 0 -73.5 11.5t-61.5 34.5t-39.5 57t-7.5 79
l24 172q6 46 28.5 80.5t54.5 57.5t70 34.5t77 11.5t73.5 -11.5t60 -34t37.5 -56.5t6 -79q-5 -37 -23.5 -64.5t-46 -45.5t-63.5 -26.5t-76 -8.5q-57 0 -108 20l-6 -50q-3 -20 2.5 -34.5t17.5 -25t28.5 -16t34.5 -5.5q29 -1 61.5 12t53.5 40zM151 304q17 -5 44 -11t59 -6
q44 0 68 20t26 50q2 26 -19 46.5t-64 20.5q-19 0 -37 -5.5t-33 -16.5t-25 -26.5t-13 -35.5z" />
    <glyph glyph-name="igrave" unicode="&#xec;" horiz-adv-x="228" 
d="M22 727h139l70 -151h-110zM199 519l-73 -519h-110l73 519h110z" />
    <glyph glyph-name="iacute" unicode="&#xed;" horiz-adv-x="228" 
d="M77 576l114 151h131l-131 -151h-114zM199 519l-73 -519h-110l73 519h110z" />
    <glyph glyph-name="icircumflex" unicode="&#xee;" horiz-adv-x="228" 
d="M-6 566l140 151h81l97 -151h-111l-38 66l-57 -66h-112zM199 519l-73 -519h-110l73 519h110z" />
    <glyph glyph-name="idieresis" unicode="&#xef;" horiz-adv-x="228" 
d="M61 576q-28 0 -44.5 19t-12.5 47q4 29 25.5 48t49.5 19t44.5 -19t12.5 -48q-4 -28 -25.5 -47t-49.5 -19zM260 709q29 0 45.5 -19t12.5 -48q-4 -28 -25.5 -47t-50.5 -19t-45 19t-12 47q4 29 25 48t50 19zM199 519l-73 -519h-110l73 519h110z" />
    <glyph glyph-name="eth" unicode="&#xf0;" horiz-adv-x="504" 
d="M125 627q21 16 45.5 29.5t50 22t50.5 11.5t47 -1l40 84l74 -21l-39 -77q48 -17 70 -57.5t14 -99.5l-68 -487q-45 -12 -77.5 -19.5t-56.5 -11.5t-42 -5t-34 -1q-37 0 -71 11.5t-58.5 33.5t-37 55t-6.5 77l19 135q5 40 24 69.5t45.5 49t58.5 30t65 12.5t64 -4.5t56 -19.5
l10 75q2 15 -2.5 29t-18.5 23l-31 -61l-74 22l27 53q-20 0 -45 -8.5t-45 -23.5zM213 93q54 0 98 14l33 241q-20 15 -50.5 22.5t-60 3.5t-52.5 -20.5t-27 -47.5l-21 -143q-2 -17 4 -30t17.5 -22t26.5 -13.5t32 -4.5z" />
    <glyph glyph-name="ntilde" unicode="&#xf1;" horiz-adv-x="518" 
d="M134 623q20 59 46.5 82t62.5 23q23 0 43 -10.5t37.5 -18t31.5 -5.5t25 27l74 -30q-11 -54 -39 -78.5t-55 -24.5q-25 0 -47.5 11t-42 18.5t-36.5 4.5t-30 -32zM83 486q43 20 93 31t98 11q43 -1 81 -11.5t65.5 -32.5t41 -56.5t6.5 -83.5l-48 -344h-109l47 339q2 22 -6 37.5
t-22 25.5t-32.5 14.5t-38.5 4.5q-21 0 -41.5 -4.5t-36.5 -13.5l-56 -403h-110z" />
    <glyph glyph-name="ograve" unicode="&#xf2;" horiz-adv-x="496" 
d="M142 727h149l70 -151h-120zM50 349q6 45 28.5 78t54.5 55.5t70.5 34t76.5 11.5q37 0 72 -11.5t60.5 -34t38.5 -55.5t7 -78l-25 -180q-6 -45 -28.5 -78.5t-54.5 -56t-70 -33.5t-75 -11q-38 0 -73.5 11t-61 33.5t-38.5 56t-7 78.5zM265 421q-17 0 -34.5 -4.5t-32.5 -13.5
t-25 -22.5t-13 -31.5l-24 -175q-3 -18 3.5 -32.5t19 -24.5t29 -15t33.5 -5q16 0 33 5t32 15t25 24.5t13 32.5l24 175q3 18 -4 31.5t-19 22.5t-28 13.5t-32 4.5z" />
    <glyph glyph-name="oacute" unicode="&#xf3;" horiz-adv-x="496" 
d="M326 576h-114l114 151h141zM50 349q6 45 28.5 78t54.5 55.5t70.5 34t76.5 11.5q37 0 72 -11.5t60.5 -34t38.5 -55.5t7 -78l-25 -180q-6 -45 -28.5 -78.5t-54.5 -56t-70 -33.5t-75 -11q-38 0 -73.5 11t-61 33.5t-38.5 56t-7 78.5zM265 421q-17 0 -34.5 -4.5t-32.5 -13.5
t-25 -22.5t-13 -31.5l-24 -175q-3 -18 3.5 -32.5t19 -24.5t29 -15t33.5 -5q16 0 33 5t32 15t25 24.5t13 32.5l24 175q3 18 -4 31.5t-19 22.5t-28 13.5t-32 4.5z" />
    <glyph glyph-name="ocircumflex" unicode="&#xf4;" horiz-adv-x="496" 
d="M467 576h-127l-46 53l-56 -53h-129l160 151h81zM50 349q6 45 28.5 78t54.5 55.5t70.5 34t76.5 11.5q37 0 72 -11.5t60.5 -34t38.5 -55.5t7 -78l-25 -180q-6 -45 -28.5 -78.5t-54.5 -56t-70 -33.5t-75 -11q-38 0 -73.5 11t-61 33.5t-38.5 56t-7 78.5zM265 421
q-17 0 -34.5 -4.5t-32.5 -13.5t-25 -22.5t-13 -31.5l-24 -175q-3 -18 3.5 -32.5t19 -24.5t29 -15t33.5 -5q16 0 33 5t32 15t25 24.5t13 32.5l24 175q3 18 -4 31.5t-19 22.5t-28 13.5t-32 4.5z" />
    <glyph glyph-name="otilde" unicode="&#xf5;" horiz-adv-x="496" 
d="M120 623q20 59 46.5 82t62.5 23q23 0 43 -10.5t37.5 -18t31.5 -5.5t25 27l74 -30q-11 -54 -39 -78.5t-55 -24.5q-25 0 -47.5 11t-42 18.5t-36.5 4.5t-30 -32zM50 349q6 45 28.5 78t54.5 55.5t70.5 34t76.5 11.5q37 0 72 -11.5t60.5 -34t38.5 -55.5t7 -78l-25 -180
q-6 -45 -28.5 -78.5t-54.5 -56t-70 -33.5t-75 -11q-38 0 -73.5 11t-61 33.5t-38.5 56t-7 78.5zM265 421q-17 0 -34.5 -4.5t-32.5 -13.5t-25 -22.5t-13 -31.5l-24 -175q-3 -18 3.5 -32.5t19 -24.5t29 -15t33.5 -5q16 0 33 5t32 15t25 24.5t13 32.5l24 175q3 18 -4 31.5
t-19 22.5t-28 13.5t-32 4.5z" />
    <glyph glyph-name="odieresis" unicode="&#xf6;" horiz-adv-x="496" 
d="M127 650q4 29 26 49t51 20t46 -20t13 -49t-26 -48.5t-51 -19.5t-46 19.5t-13 48.5zM328 650q4 29 26 49t51 20t46.5 -20t13.5 -49t-26.5 -48.5t-51.5 -19.5t-46 19.5t-13 48.5zM50 349q6 45 28.5 78t54.5 55.5t70.5 34t76.5 11.5q37 0 72 -11.5t60.5 -34t38.5 -55.5
t7 -78l-25 -180q-6 -45 -28.5 -78.5t-54.5 -56t-70 -33.5t-75 -11q-38 0 -73.5 11t-61 33.5t-38.5 56t-7 78.5zM265 421q-17 0 -34.5 -4.5t-32.5 -13.5t-25 -22.5t-13 -31.5l-24 -175q-3 -18 3.5 -32.5t19 -24.5t29 -15t33.5 -5q16 0 33 5t32 15t25 24.5t13 32.5l24 175
q3 18 -4 31.5t-19 22.5t-28 13.5t-32 4.5z" />
    <glyph glyph-name="divide" unicode="&#xf7;" 
d="M206 488q5 32 29.5 53t55.5 21t51 -21t15 -53q-5 -31 -30.5 -53.5t-56.5 -22.5t-50 22.5t-14 53.5zM473 271h-443l15 113h443zM165 166q5 32 29.5 52.5t55.5 21.5q32 0 51.5 -21t14.5 -53t-30 -54t-56 -22q-15 0 -28 6t-22 16t-13 24t-2 30z" />
    <glyph glyph-name="oslash" unicode="&#xf8;" horiz-adv-x="496" 
d="M401 492q31 -23 47.5 -58t9.5 -85l-25 -180q-6 -45 -28.5 -78.5t-54.5 -56t-70 -33.5t-75 -11q-35 0 -65 9l-33 -63l-55 28l31 61q-32 22 -49 57.5t-9 86.5l25 180q6 45 28.5 78t54.5 55.5t70.5 34t76.5 11.5q29 0 59 -8l34 64l63 -28zM136 174q-3 -21 6 -37l146 282
q-6 1 -12 1.5t-11 0.5q-17 0 -34.5 -4.5t-32.5 -13.5t-25 -22.5t-13 -31.5zM348 349q3 19 -5 33l-149 -282q13 -3 27 -3q16 0 33 5t32 15t25 24.5t13 32.5z" />
    <glyph glyph-name="ugrave" unicode="&#xf9;" horiz-adv-x="519" 
d="M165 717h149l70 -151h-120zM423 33q-50 -20 -103 -31.5t-102 -11.5q-42 0 -78 10t-61.5 32t-37.5 56t-5 82l49 348h110l-49 -350q-2 -21 5.5 -37t21.5 -26t33 -15t39 -5t41 4.5t38 13.5l58 415h109z" />
    <glyph glyph-name="uacute" unicode="&#xfa;" horiz-adv-x="519" 
d="M334 566h-114l114 151h141zM423 33q-50 -20 -103 -31.5t-102 -11.5q-42 0 -78 10t-61.5 32t-37.5 56t-5 82l49 348h110l-49 -350q-2 -21 5.5 -37t21.5 -26t33 -15t39 -5t41 4.5t38 13.5l58 415h109z" />
    <glyph glyph-name="ucircumflex" unicode="&#xfb;" horiz-adv-x="519" 
d="M466 573h-121l-44 50l-53 -50h-122l152 144h77zM423 33q-50 -20 -103 -31.5t-102 -11.5q-42 0 -78 10t-61.5 32t-37.5 56t-5 82l49 348h110l-49 -350q-2 -21 5.5 -37t21.5 -26t33 -15t39 -5t41 4.5t38 13.5l58 415h109z" />
    <glyph glyph-name="udieresis" unicode="&#xfc;" horiz-adv-x="519" 
d="M135 640q4 29 26 49t51 20t46 -20t13 -49t-26 -48.5t-51 -19.5t-46 19.5t-13 48.5zM336 640q4 29 26 49t51 20t46.5 -20t13.5 -49t-26.5 -48.5t-51.5 -19.5t-46 19.5t-13 48.5zM423 33q-50 -20 -103 -31.5t-102 -11.5q-42 0 -78 10t-61.5 32t-37.5 56t-5 82l49 348h110
l-49 -350q-2 -21 5.5 -37t21.5 -26t33 -15t39 -5t41 4.5t38 13.5l58 415h109z" />
    <glyph glyph-name="yacute" unicode="&#xfd;" horiz-adv-x="528" 
d="M337 566h-114l114 151h141zM426 0q-7 -50 -30 -86t-56 -59t-72 -34t-79 -11q-30 0 -58 6.5t-53 18.5t-44 30t-31 41l75 63q17 -29 52 -44.5t73 -15.5q22 0 43 6t37.5 18t26.5 31t12 46q-52 -20 -104 -20q-39 1 -75 13t-62 35.5t-38.5 56.5t-6.5 76l48 347h110l-49 -345
q-2 -20 6 -34.5t22 -23.5t32.5 -14t38.5 -5q24 0 48 6t41 17l56 399h109z" />
    <glyph glyph-name="thorn" unicode="&#xfe;" horiz-adv-x="511" 
d="M197 508q52 20 105 20q37 0 71 -10.5t58.5 -32.5t36 -55.5t5.5 -78.5l-25 -181q-6 -41 -28 -74t-53.5 -56.5t-69.5 -36.5t-75 -13q-53 0 -93 25l-26 -184h-110l120 854h110zM142 111q16 -11 38 -17t45 -6q19 0 37.5 4.5t34 14.5t26.5 25.5t15 37.5l26 187q2 21 -5 35.5
t-20 23.5t-30 13t-36 4q-24 0 -47.5 -5.5t-41.5 -14.5z" />
    <glyph glyph-name="ydieresis" unicode="&#xff;" horiz-adv-x="528" 
d="M138 640q4 29 26 49t51 20t46 -20t13 -49t-26 -48.5t-51 -19.5t-46 19.5t-13 48.5zM339 640q4 29 26 49t51 20t46.5 -20t13.5 -49t-26.5 -48.5t-51.5 -19.5t-46 19.5t-13 48.5zM426 0q-7 -50 -30 -86t-56 -59t-72 -34t-79 -11q-30 0 -58 6.5t-53 18.5t-44 30t-31 41
l75 63q17 -29 52 -44.5t73 -15.5q22 0 43 6t37.5 18t26.5 31t12 46q-52 -20 -104 -20q-39 1 -75 13t-62 35.5t-38.5 56.5t-6.5 76l48 347h110l-49 -345q-2 -20 6 -34.5t22 -23.5t32.5 -14t38.5 -5q24 0 48 6t41 17l56 399h109z" />
    <glyph glyph-name="Amacron" unicode="&#x100;" horiz-adv-x="627" 
d="M260 873h263l-17 -96h-263zM587 0h-121l-44 184h-254l-89 -184h-124l354 708h121zM346 591l-40 -114l-82 -177h175l-33 179l-6 112h-14z" />
    <glyph glyph-name="amacron" unicode="&#x101;" 
d="M184 693h263l-17 -96h-263zM314 45q-29 -29 -63 -42t-68 -13q-35 0 -66 12t-54 35t-34 56t-5 74l26 180q7 51 30 85.5t56 56t73.5 30.5t82.5 9q48 0 97.5 -13t88.5 -33l-67 -482h-89zM361 417q-22 12 -54.5 15.5t-63.5 -4t-55 -27t-29 -53.5l-26 -181q-3 -20 2.5 -33.5
t16.5 -22.5t26.5 -13.5t33.5 -4.5q29 -1 58 8t49 24z" />
    <glyph glyph-name="Abreve" unicode="&#x102;" horiz-adv-x="627" 
d="M557 907q-5 -38 -21.5 -66.5t-39.5 -48t-51.5 -29.5t-57.5 -10q-28 0 -55 9.5t-46.5 28.5t-29 48t-3.5 68h89q-5 -31 12.5 -46t40.5 -15t44 15t26 46h92zM587 0h-121l-44 184h-254l-89 -184h-124l354 708h121zM346 591l-40 -114l-82 -177h175l-33 179l-6 112h-14z" />
    <glyph glyph-name="abreve" unicode="&#x103;" 
d="M481 727q-5 -38 -21.5 -66.5t-39.5 -48t-51.5 -29.5t-57.5 -10q-28 0 -55 9.5t-46.5 28.5t-29 48t-3.5 68h89q-5 -31 12.5 -46t40.5 -15t44 15t26 46h92zM314 45q-29 -29 -63 -42t-68 -13q-35 0 -66 12t-54 35t-34 56t-5 74l26 180q7 51 30 85.5t56 56t73.5 30.5t82.5 9
q48 0 97.5 -13t88.5 -33l-67 -482h-89zM361 417q-22 12 -54.5 15.5t-63.5 -4t-55 -27t-29 -53.5l-26 -181q-3 -20 2.5 -33.5t16.5 -22.5t26.5 -13.5t33.5 -4.5q29 -1 58 8t49 24z" />
    <glyph glyph-name="Aogonek" unicode="&#x104;" horiz-adv-x="626" 
d="M607 -193q-25 -23 -59.5 -37t-63.5 -14q-23 0 -41.5 8.5t-31 23t-18 34.5t-0.5 44q4 20 14 39.5t23.5 37t28.5 32.5t30 25h-24l-44 184h-254l-89 -184h-124l354 708h121l157 -708q-43 -33 -64 -64.5t-21 -52t19.5 -24.5t57.5 19zM365 479l-6 112h-9l-45 -114l-82 -177
h175z" />
    <glyph glyph-name="aogonek" unicode="&#x105;" 
d="M411 0q-40 -24 -59 -54t-18.5 -51.5t18.5 -29t51 12.5l29 -71q-25 -23 -57.5 -33t-61.5 -10q-43 0 -69 27t-17 75q4 22 14.5 42t24 37t28.5 31t28 25l-8 44q-29 -29 -63 -42t-68 -13q-35 0 -66 12t-54 35t-34 56t-5 74l26 180q7 51 30 85.5t56 56t73.5 30.5t82.5 9
q48 0 97.5 -13t88.5 -33zM212 93q29 -1 58 8t49 24l42 292q-22 12 -54.5 15.5t-63.5 -4t-55 -27t-29 -53.5l-26 -181q-3 -20 2.5 -33.5t16.5 -22.5t26.5 -13.5t33.5 -4.5z" />
    <glyph glyph-name="Cacute" unicode="&#x106;" horiz-adv-x="599" 
d="M425 766h-114l114 151h141zM73 490q8 57 37.5 99.5t72 71t93.5 43t103 14.5q39 0 76 -10t68.5 -30t56 -50.5t37.5 -71.5l-110 -51q-19 48 -59.5 72.5t-87.5 24.5q-29 0 -58.5 -7t-53.5 -21t-40 -35t-20 -49l-37 -272q-4 -28 6.5 -49t30.5 -35t47 -21t56 -7q48 0 95 24
t79 72l97 -48q-26 -41 -59 -72t-71 -51.5t-78 -30.5t-79 -10q-51 0 -97.5 14t-80.5 42.5t-51.5 71.5t-9.5 100z" />
    <glyph glyph-name="cacute" unicode="&#x107;" horiz-adv-x="473" 
d="M326 576h-114l114 151h141zM51 350q6 45 28.5 78.5t54.5 55.5t70 33t76 11q30 0 60.5 -7.5t55.5 -23.5t43 -42t23 -63l-105 -38q-5 35 -32 50.5t-59 16.5q-18 0 -36 -4.5t-32.5 -13.5t-24.5 -22t-12 -30l-26 -180q-2 -17 4 -31t18 -23.5t28.5 -14.5t35.5 -5q32 1 63.5 19
t45.5 52l95 -42q-16 -37 -41 -63t-55 -42t-63 -23.5t-63 -7.5q-38 0 -72.5 11.5t-60 34.5t-38 57t-6.5 79z" />
    <glyph glyph-name="Cdotaccent" unicode="&#x10a;" horiz-adv-x="599" 
d="M321 842q5 32 29.5 53.5t56.5 21.5t51 -21.5t14 -53.5t-29.5 -54t-56.5 -22t-51 22t-14 54zM73 490q8 57 37.5 99.5t72 71t93.5 43t103 14.5q39 0 76 -10t68.5 -30t56 -50.5t37.5 -71.5l-110 -51q-19 48 -59.5 72.5t-87.5 24.5q-29 0 -58.5 -7t-53.5 -21t-40 -35t-20 -49
l-37 -272q-4 -28 6.5 -49t30.5 -35t47 -21t56 -7q48 0 95 24t79 72l97 -48q-26 -41 -59 -72t-71 -51.5t-78 -30.5t-79 -10q-51 0 -97.5 14t-80.5 42.5t-51.5 71.5t-9.5 100z" />
    <glyph glyph-name="cdotaccent" unicode="&#x10b;" horiz-adv-x="473" 
d="M222 652q5 32 29.5 53.5t56.5 21.5t51 -21.5t14 -53.5t-29.5 -54t-56.5 -22t-51 22t-14 54zM51 350q6 45 28.5 78.5t54.5 55.5t70 33t76 11q30 0 60.5 -7.5t55.5 -23.5t43 -42t23 -63l-105 -38q-5 35 -32 50.5t-59 16.5q-18 0 -36 -4.5t-32.5 -13.5t-24.5 -22t-12 -30
l-26 -180q-2 -17 4 -31t18 -23.5t28.5 -14.5t35.5 -5q32 1 63.5 19t45.5 52l95 -42q-16 -37 -41 -63t-55 -42t-63 -23.5t-63 -7.5q-38 0 -72.5 11.5t-60 34.5t-38 57t-6.5 79z" />
    <glyph glyph-name="Ccaron" unicode="&#x10c;" horiz-adv-x="599" 
d="M221 917h134l46 -51l58 51h135l-165 -151h-83zM73 490q8 57 37.5 99.5t72 71t93.5 43t103 14.5q39 0 76 -10t68.5 -30t56 -50.5t37.5 -71.5l-110 -51q-19 48 -59.5 72.5t-87.5 24.5q-29 0 -58.5 -7t-53.5 -21t-40 -35t-20 -49l-37 -272q-4 -28 6.5 -49t30.5 -35t47 -21
t56 -7q48 0 95 24t79 72l97 -48q-26 -41 -59 -72t-71 -51.5t-78 -30.5t-79 -10q-51 0 -97.5 14t-80.5 42.5t-51.5 71.5t-9.5 100z" />
    <glyph glyph-name="ccaron" unicode="&#x10d;" horiz-adv-x="473" 
d="M122 727h134l46 -51l58 51h135l-165 -151h-83zM51 350q6 45 28.5 78.5t54.5 55.5t70 33t76 11q30 0 60.5 -7.5t55.5 -23.5t43 -42t23 -63l-105 -38q-5 35 -32 50.5t-59 16.5q-18 0 -36 -4.5t-32.5 -13.5t-24.5 -22t-12 -30l-26 -180q-2 -17 4 -31t18 -23.5t28.5 -14.5
t35.5 -5q32 1 63.5 19t45.5 52l95 -42q-16 -37 -41 -63t-55 -42t-63 -23.5t-63 -7.5q-38 0 -72.5 11.5t-60 34.5t-38 57t-6.5 79z" />
    <glyph glyph-name="Dcaron" unicode="&#x10e;" horiz-adv-x="634" 
d="M215 907h134l46 -51l58 51h135l-165 -151h-83zM377 708q52 0 98 -13t79 -40.5t49 -69.5t8 -100l-38 -266q-8 -58 -35.5 -99.5t-68 -68t-90 -39t-101.5 -12.5h-254l99 708h254zM294 116q30 0 57.5 5.5t50 18t37 32t18.5 47.5l38 266q4 28 -5.5 48.5t-28 33.5t-44.5 19
t-56 6h-139l-67 -476h139z" />
    <glyph glyph-name="dcaron" unicode="&#x10f;" horiz-adv-x="518" 
d="M415 30q-46 -17 -98.5 -28.5t-103.5 -11.5q-40 0 -75.5 9t-62 29t-40.5 53.5t-11 82.5l26 185q6 43 28 76t53.5 56t69.5 35t76 12q52 0 94 -21l29 202h110zM608 525h-92l59 183h105zM358 413q-16 11 -36.5 16.5t-43.5 4.5q-19 -1 -38 -6t-35 -15t-27.5 -24.5t-16.5 -34.5
l-27 -190q-2 -22 6 -37.5t22 -25.5t33 -14.5t39 -4.5q22 -1 42.5 3t37.5 11z" />
    <glyph glyph-name="Dcroat" unicode="&#x110;" horiz-adv-x="642" 
d="M129 708h266q51 0 95 -12.5t75 -39.5t45.5 -68.5t6.5 -99.5l-38 -269q-8 -58 -34 -99.5t-64.5 -68t-86 -39t-98.5 -12.5h-266l42 302h-57l13 95h57zM312 116q60 0 102 23.5t50 79.5l38 269q4 28 -3.5 48t-24 32.5t-41 18t-54.5 5.5h-150l-28 -195h114l-13 -95h-114
l-26 -186h150z" />
    <glyph glyph-name="dcroat" unicode="&#x111;" 
d="M491 571l-76 -541q-46 -17 -98.5 -28.5t-103.5 -11.5q-40 0 -75.5 9t-62 29t-40.5 53.5t-11 82.5l26 185q6 43 28 76t53.5 56t69.5 35t76 12q52 0 94 -21l9 64h-103l11 72h103l9 66h110l-9 -66h50l-11 -72h-49zM358 413q-16 11 -36.5 16.5t-43.5 4.5q-19 -1 -38 -6
t-35 -15t-27.5 -24.5t-16.5 -34.5l-27 -190q-2 -22 6 -37.5t22 -25.5t33 -14.5t39 -4.5q22 -1 42.5 3t37.5 11z" />
    <glyph glyph-name="Emacron" unicode="&#x112;" horiz-adv-x="576" 
d="M248 873h263l-17 -96h-263zM198 412h323l-16 -116h-323l-25 -180h351l-16 -116h-467l99 709h467l-16 -116h-351z" />
    <glyph glyph-name="emacron" unicode="&#x113;" horiz-adv-x="478" 
d="M169 693h263l-17 -96h-263zM397 90q-40 -50 -92 -75t-103 -25q-38 0 -72.5 11.5t-60 34.5t-38 57t-6.5 79l24 172q6 46 28.5 80.5t54.5 57.5t70 34.5t77 11.5t73.5 -11.5t60 -34t37.5 -56.5t6 -79q-6 -41 -27 -72t-52 -52t-68.5 -31t-75.5 -10q-53 0 -96 21l-4 -31
q-6 -39 19.5 -59.5t62.5 -21.5q29 -1 60 11.5t52 39.5zM150 292q20 -6 44.5 -12t47.5 -6q19 0 37 3.5t32.5 11.5t24 21t12.5 32t-3.5 34t-18.5 25t-28 15t-34 5q-37 0 -69 -20.5t-38 -60.5z" />
    <glyph glyph-name="Edotaccent" unicode="&#x116;" horiz-adv-x="576" 
d="M300 832q5 32 29.5 53.5t56.5 21.5t51 -21.5t14 -53.5t-29.5 -54t-56.5 -22t-51 22t-14 54zM198 412h323l-16 -116h-323l-25 -180h351l-16 -116h-467l99 709h467l-16 -116h-351z" />
    <glyph glyph-name="edotaccent" unicode="&#x117;" horiz-adv-x="478" 
d="M221 652q5 32 29.5 53.5t56.5 21.5t51 -21.5t14 -53.5t-29.5 -54t-56.5 -22t-51 22t-14 54zM397 90q-40 -50 -92 -75t-103 -25q-38 0 -72.5 11.5t-60 34.5t-38 57t-6.5 79l24 172q6 46 28.5 80.5t54.5 57.5t70 34.5t77 11.5t73.5 -11.5t60 -34t37.5 -56.5t6 -79
q-6 -41 -27 -72t-52 -52t-68.5 -31t-75.5 -10q-53 0 -96 21l-4 -31q-6 -39 19.5 -59.5t62.5 -21.5q29 -1 60 11.5t52 39.5zM150 292q20 -6 44.5 -12t47.5 -6q19 0 37 3.5t32.5 11.5t24 21t12.5 32t-3.5 34t-18.5 25t-28 15t-34 5q-37 0 -69 -20.5t-38 -60.5z" />
    <glyph glyph-name="Eogonek" unicode="&#x118;" horiz-adv-x="575" 
d="M197 412h323l-16 -116h-323l-25 -180h351l-16 -116q-40 -27 -59 -56.5t-18.5 -50t18.5 -27t51 11.5l29 -71q-25 -23 -59.5 -37t-63.5 -14q-23 0 -41.5 8.5t-31 23t-18 34.5t-0.5 44q4 20 14 39.5t23.5 37t28.5 32.5t30 25h-370l99 709h467l-16 -116h-351z" />
    <glyph glyph-name="eogonek" unicode="&#x119;" horiz-adv-x="479" 
d="M279 528q39 0 73.5 -11.5t60 -34t37.5 -56.5t6 -79q-6 -41 -27 -72t-52 -52t-68.5 -31t-75.5 -10q-53 0 -96 21l-4 -31q-6 -39 19.5 -59.5t62.5 -21.5q29 -1 60 11.5t52 39.5l70 -52q-28 -34 -60 -56q-48 -41 -69 -77t-20 -59.5t21 -30.5t53 11l29 -71q-25 -23 -56 -34.5
t-60 -11.5q-20 0 -38 7.5t-30 21.5t-17.5 33t-0.5 43q7 34 27.5 66.5t49.5 58.5q-6 -1 -12 -1h-12q-38 0 -72.5 11.5t-60 34.5t-38 57t-6.5 79l24 172q6 46 28.5 80.5t54.5 57.5t70 34.5t77 11.5zM348 342q3 19 -3.5 34t-18.5 25t-28 15t-34 5q-37 0 -69 -20.5t-38 -60.5
l-7 -48q20 -6 44.5 -12t47.5 -6q19 0 37 3.5t32.5 11.5t24 21t12.5 32z" />
    <glyph glyph-name="Ecaron" unicode="&#x11a;" horiz-adv-x="576" 
d="M200 907h134l46 -51l58 51h135l-165 -151h-83zM198 412h323l-16 -116h-323l-25 -180h351l-16 -116h-467l99 709h467l-16 -116h-351z" />
    <glyph glyph-name="ecaron" unicode="&#x11b;" horiz-adv-x="478" 
d="M122 727h134l46 -51l58 51h135l-165 -151h-83zM398 90q-40 -50 -92 -75t-103 -25q-38 0 -72.5 11.5t-60 34.5t-38 57t-6.5 79l24 172q6 46 28.5 80.5t54.5 57.5t70 34.5t77 11.5t73.5 -11.5t60 -34t37.5 -56.5t6 -79q-6 -41 -27 -72t-52 -52t-68.5 -31t-75.5 -10
q-53 0 -96 21l-4 -31q-6 -39 19.5 -59.5t62.5 -21.5q29 -1 60 11.5t52 39.5zM151 292q20 -6 44.5 -12t47.5 -6q19 0 37 3.5t32.5 11.5t24 21t12.5 32t-3.5 34t-18.5 25t-28 15t-34 5q-37 0 -69 -20.5t-38 -60.5z" />
    <glyph glyph-name="Gbreve" unicode="&#x11e;" horiz-adv-x="631" 
d="M559 907q-5 -38 -21.5 -66.5t-39.5 -48t-51.5 -29.5t-57.5 -10q-28 0 -55 9.5t-46.5 28.5t-29 48t-3.5 68h89q-5 -31 12.5 -46t40.5 -15t44 15t26 46h92zM74 492q8 57 37.5 99t71.5 70.5t93 42.5t102 14q39 0 75.5 -8.5t67.5 -27.5t55 -48t38 -70l-111 -52
q-17 48 -57.5 68.5t-86.5 20.5q-29 0 -57.5 -7t-52 -21t-40 -35t-20.5 -49l-38 -269q-4 -29 6.5 -50.5t30.5 -35.5t47.5 -21t56.5 -7q30 0 59.5 7t54 21t41 35.5t20.5 50.5l7 56h-199l16 111h314l-23 -166q-8 -58 -37.5 -101.5t-72.5 -72t-94 -42.5t-103 -14q-51 0 -98 14
t-81 42.5t-51 72t-9 101.5z" />
    <glyph glyph-name="gbreve" unicode="&#x11f;" horiz-adv-x="505" 
d="M475 727q-5 -38 -21.5 -66.5t-39.5 -48t-51.5 -29.5t-57.5 -10q-28 0 -55 9.5t-46.5 28.5t-29 48t-3.5 68h89q-5 -31 12.5 -46t40.5 -15t44 15t26 46h92zM66 -31q18 -29 52.5 -47t70.5 -18q39 0 71 24.5t40 81.5q-25 -10 -50 -14.5t-49 -4.5q-39 0 -74 12t-60 35t-37 56
t-6 77l25 175q7 48 31 83t58.5 57t76.5 32t85 10q49 -1 94 -14.5t77 -38.5l-67 -475q-7 -49 -29 -85t-53.5 -59t-69.5 -34.5t-77 -11.5q-29 0 -57 6.5t-52.5 18.5t-43.5 30t-31 41zM352 406q-13 10 -32.5 15.5t-40.5 5.5q-20 0 -40 -4.5t-36.5 -14t-28.5 -25t-15 -37.5
l-27 -173q-2 -20 5.5 -34.5t20 -23.5t30 -14t36.5 -5q23 0 46 6t40 17z" />
    <glyph glyph-name="Gdotaccent" unicode="&#x120;" horiz-adv-x="631" 
d="M320 832q5 32 29.5 53.5t56.5 21.5t51 -21.5t14 -53.5t-29.5 -54t-56.5 -22t-51 22t-14 54zM74 492q8 57 37.5 99t71.5 70.5t93 42.5t102 14q39 0 75.5 -8.5t67.5 -27.5t55 -48t38 -70l-111 -52q-17 48 -57.5 68.5t-86.5 20.5q-29 0 -57.5 -7t-52 -21t-40 -35t-20.5 -49
l-38 -269q-4 -29 6.5 -50.5t30.5 -35.5t47.5 -21t56.5 -7q30 0 59.5 7t54 21t41 35.5t20.5 50.5l7 56h-199l16 111h314l-23 -166q-8 -58 -37.5 -101.5t-72.5 -72t-94 -42.5t-103 -14q-51 0 -98 14t-81 42.5t-51 72t-9 101.5z" />
    <glyph glyph-name="gdotaccent" unicode="&#x121;" horiz-adv-x="505" 
d="M230 652q5 32 29.5 53.5t56.5 21.5t51 -21.5t14 -53.5t-29.5 -54t-56.5 -22t-51 22t-14 54zM66 -31q18 -29 52.5 -47t70.5 -18q39 0 71 24.5t40 81.5q-25 -10 -50 -14.5t-49 -4.5q-39 0 -74 12t-60 35t-37 56t-6 77l25 175q7 48 31 83t58.5 57t76.5 32t85 10
q49 -1 94 -14.5t77 -38.5l-67 -475q-7 -49 -29 -85t-53.5 -59t-69.5 -34.5t-77 -11.5q-29 0 -57 6.5t-52.5 18.5t-43.5 30t-31 41zM352 406q-13 10 -32.5 15.5t-40.5 5.5q-20 0 -40 -4.5t-36.5 -14t-28.5 -25t-15 -37.5l-27 -173q-2 -20 5.5 -34.5t20 -23.5t30 -14t36.5 -5
q23 0 46 6t40 17z" />
    <glyph glyph-name="Gcommaaccent" unicode="&#x122;" horiz-adv-x="632" 
d="M75 492q8 57 37.5 99t71.5 70.5t93 42.5t102 14q39 0 75.5 -8.5t67.5 -27.5t55 -48t38 -70l-111 -52q-17 48 -57.5 68.5t-86.5 20.5q-29 0 -57.5 -7t-52 -21t-40 -35t-20.5 -49l-38 -269q-4 -29 6.5 -50.5t30.5 -35.5t47.5 -21t56.5 -7q30 0 59.5 7t54 21t41 35.5
t20.5 50.5l7 56h-199l16 111h314l-23 -166q-8 -58 -37.5 -101.5t-72.5 -72t-94 -42.5t-103 -14q-51 0 -98 14t-81 42.5t-51 72t-9 101.5zM264 -243h-111l73 183h125z" />
    <glyph glyph-name="gcommaaccent" unicode="&#x123;" horiz-adv-x="505" 
d="M306 716h111l-55 -148h-125zM66 -31q18 -29 52.5 -47t70.5 -18q39 0 71 24.5t40 81.5q-25 -10 -50 -14.5t-49 -4.5q-39 0 -74 12t-60 35t-37 56t-6 77l25 175q7 48 31 83t58.5 57t76.5 32t85 10q49 -1 94 -14.5t77 -38.5l-67 -475q-7 -49 -29 -85t-53.5 -59t-69.5 -34.5
t-77 -11.5q-29 0 -57 6.5t-52.5 18.5t-43.5 30t-31 41zM352 406q-13 10 -32.5 15.5t-40.5 5.5q-20 0 -40 -4.5t-36.5 -14t-28.5 -25t-15 -37.5l-27 -173q-2 -20 5.5 -34.5t20 -23.5t30 -14t36.5 -5q23 0 46 6t40 17z" />
    <glyph glyph-name="Hbar" unicode="&#x126;" horiz-adv-x="696" 
d="M652 518l-72 -518h-116l41 296h-315l-41 -296h-116l72 518h-63l12 83h63l15 107h116l-15 -107h315l15 107h116l-15 -107h60l-12 -83h-60zM221 518l-15 -107h315l15 107h-315z" />
    <glyph glyph-name="hbar" unicode="&#x127;" horiz-adv-x="519" 
d="M298 528q37 0 71 -10.5t58.5 -33t36 -56.5t5.5 -81l-47 -347h-109l47 342q3 21 -3.5 36t-19.5 24.5t-31 14t-37 4.5q-23 0 -46.5 -5.5t-41.5 -16.5l-55 -399h-110l80 571h-51l11 72h50l9 65h109l-9 -65h114l-11 -72h-113l-9 -63q51 20 102 20z" />
    <glyph glyph-name="Imacron" unicode="&#x12a;" horiz-adv-x="250" 
d="M102 888h223l-17 -96h-223zM140 0h-115l99 708h115z" />
    <glyph glyph-name="imacron" unicode="&#x12b;" horiz-adv-x="228" 
d="M263 602h-217l17 96h217zM199 519l-73 -519h-110l73 519h110z" />
    <glyph glyph-name="Iogonek" unicode="&#x12e;" horiz-adv-x="249" 
d="M139 0q-47 -32 -66.5 -61.5t-17.5 -49t22.5 -24.5t53.5 13l29 -71q-25 -23 -58 -37t-62 -14q-23 0 -41.5 8.5t-31 23t-18 34.5t-0.5 44q4 20 14 39.5t24 37t30 32.5t31 25h-24l99 708h115z" />
    <glyph glyph-name="iogonek" unicode="&#x12f;" horiz-adv-x="228" 
d="M169 708q31 0 48 -20t12 -50q-4 -29 -26.5 -49.5t-53.5 -20.5q-29 0 -46 20.5t-13 49.5q5 30 27.5 50t51.5 20zM126 0q-36 -24 -54 -53t-19 -50.5t15.5 -29t49.5 10.5l29 -71q-25 -23 -59.5 -37t-63.5 -14q-23 0 -41.5 8.5t-31 23t-18 34.5t-0.5 44q4 22 15.5 42.5
t26.5 38t32.5 31.5t32.5 22h-24l73 519h110z" />
    <glyph glyph-name="Idotaccent" unicode="&#x130;" horiz-adv-x="250" 
d="M124 832q5 32 29.5 53.5t56.5 21.5t51 -21.5t14 -53.5t-29.5 -54t-56.5 -22t-51 22t-14 54zM140 0h-115l99 708h115z" />
    <glyph glyph-name="dotlessi" unicode="&#x131;" horiz-adv-x="228" 
d="M126 0h-110l73 519h110z" />
    <glyph glyph-name="IJ" unicode="&#x132;" horiz-adv-x="846" 
d="M140 0h-115l99 708h115zM840 708l-69 -493q-8 -56 -37 -98.5t-70 -71t-90.5 -42.5t-98.5 -14q-44 0 -84.5 13.5t-72.5 40.5t-52 67.5t-23 94.5l119 19q1 -30 13 -52.5t30 -37t41 -21.5t48 -7q27 0 54 7t49.5 21.5t38 35.5t19.5 49l54 382h-176l15 107h292z" />
    <glyph glyph-name="ij" unicode="&#x133;" horiz-adv-x="456" 
d="M170 718q31 0 48 -20t12 -50q-4 -29 -26.5 -49.5t-53.5 -20.5q-29 0 -46 20.5t-13 49.5q5 30 27.5 50t51.5 20zM199 519l-73 -519h-110l73 519h110zM318 648q5 30 28 50t52 20q30 0 47.5 -20t12.5 -50q-5 -29 -27.5 -49.5t-52.5 -20.5q-29 0 -47 20.5t-13 49.5zM164 -74
q23 0 37.5 5.5t23.5 15t13 23t6 29.5l73 520h110l-73 -520q-11 -83 -60 -129.5t-144 -46.5z" />
    <glyph glyph-name="Kcommaaccent" unicode="&#x136;" horiz-adv-x="628" 
d="M545 708h143l-366 -342l269 -366h-147l-216 284l-57 -50l-32 -234h-115l99 708h115l-44 -313zM265 -244h-111l73 183h125z" />
    <glyph glyph-name="kcommaaccent" unicode="&#x137;" horiz-adv-x="500" 
d="M385 518h138l-249 -239l176 -279h-129l-134 212l-35 -31l-25 -181h-110l99 708h110l-56 -399zM192 -244h-111l73 183h125z" />
    <glyph glyph-name="Lacute" unicode="&#x139;" horiz-adv-x="517" 
d="M228 756h-114l114 151h141zM124 708h115l-83 -592h323l-16 -116h-438z" />
    <glyph glyph-name="lacute" unicode="&#x13a;" horiz-adv-x="260" 
d="M212 756h-114l114 151h141zM211 -10q-97 0 -141.5 47.5t-33.5 130.5l75 540h110l-75 -540q-5 -32 13.5 -53.5t65.5 -21.5z" />
    <glyph glyph-name="Lcommaaccent" unicode="&#x13b;" horiz-adv-x="517" 
d="M124 708h115l-83 -592h323l-16 -116h-438zM227 -244h-111l73 183h125z" />
    <glyph glyph-name="lcommaaccent" unicode="&#x13c;" horiz-adv-x="260" 
d="M211 -10q-97 0 -141.5 47.5t-33.5 130.5l75 540h110l-75 -540q-5 -32 13.5 -53.5t65.5 -21.5zM103 -244h-111l73 183h125z" />
    <glyph glyph-name="Lcaron" unicode="&#x13d;" horiz-adv-x="519" 
d="M124 708h115l-83 -592h323l-16 -116h-438zM413 529h-102l91 179h115z" />
    <glyph glyph-name="lcaron" unicode="&#x13e;" horiz-adv-x="271" 
d="M211 -10q-97 0 -141.5 47.5t-33.5 130.5l75 540h110l-75 -540q-5 -32 13.5 -53.5t65.5 -21.5zM324 525h-92l59 183h105z" />
    <glyph glyph-name="Ldot" unicode="&#x13f;" horiz-adv-x="522" 
d="M124 708h115l-83 -592h323l-16 -116h-438zM278 360q5 31 28 52t55 21q31 0 48.5 -21t12.5 -52t-27.5 -51.5t-53.5 -20.5q-32 0 -50 20.5t-13 51.5z" />
    <glyph glyph-name="ldot" unicode="&#x140;" horiz-adv-x="324" 
d="M211 -10q-97 0 -141.5 47.5t-33.5 130.5l75 540h110l-75 -540q-5 -32 13.5 -53.5t65.5 -21.5zM208 317q4 29 26 49t52 20q29 0 45.5 -20t11.5 -49q-4 -29 -25.5 -48.5t-50.5 -19.5q-30 0 -47 19.5t-12 48.5z" />
    <glyph glyph-name="Lslash" unicode="&#x141;" horiz-adv-x="537" 
d="M484 0h-438l31 222l-61 -33l-33 68l107 61l55 390h115l-45 -320l72 41l33 -77l-119 -64l-24 -172h323z" />
    <glyph glyph-name="lslash" unicode="&#x142;" horiz-adv-x="291" 
d="M166 171q-5 -32 14 -48.5t66 -16.5l-15 -110q-97 0 -141.5 46t-32.5 129l18 129l-50 -22l-26 57l87 40l44 317h109l-37 -263l68 32l31 -61l-110 -48z" />
    <glyph glyph-name="Nacute" unicode="&#x143;" horiz-adv-x="681" 
d="M443 756h-114l114 151h141zM24 0l99 708h122l187 -418l53 -141l8 2l4 152l57 405h116l-99 -708h-135l-184 410l-47 135l-7 -2l-3 -148l-55 -395h-116z" />
    <glyph glyph-name="nacute" unicode="&#x144;" horiz-adv-x="518" 
d="M340 576h-114l114 151h141zM83 486q43 20 93 31t98 11q43 -1 81 -11.5t65.5 -32.5t41 -56.5t6.5 -83.5l-48 -344h-109l47 339q2 22 -6 37.5t-22 25.5t-32.5 14.5t-38.5 4.5q-21 0 -41.5 -4.5t-36.5 -13.5l-56 -403h-110z" />
    <glyph glyph-name="Ncommaaccent" unicode="&#x145;" horiz-adv-x="681" 
d="M24 0l99 708h122l187 -418l53 -141l8 2l4 152l57 405h116l-99 -708h-135l-184 410l-47 135l-7 -2l-3 -148l-55 -395h-116zM288 -244h-111l73 183h125z" />
    <glyph glyph-name="ncommaaccent" unicode="&#x146;" horiz-adv-x="518" 
d="M83 486q43 20 93 31t98 11q43 -1 81 -11.5t65.5 -32.5t41 -56.5t6.5 -83.5l-48 -344h-109l47 339q2 22 -6 37.5t-22 25.5t-32.5 14.5t-38.5 4.5q-21 0 -41.5 -4.5t-36.5 -13.5l-56 -403h-110zM194 -244h-111l73 183h125z" />
    <glyph glyph-name="Ncaron" unicode="&#x147;" horiz-adv-x="681" 
d="M239 907h134l46 -51l58 51h135l-165 -151h-83zM24 0l99 708h122l187 -418l53 -141l8 2l4 152l57 405h116l-99 -708h-135l-184 410l-47 135l-7 -2l-3 -148l-55 -395h-116z" />
    <glyph glyph-name="ncaron" unicode="&#x148;" horiz-adv-x="518" 
d="M136 727h134l46 -51l58 51h135l-165 -151h-83zM83 486q43 20 93 31t98 11q43 -1 81 -11.5t65.5 -32.5t41 -56.5t6.5 -83.5l-48 -344h-109l47 339q2 22 -6 37.5t-22 25.5t-32.5 14.5t-38.5 4.5q-21 0 -41.5 -4.5t-36.5 -13.5l-56 -403h-110z" />
    <glyph glyph-name="Eng" unicode="&#x14a;" horiz-adv-x="681" 
d="M571 -2q-11 -83 -60 -129.5t-144 -46.5l14 103q23 0 37.5 5.5t23.5 15t13 23t6 29.5v2h-25l-184 410l-47 135l-7 -2l-3 -148l-55 -395h-116l99 708h122l187 -418l53 -141l8 2l4 152l57 405h116z" />
    <glyph glyph-name="eng" unicode="&#x14b;" horiz-adv-x="517" 
d="M273 528q43 -1 81 -11.5t65.5 -32.5t41 -56.5t6.5 -83.5l-48 -345q-11 -82 -60 -129t-144 -47l14 103q23 0 37.5 5.5t23.5 15.5t13 23.5t6 28.5l48 340q2 22 -6 37.5t-22 25.5t-32.5 14.5t-38.5 4.5q-21 0 -41.5 -4.5t-36.5 -13.5l-56 -403h-110l68 486q43 20 93 31
t98 11z" />
    <glyph glyph-name="Omacron" unicode="&#x14c;" horiz-adv-x="668" 
d="M282 883h263l-17 -96h-263zM74 489q8 57 38.5 100t74.5 71.5t97.5 43t107.5 14.5t103.5 -14.5t86 -43t55 -71.5t10.5 -100l-39 -269q-8 -57 -39 -100.5t-75.5 -72t-98 -43t-107.5 -14.5t-103.5 14.5t-85.5 43t-54 72t-10 100.5zM151 221q-4 -29 7.5 -50.5t33 -35.5
t51.5 -21.5t62 -7.5q33 0 65 7.5t58 21.5t44 35.5t22 50.5l38 265q4 30 -7.5 52t-34 36t-52.5 20.5t-62 6.5t-64 -7t-58 -21t-43.5 -35.5t-21.5 -51.5z" />
    <glyph glyph-name="omacron" unicode="&#x14d;" horiz-adv-x="496" 
d="M170 693h263l-17 -96h-263zM50 349q6 45 28.5 78t54.5 55.5t70.5 34t76.5 11.5q37 0 72 -11.5t60.5 -34t38.5 -55.5t7 -78l-25 -180q-6 -45 -28.5 -78.5t-54.5 -56t-70 -33.5t-75 -11q-38 0 -73.5 11t-61 33.5t-38.5 56t-7 78.5zM265 421q-17 0 -34.5 -4.5t-32.5 -13.5
t-25 -22.5t-13 -31.5l-24 -175q-3 -18 3.5 -32.5t19 -24.5t29 -15t33.5 -5q16 0 33 5t32 15t25 24.5t13 32.5l24 175q3 18 -4 31.5t-19 22.5t-28 13.5t-32 4.5z" />
    <glyph glyph-name="Ohungarumlaut" unicode="&#x150;" horiz-adv-x="668" 
d="M340 766h-96l81 151h134zM520 766h-97l79 151h135zM74 489q8 57 38.5 100t74.5 71.5t97.5 43t107.5 14.5t103.5 -14.5t86 -43t55 -71.5t10.5 -100l-39 -269q-8 -57 -39 -100.5t-75.5 -72t-98 -43t-107.5 -14.5t-103.5 14.5t-85.5 43t-54 72t-10 100.5zM151 221
q-4 -29 7.5 -50.5t33 -35.5t51.5 -21.5t62 -7.5q33 0 65 7.5t58 21.5t44 35.5t22 50.5l38 265q4 30 -7.5 52t-34 36t-52.5 20.5t-62 6.5t-64 -7t-58 -21t-43.5 -35.5t-21.5 -51.5z" />
    <glyph glyph-name="ohungarumlaut" unicode="&#x151;" horiz-adv-x="496" 
d="M242 570h-87l74 137h121zM405 570h-88l72 137h122zM50 349q6 45 28.5 78t54.5 55.5t70.5 34t76.5 11.5q37 0 72 -11.5t60.5 -34t38.5 -55.5t7 -78l-25 -180q-6 -45 -28.5 -78.5t-54.5 -56t-70 -33.5t-75 -11q-38 0 -73.5 11t-61 33.5t-38.5 56t-7 78.5zM265 421
q-17 0 -34.5 -4.5t-32.5 -13.5t-25 -22.5t-13 -31.5l-24 -175q-3 -18 3.5 -32.5t19 -24.5t29 -15t33.5 -5q16 0 33 5t32 15t25 24.5t13 32.5l24 175q3 18 -4 31.5t-19 22.5t-28 13.5t-32 4.5z" />
    <glyph glyph-name="OE" unicode="&#x152;" horiz-adv-x="896" 
d="M558 410h283l-16 -115h-283l-25 -180h311l-17 -116h-421l3 22q-33 -16 -67.5 -23.5t-69.5 -7.5q-47 0 -90 13t-74 39t-46.5 65t-8.5 90l43 312q7 50 34 89t66 66t86 41t94 13q73 0 126 -35l4 24h421l-16 -116h-311zM308 98q26 0 52 9t49 25l60 436q-19 23 -51.5 33.5
t-68.5 9.5q-27 0 -53 -7t-47.5 -19.5t-36 -32t-17.5 -44.5l-42 -309q-4 -29 8 -48.5t34 -31t51.5 -16.5t61.5 -5z" />
    <glyph glyph-name="oe" unicode="&#x153;" horiz-adv-x="777" 
d="M695 90q-40 -50 -92 -75t-103 -25q-41 0 -78 15.5t-60 50.5q-33 -37 -75 -51t-83 -15q-38 0 -73.5 11.5t-61.5 33.5t-39 56t-6 79l26 179q6 45 28.5 78t54.5 55.5t70.5 34t76.5 11.5q21 0 42.5 -4t40.5 -12.5t34 -21t23 -30.5q32 39 73.5 53.5t83.5 14.5q39 0 73.5 -12
t60 -36t37.5 -58.5t6 -79.5q-6 -40 -26.5 -68.5t-50 -46.5t-66 -26t-73.5 -8q-26 0 -51 7.5t-48 17.5l-6 -46q-5 -40 20.5 -60.5t63.5 -20.5q29 0 58 12.5t50 38.5zM265 421q-17 0 -34.5 -4.5t-32.5 -13.5t-25 -22.5t-13 -31.5l-26 -179q-3 -18 3.5 -32.5t19 -24.5t29 -15
t33.5 -5q42 0 70 19.5t33 57.5l25 171l1 8q3 18 -4 31.5t-19 22.5t-28 13.5t-32 4.5zM451 303q20 -7 43.5 -12.5t46.5 -5.5q19 0 36.5 2.5t32 9t24 18.5t12.5 31t-3.5 33.5t-18.5 23.5t-28 13.5t-34 4.5q-37 0 -68 -20.5t-37 -60.5z" />
    <glyph glyph-name="Racute" unicode="&#x154;" horiz-adv-x="620" 
d="M408 756h-114l114 151h141zM263 274h-85l-38 -274h-116l99 708h274q52 0 95 -12.5t72.5 -38.5t43 -68t6.5 -100q-7 -50 -26 -87t-47.5 -62.5t-65 -40.5t-77.5 -21l180 -278h-141zM351 375q60 0 99.5 26.5t47.5 86.5q4 30 -2.5 50t-22.5 32.5t-39 17.5t-52 4h-159
l-31 -217h159z" />
    <glyph glyph-name="racute" unicode="&#x155;" horiz-adv-x="326" 
d="M273 566h-114l114 151h141zM285 528q13 0 27 -1t31 -5l-14 -97q-20 6 -46 5t-49.5 -10.5t-41 -27.5t-21.5 -44l-49 -348h-110l49 350q8 56 40.5 97t77.5 59q33 14 64 18t42 4z" />
    <glyph glyph-name="Rcommaaccent" unicode="&#x156;" horiz-adv-x="620" 
d="M263 274h-85l-38 -274h-116l99 708h274q52 0 95 -12.5t72.5 -38.5t43 -68t6.5 -100q-7 -50 -26 -87t-47.5 -62.5t-65 -40.5t-77.5 -21l180 -278h-141zM351 375q60 0 99.5 26.5t47.5 86.5q4 30 -2.5 50t-22.5 32.5t-39 17.5t-52 4h-159l-31 -217h159zM277 -244h-111
l73 183h125z" />
    <glyph glyph-name="rcommaaccent" unicode="&#x157;" horiz-adv-x="326" 
d="M285 528q13 0 27 -1t31 -5l-14 -97q-20 6 -46 5t-49.5 -10.5t-41 -27.5t-21.5 -44l-49 -348h-110l49 350q8 56 40.5 97t77.5 59q33 14 64 18t42 4zM32 -244h-111l73 183h125z" />
    <glyph glyph-name="Rcaron" unicode="&#x158;" horiz-adv-x="620" 
d="M204 907h134l46 -51l58 51h135l-165 -151h-83zM263 274h-85l-38 -274h-116l99 708h274q52 0 95 -12.5t72.5 -38.5t43 -68t6.5 -100q-7 -50 -26 -87t-47.5 -62.5t-65 -40.5t-77.5 -21l180 -278h-141zM351 375q60 0 99.5 26.5t47.5 86.5q4 30 -2.5 50t-22.5 32.5t-39 17.5
t-52 4h-159l-31 -217h159z" />
    <glyph glyph-name="rcaron" unicode="&#x159;" horiz-adv-x="326" 
d="M90 718h125l43 -47l54 47h126l-154 -141h-77zM285 528q13 0 27 -1t31 -5l-14 -97q-20 6 -46 5t-49.5 -10.5t-41 -27.5t-21.5 -44l-49 -348h-110l49 350q8 56 40.5 97t77.5 59q33 14 64 18t42 4z" />
    <glyph glyph-name="Sacute" unicode="&#x15a;" horiz-adv-x="586" 
d="M396 756h-114l114 151h141zM184 520q-5 -23 5 -39.5t30 -28t46.5 -19t53.5 -12.5q45 -9 89.5 -23t77.5 -40.5t48.5 -67.5t3.5 -103q-9 -51 -38 -88t-69 -61t-88.5 -36t-96.5 -12q-41 0 -78.5 10.5t-69.5 32t-56 53.5t-37 74l113 48q16 -51 56 -76t90 -25q27 0 53 5t48 16
t37 28t20 40q6 30 -3.5 49.5t-30 32.5t-49.5 20t-61 12q-44 7 -84.5 21.5t-71 39.5t-46 62.5t-8.5 90.5q10 48 37.5 84.5t66.5 61t85 36.5t93 12q40 0 76.5 -8t67.5 -25.5t54 -46.5t35 -71l-111 -46q-16 50 -52 70.5t-85 20.5q-26 0 -51 -6t-46 -17.5t-35.5 -29t-18.5 -39.5
z" />
    <glyph glyph-name="sacute" unicode="&#x15b;" horiz-adv-x="447" 
d="M296 576h-114l114 151h141zM91 166q16 -37 49 -55.5t65 -18.5q29 0 52 14.5t28 43.5q2 14 -4.5 23.5t-17.5 16t-24.5 10.5t-26.5 7q-27 5 -57.5 15.5t-56 29.5t-40 48.5t-8.5 73.5q6 43 28 72.5t52.5 47.5t66 26t68.5 8q42 0 84 -19.5t75 -57.5l-76 -72q-20 23 -53.5 36
t-65.5 12q-26 -1 -45 -11.5t-24 -32.5q-4 -17 3 -30t20 -22t29.5 -14.5t32.5 -8.5q30 -5 59 -14.5t51 -27.5t33 -45.5t6 -68.5q-6 -41 -25.5 -71t-47.5 -50.5t-62.5 -30.5t-69.5 -10q-30 0 -59.5 7.5t-55 23t-44.5 38.5t-29 54z" />
    <glyph glyph-name="Scedilla" unicode="&#x15e;" horiz-adv-x="586" 
d="M319 421q45 -9 89.5 -23t77.5 -40.5t48.5 -67.5t3.5 -103q-8 -44 -30.5 -77t-54.5 -57t-71 -38.5t-81 -20.5l-27 -47q23 -3 38 -15t22 -29.5t5 -38.5t-13 -43q-18 -35 -54 -50t-77 -15q-22 0 -48.5 7t-55.5 26l34 67q26 -17 47.5 -19.5t35.5 3t20 16t2 22t-19 19.5t-43 9
l47 86q-36 3 -68.5 15.5t-60.5 33.5t-48.5 51t-32.5 68l113 48q16 -51 56 -76t90 -25q27 0 53 5t48 16t37 28t20 40q6 30 -3.5 49.5t-30 32.5t-49.5 20t-61 12q-44 7 -84.5 21.5t-71 39.5t-46 62.5t-8.5 90.5q10 48 37.5 84.5t66.5 61t85 36.5t93 12q40 0 76.5 -8
t67.5 -25.5t54 -46.5t35 -71l-111 -46q-16 50 -52 70.5t-85 20.5q-26 0 -51 -6t-46 -17.5t-35.5 -29t-18.5 -39.5q-5 -23 5 -39.5t30 -28t46.5 -19t53.5 -12.5z" />
    <glyph glyph-name="scedilla" unicode="&#x15f;" horiz-adv-x="447" 
d="M245 308q30 -5 59 -14.5t51 -27.5t33 -45.5t6 -68.5q-9 -63 -48.5 -101t-91.5 -52l-30 -52q23 -3 38 -15t22 -29.5t5 -38.5t-13 -43q-18 -35 -54 -50t-77 -15q-22 0 -48.5 7t-55.5 26l34 67q26 -17 47.5 -19.5t35.5 3t20 16t2 22t-19 19.5t-43 9l47 85q-27 3 -53 11.5
t-47.5 24t-38 37t-25.5 49.5l90 53q16 -37 49 -55.5t65 -18.5q29 0 52 14.5t28 43.5q2 14 -4.5 23.5t-17.5 16t-24.5 10.5t-26.5 7q-27 5 -57.5 15.5t-56 29.5t-40 48.5t-8.5 73.5q6 43 28 72.5t52.5 47.5t66 26t68.5 8q42 0 84 -19.5t75 -57.5l-76 -72q-20 23 -53.5 36
t-65.5 12q-26 -1 -45 -11.5t-24 -32.5q-4 -17 3 -30t20 -22t29.5 -14.5t32.5 -8.5z" />
    <glyph glyph-name="Scaron" unicode="&#x160;" horiz-adv-x="586" 
d="M192 907h134l46 -51l58 51h135l-165 -151h-83zM184 520q-5 -23 5 -39.5t30 -28t46.5 -19t53.5 -12.5q45 -9 89.5 -23t77.5 -40.5t48.5 -67.5t3.5 -103q-9 -51 -38 -88t-69 -61t-88.5 -36t-96.5 -12q-41 0 -78.5 10.5t-69.5 32t-56 53.5t-37 74l113 48q16 -51 56 -76
t90 -25q27 0 53 5t48 16t37 28t20 40q6 30 -3.5 49.5t-30 32.5t-49.5 20t-61 12q-44 7 -84.5 21.5t-71 39.5t-46 62.5t-8.5 90.5q10 48 37.5 84.5t66.5 61t85 36.5t93 12q40 0 76.5 -8t67.5 -25.5t54 -46.5t35 -71l-111 -46q-16 50 -52 70.5t-85 20.5q-26 0 -51 -6
t-46 -17.5t-35.5 -29t-18.5 -39.5z" />
    <glyph glyph-name="scaron" unicode="&#x161;" horiz-adv-x="447" 
d="M98 720h129l44 -49l56 49h129l-158 -145h-80zM91 166q16 -37 49 -55.5t65 -18.5q29 0 52 14.5t28 43.5q2 14 -4.5 23.5t-17.5 16t-24.5 10.5t-26.5 7q-27 5 -57.5 15.5t-56 29.5t-40 48.5t-8.5 73.5q6 43 28 72.5t52.5 47.5t66 26t68.5 8q42 0 84 -19.5t75 -57.5l-76 -72
q-20 23 -53.5 36t-65.5 12q-26 -1 -45 -11.5t-24 -32.5q-4 -17 3 -30t20 -22t29.5 -14.5t32.5 -8.5q30 -5 59 -14.5t51 -27.5t33 -45.5t6 -68.5q-6 -41 -25.5 -71t-47.5 -50.5t-62.5 -30.5t-69.5 -10q-30 0 -59.5 7.5t-55 23t-44.5 38.5t-29 54z" />
    <glyph glyph-name="Tcommaaccent" unicode="&#x162;" horiz-adv-x="572" 
d="M52 0zM383 592l-82 -592h-116l82 592h-215l17 117h546l-17 -117h-215zM212 -244h-111l73 183h125z" />
    <glyph glyph-name="tcommaaccent" unicode="&#x163;" horiz-adv-x="301" 
d="M7 0zM236 -7q-14 -3 -31 -3h-19q-37 0 -67.5 11t-50.5 33.5t-29 57t-2 82.5l76 534h109l-27 -190h99l-15 -110h-99l-34 -233q-5 -31 2.5 -48.5t22 -26t35 -10.5t43.5 -2zM118 -244h-111l73 183h125z" />
    <glyph glyph-name="Tcaron" unicode="&#x164;" horiz-adv-x="572" 
d="M184 907h134l46 -51l58 51h135l-165 -151h-83zM383 592l-82 -592h-116l82 592h-215l17 117h546l-17 -117h-215z" />
    <glyph glyph-name="tcaron" unicode="&#x165;" horiz-adv-x="301" 
d="M235 -7q-14 -3 -31 -3h-19q-37 0 -67.5 11t-50.5 33.5t-29 57t-2 82.5l76 534h109l-27 -190h99l-15 -110h-99l-34 -233q-5 -31 2.5 -48.5t22 -26t35 -10.5t43.5 -2zM328 568h-92l46 140h105z" />
    <glyph glyph-name="Tbar" unicode="&#x166;" horiz-adv-x="576" 
d="M356 380h86l-11 -83h-87l-41 -297h-116l41 297h-87l11 83h88l29 212h-215l17 117h546l-17 -117h-215z" />
    <glyph glyph-name="tbar" unicode="&#x167;" horiz-adv-x="303" 
d="M170 314h64l-11 -83h-65l-8 -56q-5 -31 2.5 -48.5t22 -26t35 -10.5t43.5 -2l-13 -95q-14 -3 -31 -3h-19q-37 0 -67.5 11t-50.5 33.5t-29 57t-2 82.5l8 57h-40l11 83h41l56 394h109l-27 -190h99l-15 -110h-99z" />
    <glyph glyph-name="Umacron" unicode="&#x16a;" horiz-adv-x="671" 
d="M283 873h263l-17 -96h-263zM166 222q-4 -30 6.5 -52t30.5 -36.5t47.5 -21.5t56.5 -7q30 0 59 7t53.5 21.5t41 36.5t20.5 52l69 486h116l-69 -486q-8 -58 -38 -101.5t-72.5 -72.5t-93.5 -43.5t-102 -14.5t-98.5 14.5t-82 43.5t-51.5 72.5t-9 101.5l69 486h116z" />
    <glyph glyph-name="umacron" unicode="&#x16b;" horiz-adv-x="519" 
d="M178 683h263l-17 -96h-263zM423 33q-50 -20 -103 -31.5t-102 -11.5q-42 0 -78 10t-61.5 32t-37.5 56t-5 82l49 348h110l-49 -350q-2 -21 5.5 -37t21.5 -26t33 -15t39 -5t41 4.5t38 13.5l58 415h109z" />
    <glyph glyph-name="Uring" unicode="&#x16e;" horiz-adv-x="671" 
d="M289 831q3 27 16 47.5t31.5 34.5t41 21t46.5 7q23 0 43.5 -9t34.5 -24.5t21 -35.5t4 -42t-15.5 -42t-31 -35t-41 -23.5t-45.5 -8.5q-24 0 -44.5 8.5t-35 23.5t-21.5 35t-4 43zM460 830q3 21 -11.5 35t-34.5 14q-21 0 -38 -12t-20 -37q-3 -20 11 -33.5t35 -13.5
q20 0 37.5 12t20.5 35zM166 222q-4 -30 6.5 -52t30.5 -36.5t47.5 -21.5t56.5 -7q30 0 59 7t53.5 21.5t41 36.5t20.5 52l69 486h116l-69 -486q-8 -58 -38 -101.5t-72.5 -72.5t-93.5 -43.5t-102 -14.5t-98.5 14.5t-82 43.5t-51.5 72.5t-9 101.5l69 486h116z" />
    <glyph glyph-name="uring" unicode="&#x16f;" horiz-adv-x="519" 
d="M184 646q3 27 16 47.5t31.5 34.5t41 21t46.5 7q23 0 43.5 -9t34.5 -24.5t21 -35.5t4 -42t-15.5 -42t-31 -35t-41 -23.5t-45.5 -8.5q-24 0 -44.5 8.5t-35 23.5t-21.5 35t-4 43zM355 645q3 21 -11.5 35t-34.5 14q-21 0 -38 -12t-20 -37q-3 -20 11 -33.5t35 -13.5
q20 0 37.5 12t20.5 35zM423 33q-50 -20 -103 -31.5t-102 -11.5q-42 0 -78 10t-61.5 32t-37.5 56t-5 82l49 348h110l-49 -350q-2 -21 5.5 -37t21.5 -26t33 -15t39 -5t41 4.5t38 13.5l58 415h109z" />
    <glyph glyph-name="Uhungarumlaut" unicode="&#x170;" horiz-adv-x="671" 
d="M341 756h-96l81 151h134zM521 756h-97l79 151h135zM166 222q-4 -30 6.5 -52t30.5 -36.5t47.5 -21.5t56.5 -7q30 0 59 7t53.5 21.5t41 36.5t20.5 52l69 486h116l-69 -486q-8 -58 -38 -101.5t-72.5 -72.5t-93.5 -43.5t-102 -14.5t-98.5 14.5t-82 43.5t-51.5 72.5t-9 101.5
l69 486h116z" />
    <glyph glyph-name="uhungarumlaut" unicode="&#x171;" horiz-adv-x="519" 
d="M251 578h-93l76 139h130zM426 578h-94l74 139h131zM423 33q-50 -20 -103 -31.5t-102 -11.5q-42 0 -78 10t-61.5 32t-37.5 56t-5 82l49 348h110l-49 -350q-2 -21 5.5 -37t21.5 -26t33 -15t39 -5t41 4.5t38 13.5l58 415h109z" />
    <glyph glyph-name="Uogonek" unicode="&#x172;" horiz-adv-x="671" 
d="M597 222q-9 -64 -43.5 -110t-83.5 -75q-43 -28 -67 -63t-29.5 -62.5t9 -39.5t47.5 6l29 -71q-25 -23 -59.5 -37t-63.5 -14q-20 0 -37 8.5t-28.5 23t-16 34.5t0.5 44q3 16 11 33.5t18.5 34.5t22.5 32t25 26q-11 -1 -20.5 -1.5t-20.5 -0.5q-51 0 -98.5 14.5t-82 43.5
t-51.5 72.5t-9 101.5l69 486h116l-69 -486q-4 -30 6.5 -52t30.5 -36.5t47.5 -21.5t56.5 -7q30 0 59 7t53.5 21.5t41 36.5t20.5 52l69 486h116z" />
    <glyph glyph-name="uogonek" unicode="&#x173;" horiz-adv-x="519" 
d="M264 -8q-12 -1 -23.5 -1.5t-22.5 -0.5q-42 0 -78 10t-61.5 32t-37.5 56t-5 82l49 348h110l-49 -350q-2 -21 5.5 -37t21.5 -26t33 -15t39 -5t41 4.5t38 13.5l58 415h109l-68 -485q-37 -26 -60.5 -46t-37.5 -36.5t-19.5 -30t-5.5 -26.5q0 -20 19.5 -26.5t51.5 10.5l29 -71
q-25 -23 -57 -34t-61 -11q-41 0 -67 22t-26 61q0 34 21 74.5t56 69.5z" />
    <glyph glyph-name="Wcircumflex" unicode="&#x174;" horiz-adv-x="925" 
d="M706 756h-127l-46 53l-56 -53h-129l160 151h81zM168 0l-106 708h120l63 -443q-1 0 -0.5 -20.5t1.5 -45.5q1 -29 1 -66h9l41 137l159 334h97l63 -336q-1 0 1 -21t4 -46l6 -66h9l35 132l186 441h119l-304 -708h-123l-64 346l-1 89h-7q-9 -25 -15 -44q-5 -17 -10 -30.5
t-4 -13.5l-157 -347h-123z" />
    <glyph glyph-name="wcircumflex" unicode="&#x175;" horiz-adv-x="704" 
d="M568 576h-127l-46 53l-56 -53h-129l160 151h81zM38 518h114l41 -294l-3 -105h7q2 9 6.5 26t9 34.5t7.5 30.5t3 14l103 294h109l27 -293l-5 -104h8l22 104l124 293h113l-227 -518h-115l-20 228v124h-6l-35 -125l-84 -227h-115z" />
    <glyph glyph-name="Ycircumflex" unicode="&#x176;" horiz-adv-x="599" 
d="M544 756h-127l-46 53l-56 -53h-129l160 151h81zM199 0l38 275l-185 433h133l126 -322l215 322h135l-308 -433l-38 -275h-116z" />
    <glyph glyph-name="ycircumflex" unicode="&#x177;" horiz-adv-x="528" 
d="M478 566h-127l-46 53l-56 -53h-129l160 151h81zM426 0q-7 -50 -30 -86t-56 -59t-72 -34t-79 -11q-30 0 -58 6.5t-53 18.5t-44 30t-31 41l75 63q17 -29 52 -44.5t73 -15.5q22 0 43 6t37.5 18t26.5 31t12 46q-52 -20 -104 -20q-39 1 -75 13t-62 35.5t-38.5 56.5t-6.5 76
l48 347h110l-49 -345q-2 -20 6 -34.5t22 -23.5t32.5 -14t38.5 -5q24 0 48 6t41 17l56 399h109z" />
    <glyph glyph-name="Ydieresis" unicode="&#x178;" horiz-adv-x="599" 
d="M204 830q4 29 26 49t51 20t46 -20t13 -49t-26 -48.5t-51 -19.5t-46 19.5t-13 48.5zM405 830q4 29 26 49t51 20t46.5 -20t13.5 -49t-26.5 -48.5t-51.5 -19.5t-46 19.5t-13 48.5zM199 0l38 275l-185 433h133l126 -322l215 322h135l-308 -433l-38 -275h-116z" />
    <glyph glyph-name="Zacute" unicode="&#x179;" horiz-adv-x="590" 
d="M394 766h-114l114 151h141zM590 708l24 -75l-467 -527h380l-15 -106h-505l-21 76l465 516h-372l17 116h494z" />
    <glyph glyph-name="zacute" unicode="&#x17a;" horiz-adv-x="470" 
d="M297 566h-114l114 151h141zM423 518l33 -66l-305 -346h259l-15 -106h-369l-36 65l310 349h-245l14 104h354z" />
    <glyph glyph-name="Zdotaccent" unicode="&#x17b;" horiz-adv-x="590" 
d="M290 842q5 32 29.5 53.5t56.5 21.5t51 -21.5t14 -53.5t-29.5 -54t-56.5 -22t-51 22t-14 54zM590 708l24 -75l-467 -527h380l-15 -106h-505l-21 76l465 516h-372l17 116h494z" />
    <glyph glyph-name="zdotaccent" unicode="&#x17c;" horiz-adv-x="470" 
d="M193 642q5 32 29.5 53.5t56.5 21.5t51 -21.5t14 -53.5t-29.5 -54t-56.5 -22t-51 22t-14 54zM423 518l33 -66l-305 -346h259l-15 -106h-369l-36 65l310 349h-245l14 104h354z" />
    <glyph glyph-name="Zcaron" unicode="&#x17d;" horiz-adv-x="590" 
d="M190 917h134l46 -51l58 51h135l-165 -151h-83zM590 708l24 -75l-467 -527h380l-15 -106h-505l-21 76l465 516h-372l17 116h494z" />
    <glyph glyph-name="zcaron" unicode="&#x17e;" horiz-adv-x="470" 
d="M93 717h134l46 -51l58 51h135l-165 -151h-83zM423 518l33 -66l-305 -346h259l-15 -106h-369l-36 65l310 349h-245l14 104h354z" />
    <glyph glyph-name="florin" unicode="&#x192;" horiz-adv-x="376" 
d="M-9 -21q14 -4 27 -5t24 4t19 17t12 34l56 294h-89v107h108l25 132q5 28 15.5 56t29 50t46 36t66.5 14q17 0 38 -5t43 -17l-42 -88q-33 17 -55.5 -0.5t-27.5 -52.5v1l-24 -126h90v-107h-108l-59 -317q-12 -62 -48.5 -98t-108.5 -36q-15 0 -32.5 4t-36.5 14z" />
    <glyph glyph-name="Scommaaccent" unicode="&#x218;" horiz-adv-x="586" 
d="M184 520q-5 -23 5 -39.5t30 -28t46.5 -19t53.5 -12.5q45 -9 89.5 -23t77.5 -40.5t48.5 -67.5t3.5 -103q-9 -51 -38 -88t-69 -61t-88.5 -36t-96.5 -12q-41 0 -78.5 10.5t-69.5 32t-56 53.5t-37 74l113 48q16 -51 56 -76t90 -25q27 0 53 5t48 16t37 28t20 40
q6 30 -3.5 49.5t-30 32.5t-49.5 20t-61 12q-44 7 -84.5 21.5t-71 39.5t-46 62.5t-8.5 90.5q10 48 37.5 84.5t66.5 61t85 36.5t93 12q40 0 76.5 -8t67.5 -25.5t54 -46.5t35 -71l-111 -46q-16 50 -52 70.5t-85 20.5q-26 0 -51 -6t-46 -17.5t-35.5 -29t-18.5 -39.5zM236 -244
h-111l73 183h125z" />
    <glyph glyph-name="scommaaccent" unicode="&#x219;" horiz-adv-x="447" 
d="M91 166q16 -37 49 -55.5t65 -18.5q29 0 52 14.5t28 43.5q2 14 -4.5 23.5t-17.5 16t-24.5 10.5t-26.5 7q-27 5 -57.5 15.5t-56 29.5t-40 48.5t-8.5 73.5q6 43 28 72.5t52.5 47.5t66 26t68.5 8q42 0 84 -19.5t75 -57.5l-76 -72q-20 23 -53.5 36t-65.5 12q-26 -1 -45 -11.5
t-24 -32.5q-4 -17 3 -30t20 -22t29.5 -14.5t32.5 -8.5q30 -5 59 -14.5t51 -27.5t33 -45.5t6 -68.5q-6 -41 -25.5 -71t-47.5 -50.5t-62.5 -30.5t-69.5 -10q-30 0 -59.5 7.5t-55 23t-44.5 38.5t-29 54zM164 -244h-111l73 183h125z" />
    <glyph glyph-name="uni021A" unicode="&#x21a;" horiz-adv-x="572" 
d="M383 592l-82 -592h-116l82 592h-215l17 117h546l-17 -117h-215zM212 -244h-111l73 183h125z" />
    <glyph glyph-name="uni021B" unicode="&#x21b;" horiz-adv-x="301" 
d="M236 -7q-14 -3 -31 -3h-19q-37 0 -67.5 11t-50.5 33.5t-29 57t-2 82.5l76 534h109l-27 -190h99l-15 -110h-99l-34 -233q-5 -31 2.5 -48.5t22 -26t35 -10.5t43.5 -2zM118 -244h-111l73 183h125z" />
    <glyph glyph-name="circumflex" unicode="&#x2c6;" horiz-adv-x="392" 
d="M449 756h-127l-46 53l-56 -53h-129l160 151h81z" />
    <glyph glyph-name="caron" unicode="&#x2c7;" horiz-adv-x="289" 
d="M29 907h134l46 -51l58 51h135l-165 -151h-83z" />
    <glyph glyph-name="uni02C9" unicode="&#x2c9;" horiz-adv-x="240" 
d="M59 664h293l-15 -107h-293z" />
    <glyph glyph-name="breve" unicode="&#x2d8;" horiz-adv-x="252" 
d="M373 907q-5 -38 -21.5 -66.5t-39.5 -48t-51.5 -29.5t-57.5 -10q-28 0 -55 9.5t-46.5 28.5t-29 48t-3.5 68h89q-5 -31 12.5 -46t40.5 -15t44 15t26 46h92z" />
    <glyph glyph-name="dotaccent" unicode="&#x2d9;" horiz-adv-x="240" 
d="M125 832q5 32 29.5 53.5t56.5 21.5t51 -21.5t14 -53.5t-29.5 -54t-56.5 -22t-51 22t-14 54z" />
    <glyph glyph-name="ring" unicode="&#x2da;" horiz-adv-x="240" 
d="M77 831q3 27 16 47.5t31.5 34.5t41 21t46.5 7q23 0 43.5 -9t34.5 -24.5t21 -35.5t4 -42t-15.5 -42t-31 -35t-41 -23.5t-45.5 -8.5q-24 0 -44.5 8.5t-35 23.5t-21.5 35t-4 43zM248 830q3 21 -11.5 35t-34.5 14q-21 0 -38 -12t-20 -37q-3 -20 11 -33.5t35 -13.5
q20 0 37.5 12t20.5 35z" />
    <glyph glyph-name="ogonek" unicode="&#x2db;" horiz-adv-x="240" 
d="M203 0q-36 -24 -54 -53t-19 -50.5t15.5 -29t49.5 10.5l29 -71q-25 -23 -59.5 -37t-63.5 -14q-20 0 -37 8.5t-28.5 23t-16 34.5t0.5 44q4 20 14.5 42t24.5 41.5t30.5 35.5t31.5 24z" />
    <glyph glyph-name="tilde" unicode="&#x2dc;" horiz-adv-x="271" 
d="M51 803q20 59 46.5 82t62.5 23q23 0 43 -10.5t37.5 -18t31.5 -5.5t25 27l74 -30q-11 -54 -39 -78.5t-55 -24.5q-25 0 -47.5 11t-42 18.5t-36.5 4.5t-30 -32z" />
    <glyph glyph-name="hungarumlaut" unicode="&#x2dd;" horiz-adv-x="425" 
d="M196 756h-96l81 151h134zM376 756h-97l79 151h135z" />
    <glyph glyph-name="uni0326" unicode="&#x326;" horiz-adv-x="0" 
d="M163 -244h-111l73 183h125z" />
    <glyph glyph-name="uni03A9" unicode="&#x3a9;" horiz-adv-x="778" 
d="M123 111q-37 50 -57.5 114.5t-8.5 150.5q12 85 50.5 148t92.5 104.5t118.5 61.5t128.5 19.5t122.5 -21.5t101 -62.5t63 -103t9.5 -142.5q-6 -41 -20.5 -79t-34 -72t-42.5 -64t-46 -54h106l-15 -111h-307l11 83q41 21 80 51.5t70.5 68.5t53.5 82.5t29 94.5
q10 72 -16.5 121t-73.5 75t-105.5 27t-112.5 -23.5t-94.5 -75.5t-51.5 -130q-6 -46 2.5 -88t29 -79t50 -68.5t64.5 -56.5l-11 -82h-310l15 111h109z" />
    <glyph glyph-name="uni03BC" unicode="&#x3bc;" horiz-adv-x="530" 
d="M323 38q-17 -23 -45 -35.5t-57 -13t-53 12t-34 39.5l-34 -242h-112l101 717h113l-45 -318q-4 -30 7 -50.5t30 -31t42.5 -10.5t45.5 11t39 33t22 57l43 309h113l-71 -518h-104z" />
    <glyph glyph-name="pi" unicode="&#x3c0;" horiz-adv-x="561" 
d="M463 -3q-47 2 -76 14t-44.5 32t-19 48t1.5 62l37 264h-124l-58 -417h-109l58 416q-24 -2 -46 -8t-41 -12l-10 88q14 8 27.5 15.5t28.5 13t34 8.5t44 3h399l-25 -107h-67l-36 -259q-4 -27 4 -39.5t37 -10.5z" />
    <glyph glyph-name="uni0401" unicode="&#x401;" horiz-adv-x="576" 
d="M205 830q4 29 26 49t51 20t46 -20t13 -49t-26 -48.5t-51 -19.5t-46 19.5t-13 48.5zM406 830q4 29 26 49t51 20t46.5 -20t13.5 -49t-26.5 -48.5t-51.5 -19.5t-46 19.5t-13 48.5zM198 412h323l-16 -116h-323l-25 -180h351l-16 -116h-467l99 709h467l-16 -116h-351z" />
    <glyph glyph-name="uni0410" unicode="&#x410;" horiz-adv-x="627" 
d="M587 0h-121l-44 184h-254l-89 -184h-124l354 708h121zM346 591l-40 -114l-82 -177h175l-33 179l-6 112h-14z" />
    <glyph glyph-name="uni0411" unicode="&#x411;" horiz-adv-x="617" 
d="M357 430q127 0 182.5 -50.5t39.5 -163.5q-8 -56 -32 -96.5t-60.5 -67t-84 -39.5t-101.5 -13h-277l100 708h466l-15 -106h-350l-25 -172h157zM317 108q31 0 56 5.5t43.5 18.5t30.5 34.5t17 53.5q8 57 -19 86t-101 29h-157l-32 -227h162z" />
    <glyph glyph-name="uni0412" unicode="&#x412;" horiz-adv-x="624" 
d="M588 513q-5 -36 -25.5 -73.5t-58.5 -60.5q27 -12 43 -30t24 -40t9 -46.5t-3 -51.5q-9 -59 -34 -99t-61.5 -65t-83 -36t-98.5 -11h-275l99 709h276q44 0 81.5 -12t63.5 -36.5t38 -61.5t5 -86zM360 426q44 0 75.5 21t38.5 70q6 41 -21 60.5t-69 19.5h-160l-24 -171h160z
M316 111q28 -1 53 4.5t44.5 18t32 32.5t16.5 49q8 58 -24 83t-92 24h-160l-30 -211h160z" />
    <glyph glyph-name="uni0413" unicode="&#x413;" horiz-adv-x="518" 
d="M24 0l100 708h437l-16 -112h-321l-85 -596h-115z" />
    <glyph glyph-name="uni0414" unicode="&#x414;" horiz-adv-x="709" 
d="M508 -131l17 131h-437l-18 -131h-115l33 240h15q40 3 67 23.5t46.5 62.5t35.5 106.5t35 155.5l52 251h425l-84 -599h77l-33 -240h-116zM290 375q-18 -85 -40.5 -152.5t-57.5 -113.5h272l69 487h-198z" />
    <glyph glyph-name="uni0415" unicode="&#x415;" horiz-adv-x="576" 
d="M198 412h323l-16 -116h-323l-25 -180h351l-16 -116h-467l99 709h467l-16 -116h-351z" />
    <glyph glyph-name="uni0416" unicode="&#x416;" horiz-adv-x="937" 
d="M572 302l-53 -50l-36 -252h-115l35 252l-39 50l-263 -302h-147l332 368l-232 340h145l223 -327l46 327h115l-45 -327l314 327h145l-327 -340l227 -368h-147z" />
    <glyph glyph-name="uni0417" unicode="&#x417;" horiz-adv-x="555" 
d="M325 718q57 0 97 -15.5t63.5 -42.5t32 -63t2.5 -78q-7 -43 -30 -80.5t-61 -60.5q48 -26 67 -72t11 -100q-9 -56 -34 -97t-62.5 -67.5t-86 -39t-104.5 -12.5q-38 0 -74 8t-66.5 24.5t-55 41.5t-39.5 60l97 55q24 -41 65 -56.5t85 -15.5q32 0 58.5 4.5t47 16.5t34 32
t19.5 50q10 53 -21 83.5t-99 30.5h-99l13 96h99q52 0 85 23t41 73q6 47 -22 68.5t-82 21.5q-50 0 -84.5 -13.5t-66.5 -43.5l-77 54q51 61 111.5 88t135.5 27z" />
    <glyph glyph-name="uni0418" unicode="&#x418;" horiz-adv-x="686" 
d="M539 515h-3l-65 -94l-322 -421h-125l100 708h115l-61 -436l-21 -98h4l70 100l326 434h119l-100 -708h-116l60 417z" />
    <glyph glyph-name="uni0419" unicode="&#x419;" horiz-adv-x="686" 
d="M605 922q-8 -39 -27.5 -69t-46 -49.5t-57.5 -29.5t-63 -10t-60.5 10t-49.5 29.5t-32 49.5t-8 69h101q2 -30 16.5 -46.5t45.5 -16.5q32 0 51 16.5t29 46.5h101zM540 515h-4l-78 -112l-309 -403h-125l100 708h115l-61 -440l-20 -94h3l64 92l332 442h119l-100 -708h-116
l56 398z" />
    <glyph glyph-name="uni041A" unicode="&#x41a;" horiz-adv-x="632" 
d="M325 365l266 -365h-147l-212 289l-57 -51l-35 -238h-116l100 708h116l-46 -325l352 325h148z" />
    <glyph glyph-name="uni041B" unicode="&#x41b;" horiz-adv-x="681" 
d="M333 596l-46 -221q-18 -84 -38.5 -154.5t-54.5 -120.5t-87.5 -76.5t-135.5 -23.5l16 111q48 -2 78.5 21t51.5 67.5t36 109.5t32 148l52 251h434l-100 -708h-115l84 596h-207z" />
    <glyph glyph-name="uni041C" unicode="&#x41c;" horiz-adv-x="785" 
d="M123 708h129l130 -460l262 460h130l-99 -708h-116l45 325l49 192h-10l-83 -167l-152 -252h-91l-81 252l-35 170h-10l-7 -196l-45 -324h-115z" />
    <glyph glyph-name="uni041D" unicode="&#x41d;" horiz-adv-x="681" 
d="M124 708h116l-42 -298h315l42 298h116l-100 -708h-115l41 297h-315l-42 -297h-115z" />
    <glyph glyph-name="uni041E" unicode="&#x41e;" horiz-adv-x="667" 
d="M74 489q8 57 38.5 100t74.5 71.5t97.5 43t107.5 14.5t103.5 -14.5t85.5 -43t55 -71.5t11 -100l-39 -269q-8 -57 -38 -100.5t-74.5 -72t-98 -43t-107.5 -14.5t-103.5 14.5t-86 43t-55 72t-10.5 100.5zM150 220q-4 -30 7.5 -52.5t33.5 -37.5t51.5 -22.5t61.5 -7.5
q33 0 65 7.5t58 22.5t44 38t23 53l38 267q4 31 -7 54t-33 38t-52 22t-62 7t-64 -7.5t-58.5 -22.5t-44.5 -37.5t-23 -53.5z" />
    <glyph glyph-name="uni041F" unicode="&#x41f;" horiz-adv-x="673" 
d="M124 708h539l-100 -708h-115l84 596h-308l-85 -596h-115z" />
    <glyph glyph-name="uni0420" unicode="&#x420;" horiz-adv-x="612" 
d="M398 708q61 0 104.5 -20.5t69.5 -53.5t35.5 -75.5t3.5 -86.5q-6 -45 -27 -87.5t-56 -74.5t-83 -51.5t-109 -19.5h-163l-34 -239h-115l100 708h274zM348 348q33 0 59.5 10.5t45 28t30 40t14.5 46.5t-2 46.5t-19 40t-37 27.5t-56 10h-160l-35 -249h160z" />
    <glyph glyph-name="uni0421" unicode="&#x421;" horiz-adv-x="601" 
d="M73 490q8 57 37.5 99.5t72 71t93.5 43t103 14.5q39 0 76 -10t68.5 -30t56 -50.5t37.5 -71.5l-110 -51q-19 48 -59.5 72.5t-87.5 24.5q-29 0 -58.5 -7t-53.5 -21t-40 -35t-20 -49l-37 -272q-4 -28 6.5 -49t30.5 -35t47 -21t56 -7q48 0 95 24t79 72l97 -48q-26 -41 -59 -72
t-71 -51.5t-78 -30.5t-79 -10q-51 0 -97.5 14t-80.5 42.5t-51.5 71.5t-9.5 100z" />
    <glyph glyph-name="uni0422" unicode="&#x422;" horiz-adv-x="570" 
d="M184 0l84 599h-215l16 110h546l-16 -110h-215l-84 -599h-116z" />
    <glyph glyph-name="uni0423" unicode="&#x423;" horiz-adv-x="547" 
d="M35 708h132l70 -217l39 -137h2l77 134l130 220h124l-419 -708h-123l135 226z" />
    <glyph glyph-name="uni0424" unicode="&#x424;" horiz-adv-x="752" 
d="M480 645q54 0 103.5 -10.5t86.5 -35t55.5 -64.5t10.5 -98l-23 -165q-8 -58 -38.5 -98t-74 -64.5t-96 -35.5t-106.5 -11l-9 -63h-113l10 63q-54 0 -104 11t-86.5 35.5t-55.5 64.5t-11 98l23 165q8 58 38.5 98t74 64.5t96.5 35t107 10.5l8 63h113zM353 541
q-32 0 -63.5 -4.5t-57 -16t-43.5 -31.5t-22 -52l-23 -166q-5 -32 7 -52t34.5 -31.5t52.5 -15.5t62 -4zM412 168q33 0 64.5 4t57 15.5t42.5 31.5t22 52l23 166q4 32 -7.5 52t-34 31.5t-52.5 16t-63 4.5z" />
    <glyph glyph-name="uni0425" unicode="&#x425;" horiz-adv-x="622" 
d="M440 0l-135 263l-207 -263h-142l291 353l-190 355h140l134 -266l208 266h140l-291 -355l193 -353h-141z" />
    <glyph glyph-name="uni0426" unicode="&#x426;" horiz-adv-x="696" 
d="M493 -131l18 131h-488l100 708h115l-84 -596h298l84 596h116l-84 -596h74l-33 -243h-116z" />
    <glyph glyph-name="uni0427" unicode="&#x427;" horiz-adv-x="616" 
d="M429 273q-32 -25 -74 -42t-90 -17q-50 0 -91.5 14t-70.5 42.5t-42 71.5t-5 101l37 265h116l-37 -265q-9 -60 22.5 -88t91.5 -28q54 0 92.5 15.5t64.5 37.5l47 328h116l-100 -708h-116z" />
    <glyph glyph-name="uni0428" unicode="&#x428;" horiz-adv-x="917" 
d="M239 708l-84 -596h219l84 596h115l-84 -596h219l84 596h115l-100 -708h-783l100 708h115z" />
    <glyph glyph-name="uni0429" unicode="&#x429;" horiz-adv-x="951" 
d="M747 -131l18 131h-742l100 708h115l-84 -596h219l84 596h115l-84 -596h219l84 596h115l-84 -596h75l-34 -243h-116z" />
    <glyph glyph-name="uni042A" unicode="&#x42a;" horiz-adv-x="705" 
d="M448 449q126 0 181 -55t39 -170q-8 -56 -32 -97.5t-60.5 -70t-84 -42.5t-101.5 -14h-275l86 603h-146l14 105h262l-37 -259h154zM407 108q61 0 99.5 27t47.5 91q8 60 -19 92t-99 32h-156l-34 -242h161z" />
    <glyph glyph-name="uni042B" unicode="&#x42b;" horiz-adv-x="866" 
d="M357 449q127 0 181.5 -55t38.5 -170q-8 -56 -32 -97.5t-60.5 -70t-84 -42.5t-101.5 -14h-275l100 708h116l-37 -259h154zM856 708l-100 -708h-115l100 708h115zM316 108q61 0 99.5 27t47.5 91q8 60 -19 92t-99 32h-156l-34 -242h161z" />
    <glyph glyph-name="uni042C" unicode="&#x42c;" horiz-adv-x="614" 
d="M357 449q127 0 181.5 -55t38.5 -170q-8 -56 -32 -97.5t-60.5 -70t-84 -42.5t-101.5 -14h-275l100 708h116l-37 -259h154zM316 108q61 0 99.5 27t47.5 91q8 60 -19 92t-99 32h-156l-34 -242h161z" />
    <glyph glyph-name="uni042D" unicode="&#x42d;" horiz-adv-x="593" 
d="M329 718q51 0 98.5 -15t82 -44t52 -72t9.5 -100l-37 -267q-8 -57 -37.5 -99.5t-72 -71t-93 -43t-101.5 -14.5q-36 0 -72 9t-67 27.5t-55.5 46.5t-37.5 66l108 48q7 -22 21.5 -38t33 -26.5t41 -15.5t45.5 -5q29 0 57.5 7.5t52.5 22t40.5 36t20.5 50.5l11 82h-262l15 105
h262l11 80q4 29 -6 51.5t-29.5 37.5t-46.5 23t-56 8q-47 0 -93 -21t-74 -63l-92 45q24 40 55.5 68.5t67.5 46.5t74 26.5t74 8.5z" />
    <glyph glyph-name="uni042E" unicode="&#x42e;" horiz-adv-x="936" 
d="M660 718q54 0 103.5 -14.5t86 -43t55 -71.5t10.5 -100l-38 -269q-8 -57 -38.5 -100.5t-75 -72t-98 -43t-107.5 -14.5t-103.5 14.5t-85.5 43t-55 72t-11 100.5l12 85h-135l-43 -305h-115l100 708h115l-41 -296h135l10 77q8 57 38.5 100t75 71.5t98 43t107.5 14.5zM644 606
q-32 0 -64 -7.5t-58 -22t-44 -37t-22 -53.5l-37 -265q-4 -30 7.5 -52t33.5 -37t51.5 -22.5t62.5 -7.5q32 0 64 7.5t58 22t44 37t22 52.5l38 265q4 31 -7.5 54t-34 37.5t-52.5 21.5t-62 7z" />
    <glyph glyph-name="uni042F" unicode="&#x42f;" horiz-adv-x="629" 
d="M364 272l-264 -272h-149l278 281q-39 3 -72.5 17.5t-56.5 40t-33.5 63t-2.5 87.5q9 56 33.5 97.5t61.5 68.5t84.5 40t101.5 13h274l-100 -708h-115l38 272h-78zM328 596q-60 2 -100 -24t-49 -88q-8 -59 23 -86t94 -27h160l32 225h-160z" />
    <glyph glyph-name="uni0430" unicode="&#x430;" 
d="M314 45q-29 -29 -63 -42t-68 -13q-35 0 -66 12t-54 35t-34 56t-5 74l26 180q7 51 30 85.5t56 56t73.5 30.5t82.5 9q48 0 97.5 -13t88.5 -33l-67 -482h-89zM361 417q-22 12 -54.5 15.5t-63.5 -4t-55 -27t-29 -53.5l-26 -181q-3 -20 2.5 -33.5t16.5 -22.5t26.5 -13.5
t33.5 -4.5q29 -1 58 8t49 24z" />
    <glyph glyph-name="uni0431" unicode="&#x431;" horiz-adv-x="511" 
d="M487 653q-35 -22 -78.5 -33t-88.5 -16q-21 -2 -41.5 -5t-38 -11t-29.5 -23t-15 -41l-11 -73q23 15 54.5 26t69.5 11q40 0 72 -10.5t53 -32.5t30 -54.5t3 -76.5l-21 -148q-6 -44 -28 -77t-54 -55t-70.5 -33t-76.5 -11t-73.5 11t-61.5 33t-39 55t-7 77l51 366q6 46 28 76.5
t52 49t65.5 27.5t70.5 12q51 5 89.5 14.5t70.5 26.5zM277 391q-56 0 -104 -32l-27 -191q-3 -19 3.5 -33.5t18.5 -24t28.5 -14t34.5 -4.5q17 0 35 4.5t33 14t25 24t13 33.5l20 147q6 42 -18.5 59t-61.5 17z" />
    <glyph glyph-name="uni0432" unicode="&#x432;" horiz-adv-x="511" 
d="M305 528q39 0 71 -9t53.5 -26.5t32 -43t5.5 -58.5q-5 -38 -24.5 -68t-46.5 -48q38 -21 50 -54.5t6 -75.5q-14 -85 -75 -120t-163 -35q-56 0 -103 12.5t-94 34.5l63 444q53 22 109 34.5t116 12.5zM289 441q-41 0 -63 -4.5t-44 -13.5l-18 -119h108q35 0 59 19t29 54
t-17 49.5t-54 14.5zM135 95q19 -9 41 -13.5t63 -4.5q42 0 71 15.5t36 62.5q6 41 -17.5 57t-67.5 16h-107z" />
    <glyph glyph-name="uni0433" unicode="&#x433;" horiz-adv-x="440" 
d="M253 528q34 0 64 -9t52 -27t32.5 -45.5t5.5 -64.5q-6 -40 -23 -67t-42.5 -45t-57 -29t-64.5 -19q-21 -5 -39 -10.5t-32 -13t-23 -19t-12 -28.5q-5 -36 15.5 -51t58.5 -15q80 0 143 54l52 -65q-46 -46 -99 -65t-114 -19q-37 0 -69 9.5t-54.5 29t-33.5 48.5t-6 68
q6 38 21.5 64t39 44t55 30t68.5 22l34 8.5t33 12t25.5 19.5t13.5 31q4 28 -15 40t-51 12q-59 0 -108 -36l-56 64q42 38 91 55t95 17z" />
    <glyph glyph-name="uni0434" unicode="&#x434;" horiz-adv-x="502" 
d="M306 718q38 0 72.5 -11t59.5 -34t37 -58.5t5 -84.5l-51 -360q-6 -44 -27.5 -78t-52.5 -56.5t-69 -34t-76 -11.5t-73.5 10.5t-61 32.5t-38 55t-6.5 77l22 155q6 44 27 76.5t51.5 54t67 31.5t72.5 10q27 0 54 -4.5t47 -17.5l10 69q6 43 -22.5 64t-71.5 21q-29 0 -58.5 -7
t-54.5 -23l-49 68q45 32 88.5 44t97.5 12zM262 401q-18 -1 -36 -6t-33 -15t-25.5 -25t-13.5 -34l-22 -156q-3 -20 4 -34t19.5 -23t29 -13t33.5 -4t34.5 4.5t32 14t25 24t13.5 33.5l29 215q-42 17 -90 19z" />
    <glyph glyph-name="uni0435" unicode="&#x435;" horiz-adv-x="479" 
d="M19 0zM401 91q-40 -50 -91.5 -75.5t-102.5 -25.5q-38 0 -73.5 11.5t-61.5 34.5t-39.5 57t-7.5 79l24 172q6 46 28.5 80.5t54.5 57.5t70 34.5t77 11.5t73.5 -11.5t60 -34t37.5 -56.5t6 -79q-5 -37 -23.5 -64.5t-46 -45.5t-63.5 -26.5t-76 -8.5q-57 0 -108 20l-6 -50
q-3 -20 2.5 -34.5t17.5 -25t28.5 -16t34.5 -5.5q29 -1 61.5 12t53.5 40zM151 304q17 -5 44 -11t59 -6q44 0 68 20t26 50q2 26 -19 46.5t-64 20.5q-19 0 -37 -5.5t-33 -16.5t-25 -26.5t-13 -35.5z" />
    <glyph glyph-name="uni0436" unicode="&#x436;" horiz-adv-x="750" 
d="M439 214l-26 -23l-28 -191h-107l27 191l-20 23l-188 -214h-129l252 280l-183 238h132l153 -208l29 208h107l-29 -208l211 208h132l-250 -238l173 -280h-129z" />
    <glyph glyph-name="uni0437" unicode="&#x437;" horiz-adv-x="446" 
d="M249 528q75 0 118 -38t35 -103q-5 -38 -27 -66.5t-51 -42.5q38 -17 54.5 -53.5t8.5 -82.5q-7 -41 -28 -69.5t-50.5 -47t-65.5 -27t-73 -8.5q-60 0 -106 21.5t-74 75.5l83 47q30 -53 101 -53q42 0 72 14.5t37 57.5q6 44 -17 62t-68 18h-69l10 74h68q35 0 59 17.5t29 52.5
q5 32 -15.5 46t-56.5 14q-35 0 -60 -10t-48 -33l-61 46q38 45 89 66.5t106 21.5z" />
    <glyph glyph-name="uni0438" unicode="&#x438;" horiz-adv-x="519" 
d="M423 33q-50 -20 -103 -31.5t-102 -11.5q-42 0 -78 10t-61.5 32t-37.5 56t-5 82l49 348h110l-49 -350q-2 -21 5.5 -37t21.5 -26t33 -15t39 -5t41 4.5t38 13.5l58 415h109z" />
    <glyph glyph-name="uni0439" unicode="&#x439;" horiz-adv-x="520" 
d="M454 714q-8 -36 -25 -62.5t-40 -44t-50 -26.5t-53 -9t-49.5 9t-40.5 27t-26.5 44.5t-6.5 61.5h95q1 -23 14 -34.5t30 -11.5t33.5 11.5t24.5 34.5h94zM423 29q-66 -23 -115.5 -31t-88.5 -8t-75 10.5t-62 33t-39 56t-7 80.5l49 348h110l-49 -349q-3 -19 3 -34t18 -25
t28 -15.5t34 -5.5q54 0 95 14l58 415h110z" />
    <glyph glyph-name="uni043A" unicode="&#x43a;" horiz-adv-x="506" 
d="M192 206l-42 -37l-24 -169h-110l73 518h110l-30 -214l227 214h133l-252 -241l176 -277h-131z" />
    <glyph glyph-name="uni043B" unicode="&#x43b;" horiz-adv-x="543" 
d="M256 417l-37 -173q-13 -61 -28 -107.5t-41 -77.5t-67.5 -46t-107.5 -13l14 102q37 -1 58 6t34 29t22 61t22 101l47 219h341l-72 -518h-111l59 417h-133z" />
    <glyph glyph-name="uni043C" unicode="&#x43c;" horiz-adv-x="646" 
d="M487 344l-44 -72l-117 -201h-70l-61 201l-25 72l-12 -113l-32 -231h-110l73 518h126l95 -311l181 311h126l-73 -518h-110l33 232z" />
    <glyph glyph-name="uni043D" unicode="&#x43d;" horiz-adv-x="527" 
d="M157 220l-31 -220h-110l73 518h110l-27 -197h189l28 197h109l-73 -518h-109l31 220h-190z" />
    <glyph glyph-name="uni043E" unicode="&#x43e;" horiz-adv-x="496" 
d="M50 349q6 45 28.5 78t54.5 55.5t70.5 34t76.5 11.5q37 0 72 -11.5t60.5 -34t38.5 -55.5t7 -78l-25 -180q-6 -45 -28.5 -78.5t-54.5 -56t-70 -33.5t-75 -11q-38 0 -73.5 11t-61 33.5t-38.5 56t-7 78.5zM265 421q-17 0 -34.5 -4.5t-32.5 -13.5t-25 -22.5t-13 -31.5
l-24 -175q-3 -18 3.5 -32.5t19 -24.5t29 -15t33.5 -5q16 0 33 5t32 15t25 24.5t13 32.5l24 175q3 18 -4 31.5t-19 22.5t-28 13.5t-32 4.5z" />
    <glyph glyph-name="uni043F" unicode="&#x43f;" horiz-adv-x="518" 
d="M83 486q43 20 93 31t98 11q43 -1 81 -11.5t65.5 -32.5t41 -56.5t6.5 -83.5l-48 -344h-109l47 339q2 22 -6 37.5t-22 25.5t-32.5 14.5t-38.5 4.5q-21 0 -41.5 -4.5t-36.5 -13.5l-56 -403h-110z" />
    <glyph glyph-name="uni0440" unicode="&#x440;" horiz-adv-x="510" 
d="M83 487q45 19 98.5 30t104.5 11q42 0 78.5 -9.5t63 -30.5t39 -55.5t5.5 -84.5l-26 -184q-6 -44 -28.5 -77t-55 -54.5t-71 -32t-76.5 -10.5q-50 0 -90 18l-24 -177h-110zM138 99q17 -6 37.5 -9.5t41.5 -2.5q41 0 75 17.5t44 59.5l27 186q3 23 -3.5 39t-20.5 26t-33.5 14
t-40.5 4q-43 0 -82 -17z" />
    <glyph glyph-name="uni0441" unicode="&#x441;" horiz-adv-x="475" 
d="M51 350q6 45 28.5 78.5t54.5 55.5t70 33t76 11q30 0 60.5 -7.5t55.5 -23.5t43 -42t23 -63l-105 -38q-5 35 -32 50.5t-59 16.5q-18 0 -36 -4.5t-32.5 -13.5t-24.5 -22t-12 -30l-26 -180q-2 -17 4 -31t18 -23.5t28.5 -14.5t35.5 -5q32 1 63.5 19t45.5 52l95 -42
q-16 -37 -41 -63t-55 -42t-63 -23.5t-63 -7.5q-38 0 -72.5 11.5t-60 34.5t-38 57t-6.5 79z" />
    <glyph glyph-name="uni0442" unicode="&#x442;" horiz-adv-x="774" 
d="M80 473q38 24 88 39.5t98 15.5q46 -1 84.5 -18.5t55.5 -54.5q28 34 68.5 53.5t89.5 19.5q35 0 66.5 -12.5t54.5 -35.5t34 -56.5t5 -76.5l-48 -347h-109l48 343q7 35 -14.5 56.5t-53.5 21.5q-16 0 -33 -6t-31.5 -16t-25 -23.5t-12.5 -28.5l-48 -347h-108l49 352
q2 17 -3.5 30t-16.5 21.5t-26.5 13t-32.5 4.5q-20 1 -41.5 -4.5t-39.5 -16.5l-55 -400h-108z" />
    <glyph glyph-name="uni0443" unicode="&#x443;" horiz-adv-x="527" 
d="M0 0zM423 -14q-7 -50 -30 -86t-56 -59t-72 -34t-79 -11q-30 0 -58 6.5t-53 18.5t-44 30t-31 41l75 63q17 -29 52 -44.5t73 -15.5q44 0 79 27.5t43 87.5q-52 -20 -104 -20q-39 1 -75 13t-62 35.5t-38.5 56.5t-6.5 76l48 347h110l-49 -345q-2 -20 6 -35.5t22 -26t32.5 -16
t38.5 -5.5q24 0 48 6t41 17l56 405h109z" />
    <glyph glyph-name="uni0444" unicode="&#x444;" horiz-adv-x="708" 
d="M438 515q11 5 34 9t42 4q35 0 66 -11.5t53 -33t32 -54t4 -74.5l-27 -192q-6 -42 -25 -74.5t-47 -54t-62.5 -33t-69.5 -11.5q-19 0 -41 4t-31 9l-26 -186h-109l27 186q-11 -5 -34 -9t-42 -4q-35 0 -66 11.5t-53 33t-32.5 54t-4.5 74.5l27 192q6 42 25.5 74.5t47.5 54
t62.5 33t69.5 11.5q19 0 41 -4t31 -9l27 193h108zM269 431q-17 0 -34.5 -5t-32.5 -14.5t-26 -24.5t-14 -35l-26 -186q-3 -20 3.5 -35t19 -25t28.5 -14.5t33 -4.5q12 0 26 2.5t25 7.5l46 324q-10 5 -23.5 7.5t-24.5 2.5zM475 431q-11 0 -25.5 -2.5t-25.5 -7.5l-45 -324
q9 -5 23 -7.5t25 -2.5q17 0 34.5 4.5t32.5 14.5t25.5 25t13.5 35l26 186q3 20 -3 35t-18.5 24.5t-29 14.5t-33.5 5z" />
    <glyph glyph-name="uni0445" unicode="&#x445;" horiz-adv-x="498" 
d="M444 0h-127l-85 173l-135 -173h-128l212 259l-140 259h128l87 -174l133 174h126l-205 -259z" />
    <glyph glyph-name="uni0446" unicode="&#x446;" horiz-adv-x="549" 
d="M444 -125h-90l23 144l-4 -1q-32 -13 -74.5 -20.5t-79.5 -7.5q-39 0 -75 10.5t-62 33t-39 56t-7 80.5l49 348h110l-49 -349q-3 -19 3 -34t17.5 -25t27 -15.5t33.5 -5.5q26 0 48 2t43 9l59 418h110l-56 -402h67l-20 -121z" />
    <glyph glyph-name="uni0447" unicode="&#x447;" horiz-adv-x="492" 
d="M306 178q-25 -16 -54 -23.5t-58 -7.5q-34 0 -65.5 10t-54.5 31t-34 53.5t-5 77.5l28 199h110l-26 -187q-6 -44 15.5 -62.5t59.5 -19.5q25 0 50 5.5t48 16.5l34 247h110l-73 -518h-110z" />
    <glyph glyph-name="uni0448" unicode="&#x448;" horiz-adv-x="784" 
d="M689 39q-37 -21 -87 -35t-98 -14q-43 0 -82 14t-64 44q-32 -29 -73 -43.5t-80 -14.5q-40 0 -73.5 11t-57 33t-34 55.5t-4.5 77.5l49 351h110l-49 -351q-6 -43 16 -59.5t58 -15.5q14 0 30 4.5t30.5 12t24.5 18.5t12 26l51 365h108l-51 -365q-2 -17 4 -29t18 -19.5
t28.5 -11.5t33.5 -4q23 0 44.5 5t35.5 14l57 410h110z" />
    <glyph glyph-name="uni0449" unicode="&#x449;" horiz-adv-x="818" 
d="M712 -124h-89l23 142l-7 -2q-32 -11 -67.5 -18.5t-67.5 -7.5q-43 0 -82 14t-64 44q-32 -29 -73 -43.5t-80 -14.5q-40 0 -73.5 11t-57 33t-34 55.5t-4.5 77.5l49 351h110l-49 -351q-7 -43 15.5 -59.5t58.5 -15.5q14 0 30 4.5t30.5 12t24.5 18.5t12 26l51 365h108l-51 -365
q-2 -17 4 -29t18 -19.5t28.5 -11.5t33.5 -4q23 0 44 3.5t35 10.5l58 415h110l-56 -401h68l-20 -114z" />
    <glyph glyph-name="uni044A" unicode="&#x44a;" horiz-adv-x="548" 
d="M227 323q25 11 60 20t66 9q90 0 128.5 -50t26.5 -133q-6 -43 -27 -76.5t-52.5 -56t-70.5 -34.5t-81 -12q-40 0 -75.5 11t-61 33t-38.5 55t-7 77l37 263h-104l12 89h214zM321 266q-26 0 -55 -8t-51 -17l-11 -77q-3 -19 4 -33.5t19.5 -24t29.5 -14t34 -4.5q19 0 37.5 5.5
t34 16t26 26.5t13.5 37q8 49 -15 71t-66 22z" />
    <glyph glyph-name="uni044B" unicode="&#x44b;" horiz-adv-x="715" 
d="M168 323q25 11 60 20t66 9q90 0 128.5 -50t26.5 -133q-6 -43 -27 -76.5t-52.5 -56t-70.5 -34.5t-81 -12q-40 0 -75.5 11t-61 33t-38.5 55t-7 77l49 352h110zM686 518l-73 -518h-110l73 518h110zM262 266q-26 0 -55 -8t-51 -17l-11 -77q-3 -19 4 -33.5t19.5 -24t29.5 -14
t34 -4.5q19 0 37.5 5.5t34 16t26 26.5t13.5 37q8 49 -15 71t-66 22z" />
    <glyph glyph-name="uni044C" unicode="&#x44c;" horiz-adv-x="489" 
d="M168 323q26 11 61 20t66 9q90 0 128 -50t27 -133q-6 -43 -27.5 -76.5t-53 -56t-70.5 -34.5t-81 -12q-40 0 -75.5 11t-61 33t-38 55t-6.5 77l48 352h110zM263 266q-26 0 -55.5 -8t-50.5 -17l-12 -77q-3 -19 4 -33.5t19.5 -24t29.5 -14t35 -4.5q19 0 37.5 5.5t34 16
t26 26.5t13.5 37q7 49 -15.5 71t-65.5 22z" />
    <glyph glyph-name="uni044D" unicode="&#x44d;" horiz-adv-x="470" 
d="M252 527q38 0 73 -11t61 -33.5t39 -55.5t7 -78l-25 -179q-6 -45 -29 -78.5t-55 -56t-70.5 -33.5t-76.5 -11q-29 0 -57.5 7.5t-53 23.5t-42.5 41.5t-25 61.5l101 35q5 -35 30.5 -54t60.5 -19q18 0 36 4.5t32.5 14t24.5 23.5t13 33l8 55h-163l12 81h162l7 50q3 19 -3 33.5
t-18 24t-28.5 14.5t-34.5 5q-32 0 -59.5 -12.5t-46.5 -43.5l-85 42q18 31 42 53t51.5 36t56 20.5t55.5 6.5z" />
    <glyph glyph-name="uni044E" unicode="&#x44e;" horiz-adv-x="730" 
d="M513 528q38 0 73 -11t60.5 -33.5t38.5 -56t7 -78.5l-26 -183q-6 -44 -28 -77t-54 -55t-70.5 -33t-76.5 -11t-73.5 11t-61.5 33t-39 55t-7 77l8 57h-108l-32 -223h-110l73 518h110l-28 -200h108l5 36q6 44 29 76.5t55 54t70.5 32.5t76.5 11zM498 425q-17 0 -35 -4.5
t-33 -13.5t-25.5 -23.5t-13.5 -33.5l-25 -182q-3 -19 3.5 -33.5t19 -24t29 -14t33.5 -4.5t34.5 4.5t32.5 14t25.5 24t13.5 33.5l25 182q3 19 -3.5 33.5t-18.5 23.5t-28.5 13.5t-33.5 4.5z" />
    <glyph glyph-name="uni044F" unicode="&#x44f;" horiz-adv-x="506" 
d="M271 202l-179 -202h-128l192 208q-27 4 -49 15.5t-37 30.5t-21.5 45t-1.5 60q6 43 24.5 73.5t47 49.5t65 27.5t78.5 8.5h215l-73 -518h-110l29 202h-52zM250 431q-85 0 -97 -74q-6 -42 15 -61t68 -19h98l21 154h-105z" />
    <glyph glyph-name="uni0451" unicode="&#x451;" horiz-adv-x="479" 
d="M116 634q4 29 26 49t51 20t46 -20t13 -49t-26 -48.5t-51 -19.5t-46 19.5t-13 48.5zM317 634q4 29 26 49t51 20t46.5 -20t13.5 -49t-26.5 -48.5t-51.5 -19.5t-46 19.5t-13 48.5zM401 91q-40 -50 -91.5 -75.5t-102.5 -25.5q-38 0 -73.5 11.5t-61.5 34.5t-39.5 57t-7.5 79
l24 172q6 46 28.5 80.5t54.5 57.5t70 34.5t77 11.5t73.5 -11.5t60 -34t37.5 -56.5t6 -79q-5 -37 -23.5 -64.5t-46 -45.5t-63.5 -26.5t-76 -8.5q-57 0 -108 20l-6 -50q-3 -20 2.5 -34.5t17.5 -25t28.5 -16t34.5 -5.5q29 -1 61.5 12t53.5 40zM151 304q17 -5 44 -11t59 -6
q44 0 68 20t26 50q2 26 -19 46.5t-64 20.5q-19 0 -37 -5.5t-33 -16.5t-25 -26.5t-13 -35.5z" />
    <glyph glyph-name="Wgrave" unicode="&#x1e80;" horiz-adv-x="925" 
d="M396 907h149l70 -151h-120zM168 0l-106 708h120l63 -443q-1 0 -0.5 -20.5t1.5 -45.5q1 -29 1 -66h9l41 137l159 334h97l63 -336q-1 0 1 -21t4 -46l6 -66h9l35 132l186 441h119l-304 -708h-123l-64 346l-1 89h-7q-9 -25 -15 -44q-5 -17 -10 -30.5t-4 -13.5l-157 -347h-123
z" />
    <glyph glyph-name="wgrave" unicode="&#x1e81;" horiz-adv-x="724" 
d="M278 727h139l70 -151h-110zM456 506l25 -385h2l50 163l100 234h111l-227 -518h-111l-21 374h-2l-146 -374h-115l-84 518h111l34 -236l10 -163h2l157 387h104z" />
    <glyph glyph-name="Wacute" unicode="&#x1e82;" horiz-adv-x="925" 
d="M565 756h-114l114 151h141zM168 0l-106 708h120l63 -443q-1 0 -0.5 -20.5t1.5 -45.5q1 -29 1 -66h9l41 137l159 334h97l63 -336q-1 0 1 -21t4 -46l6 -66h9l35 132l186 441h119l-304 -708h-123l-64 346l-1 89h-7q-9 -25 -15 -44q-5 -17 -10 -30.5t-4 -13.5l-157 -347h-123
z" />
    <glyph glyph-name="wacute" unicode="&#x1e83;" horiz-adv-x="724" 
d="M447 576h-114l114 151h131zM456 506l25 -385h2l50 163l100 234h111l-227 -518h-111l-21 374h-2l-146 -374h-115l-84 518h111l34 -236l10 -163h2l157 387h104z" />
    <glyph glyph-name="Wdieresis" unicode="&#x1e84;" horiz-adv-x="925" 
d="M366 830q4 29 26 49t51 20t46 -20t13 -49t-26 -48.5t-51 -19.5t-46 19.5t-13 48.5zM567 830q4 29 26 49t51 20t46.5 -20t13.5 -49t-26.5 -48.5t-51.5 -19.5t-46 19.5t-13 48.5zM168 0l-106 708h120l63 -443q-1 0 -0.5 -20.5t1.5 -45.5q1 -29 1 -66h9l41 137l159 334h97
l63 -336q-1 0 1 -21t4 -46l6 -66h9l35 132l186 441h119l-304 -708h-123l-64 346l-1 89h-7q-9 -25 -15 -44q-5 -17 -10 -30.5t-4 -13.5l-157 -347h-123z" />
    <glyph glyph-name="wdieresis" unicode="&#x1e85;" horiz-adv-x="724" 
d="M248 650q4 29 26 49t51 20t46 -20t13 -49t-26 -48.5t-51 -19.5t-46 19.5t-13 48.5zM449 650q4 29 26 49t51 20t46.5 -20t13.5 -49t-26.5 -48.5t-51.5 -19.5t-46 19.5t-13 48.5zM456 506l25 -385h2l50 163l100 234h111l-227 -518h-111l-21 374h-2l-146 -374h-115l-84 518
h111l34 -236l10 -163h2l157 387h104z" />
    <glyph glyph-name="Ygrave" unicode="&#x1ef2;" horiz-adv-x="599" 
d="M234 907h149l70 -151h-120zM199 0l38 275l-185 433h133l126 -322l215 322h135l-308 -433l-38 -275h-116z" />
    <glyph glyph-name="ygrave" unicode="&#x1ef3;" horiz-adv-x="527" 
d="M168 717h137l70 -151h-108zM423 -14q-7 -50 -30 -86t-56 -59t-72 -34t-79 -11q-30 0 -58 6.5t-53 18.5t-44 30t-31 41l75 63q17 -29 52 -44.5t73 -15.5q44 0 79 27.5t43 87.5q-52 -20 -104 -20q-39 1 -75 13t-62 35.5t-38.5 56.5t-6.5 76l48 347h110l-49 -345
q-2 -20 6 -35.5t22 -26t32.5 -16t38.5 -5.5q24 0 48 6t41 17l56 405h109z" />
    <glyph glyph-name="endash" unicode="&#x2013;" horiz-adv-x="577" 
d="M514 239h-471l16 111h471z" />
    <glyph glyph-name="emdash" unicode="&#x2014;" horiz-adv-x="960" 
d="M896 239h-853l16 111h853z" />
    <glyph glyph-name="quoteleft" unicode="&#x2018;" horiz-adv-x="262" 
d="M177 707h115l-112 -262h-126z" />
    <glyph glyph-name="quoteright" unicode="&#x2019;" horiz-adv-x="261" 
d="M169 446h-113l110 262h128z" />
    <glyph glyph-name="quotesinglbase" unicode="&#x201a;" horiz-adv-x="251" 
d="M54 -122h-110l106 249h130z" />
    <glyph glyph-name="quotedblleft" unicode="&#x201c;" horiz-adv-x="432" 
d="M177 705h113l-109 -262h-128zM349 705h112l-109 -262h-128z" />
    <glyph glyph-name="quotedblright" unicode="&#x201d;" horiz-adv-x="428" 
d="M169 445h-113l110 262h128zM337 445h-113l109 262h128z" />
    <glyph glyph-name="quotedblbase" unicode="&#x201e;" horiz-adv-x="427" 
d="M54 -122h-112l108 245h129zM232 -122h-113l109 245h128z" />
    <glyph glyph-name="dagger" unicode="&#x2020;" horiz-adv-x="503" 
d="M55 514h170l27 195h112l-27 -195h170l-15 -107h-170l-73 -519h-112l73 519h-170z" />
    <glyph glyph-name="daggerdbl" unicode="&#x2021;" horiz-adv-x="550" 
d="M33 187h170l31 220h-170l15 106h170l27 195h112l-27 -195h170l-15 -106h-170l-31 -220h170l-15 -106h-170l-27 -193h-112l27 193h-170z" />
    <glyph glyph-name="bullet" unicode="&#x2022;" horiz-adv-x="407" 
d="M61 343q4 31 19.5 58t38 47t51.5 31.5t60 11.5t56 -11.5t42 -31.5t24.5 -47t3.5 -58q-5 -31 -20 -58t-37.5 -47.5t-51 -32t-59.5 -11.5t-56.5 11.5t-42.5 32t-25 47.5t-3 58z" />
    <glyph glyph-name="ellipsis" unicode="&#x2026;" horiz-adv-x="595" 
d="M8 67q5 31 28.5 52t54.5 21t49.5 -21t13.5 -52t-28.5 -52t-54.5 -21t-49.5 21t-13.5 52zM193 67q5 31 28 52t54 21t49.5 -21t13.5 -52t-28.5 -52t-54.5 -21t-49 21t-13 52zM377 67q5 31 28 52t54 21q32 0 50 -21t13 -52t-28 -52t-55 -21q-31 0 -49 21t-13 52z" />
    <glyph glyph-name="perthousand" unicode="&#x2030;" horiz-adv-x="1085" 
d="M623 734l83 -59l-595 -748l-82 59zM354 523q-6 -43 -22 -77t-39 -57.5t-52 -36t-61 -12.5q-70 0 -102 47t-19 138q6 42 22 75t39 56.5t51.5 36t60.5 12.5q70 0 102 -47t20 -135zM265 523q7 51 -6 74t-42 23q-28 0 -45.5 -22.5t-25.5 -72.5q-8 -53 4 -75.5t41 -22.5
q30 0 48.5 23t25.5 73zM710 179q-6 -43 -22 -77t-39 -57.5t-52 -36t-61 -12.5q-70 0 -102 47t-19 138q6 42 21.5 75t38.5 56.5t51.5 36t60.5 12.5q70 0 102.5 -47t20.5 -135zM1042 179q-6 -43 -22 -77t-39 -57.5t-52 -36t-61 -12.5q-70 0 -102 47t-19 138q6 42 21.5 75
t38.5 56.5t51.5 36t60.5 12.5q70 0 102.5 -47t20.5 -135zM621 180q7 51 -6.5 74t-42.5 23q-28 0 -45.5 -22.5t-24.5 -72.5q-8 -53 3.5 -75.5t40.5 -22.5q30 0 49 23t26 73zM953 180q7 51 -6.5 74t-42.5 23q-28 0 -45.5 -22.5t-24.5 -72.5q-8 -53 3.5 -75.5t40.5 -22.5
q30 0 49 23t26 73z" />
    <glyph glyph-name="guilsinglleft" unicode="&#x2039;" horiz-adv-x="307" 
d="M292 454l-135 -163l89 -164l-103 -56l-117 220l179 220z" />
    <glyph glyph-name="guilsinglright" unicode="&#x203a;" horiz-adv-x="306" 
d="M10 127l135 164l-87 163l103 57l116 -220l-178 -220z" />
    <glyph glyph-name="fraction" unicode="&#x2044;" horiz-adv-x="530" 
d="M45 -41l-83 56l534 712l83 -55z" />
    <glyph glyph-name="Euro" unicode="&#x20ac;" horiz-adv-x="609" 
d="M119 495q7 55 34 97t65 70t84.5 42t92.5 14q35 0 68.5 -10t62.5 -29.5t51.5 -49.5t35.5 -69l-108 -51q-17 49 -52.5 72t-73.5 23q-25 0 -50 -7t-46 -20.5t-35.5 -34t-17.5 -47.5l-5 -38h246l-28 -81h-227l-6 -44h241l-28 -87h-228l-5 -34q-4 -27 4.5 -47.5t25 -34
t39.5 -20.5t48 -7q40 0 81.5 23.5t72.5 71.5l94 -49q-24 -40 -55.5 -69.5t-66 -49t-71 -29.5t-71.5 -10q-46 0 -88 13.5t-72.5 41.5t-45 69t-6.5 97l5 34h-67l30 87h49l6 44h-59l28 81h43z" />
    <glyph glyph-name="uni2113" unicode="&#x2113;" horiz-adv-x="422" 
d="M368 68q-35 -36 -73 -55.5t-80 -19.5q-38 0 -64 11.5t-42.5 32t-24.5 48t-9 60.5q-11 -8 -20.5 -14t-16.5 -11l-32 84q20 16 41 34t42 37l33 234q10 70 30 116t46 73.5t55 38.5t56 11q33 0 55.5 -13t35.5 -35.5t16.5 -53.5t-1.5 -67q-13 -91 -73 -178t-151 -169l-4 -26
q-6 -47 4.5 -72.5t29 -33t41.5 1.5t42 31zM209 378q46 49 72.5 94.5t34.5 98.5q3 25 0 45.5t-22 20.5q-8 0 -17.5 -6.5t-19 -22t-17.5 -41t-14 -64.5z" />
    <glyph glyph-name="trademark" unicode="&#x2122;" horiz-adv-x="836" 
d="M172 591h-103l14 103h313l-14 -103h-104l-43 -301h-106zM440 694h95l73 -203q25 42 45 73t36 55t28.5 42t21.5 33h92l-57 -404h-106l33 181l-85 -125h-53l-54 128l-20 -184h-106z" />
    <glyph glyph-name="Omega" unicode="&#x2126;" horiz-adv-x="783" 
d="M126 111q-37 50 -57.5 114.5t-8.5 150.5q12 85 50.5 148t92.5 104.5t118.5 61.5t128.5 19.5t122.5 -21.5t101 -62.5t63 -103t9.5 -142.5q-6 -41 -20.5 -79t-34 -72t-42.5 -64t-46 -54h106l-15 -111h-307l11 83q41 21 80 51.5t70.5 68.5t53.5 82.5t29 94.5
q10 72 -16.5 121t-73.5 75t-105.5 27t-112.5 -23.5t-94.5 -75.5t-51.5 -130q-6 -46 2.5 -88t29 -79t50 -68.5t64.5 -56.5l-11 -82h-310l15 111h109z" />
    <glyph glyph-name="estimated" unicode="&#x212e;" horiz-adv-x="848" 
d="M237 153q38 -37 89 -61t107 -24q31 0 66 5.5t69 18t64.5 33t51.5 51.5l99 -1q-30 -50 -70.5 -85t-87 -57t-96.5 -32t-97 -10q-80 0 -151 27.5t-124 75t-83.5 111.5t-30.5 138q0 73 30.5 137.5t83.5 112.5t124 76t151 28q81 0 152 -28t124 -76t83.5 -112.5t30.5 -137.5
v-39h-586v-150zM630 534q-39 37 -89.5 60t-107.5 23q-54 0 -106.5 -25t-90.5 -61v-150h394v153z" />
    <glyph glyph-name="partialdiff" unicode="&#x2202;" 
d="M139 678q31 18 68 30.5t80 12.5q45 0 86 -19.5t69.5 -61.5t40.5 -107.5t-1 -156.5q-12 -83 -38 -153.5t-65 -121.5t-90 -79.5t-111 -28.5q-47 0 -78.5 18.5t-50 49.5t-25 71.5t-1.5 83.5q6 54 28 98t53.5 76t70 51t76 22.5t71.5 -10t58 -45.5q11 62 -2 109.5t-42.5 74
t-72.5 29t-91 -26.5zM195 102q24 -5 49.5 10.5t48.5 44.5t40.5 68.5t25.5 81.5q-5 23 -36.5 37t-69.5 14q-20 0 -39.5 -11t-36 -30t-28 -44.5t-15.5 -54.5q-8 -53 8.5 -84.5t51.5 -31.5h1z" />
    <glyph glyph-name="Delta" unicode="&#x2206;" horiz-adv-x="592" 
d="M403 701l132 -627l-10 -74h-541l10 73l309 628h100zM330 548q-50 -102 -102.5 -217.5t-103.5 -220.5h284z" />
    <glyph glyph-name="product" unicode="&#x220f;" horiz-adv-x="643" 
d="M361 -61l93 661h-186l-93 -661h-111l93 661h-90l15 109h590l-15 -109h-92l-93 -661h-111z" />
    <glyph glyph-name="summation" unicode="&#x2211;" horiz-adv-x="544" 
d="M258 302l-176 306l11 77h457l-15 -107h-299q37 -68 77 -137.5t76 -135.5l-245 -277h327l-14 -105h-481l9 75z" />
    <glyph glyph-name="minus" unicode="&#x2212;" horiz-adv-x="621" 
d="M557 247h-510l15 108h510z" />
    <glyph glyph-name="uni2215" unicode="&#x2215;" horiz-adv-x="522" 
d="M41 -41l-83 56l534 712l83 -55z" />
    <glyph glyph-name="uni2219" unicode="&#x2219;" horiz-adv-x="236" 
d="M46 311q5 31 28 52t55 21q31 0 48.5 -21t12.5 -52t-27.5 -51.5t-53.5 -20.5q-32 0 -50 20.5t-13 51.5z" />
    <glyph glyph-name="radical" unicode="&#x221a;" horiz-adv-x="528" 
d="M92 266q-2 0 -6 -2q-12 -5 -28.5 -10t-29.5 -9l-23 99l177 64l50 -364l242 756h115l-329 -936h-95z" />
    <glyph glyph-name="infinity" unicode="&#x221e;" horiz-adv-x="702" 
d="M663 288q-5 -37 -23 -67.5t-43.5 -52t-56.5 -33t-62 -11.5q-42 0 -74 20t-67 62q-37 -35 -76.5 -58.5t-92.5 -23.5q-33 0 -60 12.5t-45.5 34t-26.5 51t-3 63.5q5 36 21.5 66.5t41.5 52.5t56.5 34.5t67.5 12.5q50 0 83 -24.5t59 -59.5q37 34 77 59t92 25
q69 -1 105.5 -45.5t26.5 -116.5v-1zM514 354q-25 0 -53 -21t-52 -44q26 -33 46.5 -50.5t41.5 -17.5q29 0 46.5 20t21.5 44q4 33 -10.5 51t-40.5 18zM186 223q24 0 51 20.5t53 43.5q-19 26 -41 45.5t-53 19.5q-26 0 -42 -20t-20 -47q-4 -26 9.5 -44t41.5 -18h1z" />
    <glyph glyph-name="integral" unicode="&#x222b;" horiz-adv-x="349" 
d="M378 723q-48 20 -72 2t-31 -69l-29 -234l-10 -81q-5 -45 -10.5 -91.5t-11 -89.5t-10.5 -80t-8 -62q-6 -40 -21.5 -69.5t-37.5 -49t-49 -29t-55 -9.5q-15 0 -37.5 6.5t-48.5 19.5l35 83q42 -19 70 -9t35 58q4 27 8.5 63t9.5 79t10.5 89.5t11.5 94.5q6 45 11.5 91t10.5 88
t9.5 77.5t7.5 59.5q6 41 21.5 71.5t37 51t47 31t51.5 10.5q18 0 41.5 -8.5t46.5 -25.5z" />
    <glyph glyph-name="approxequal" unicode="&#x2248;" horiz-adv-x="481" 
d="M446 376q-26 -34 -54 -55.5t-63 -25.5q-28 -2 -53.5 7.5t-54.5 23.5q-14 8 -28.5 14t-26.5 4q-9 -1 -25.5 -9t-32.5 -24l-56 55q29 38 60.5 58.5t63.5 22.5q28 1 55.5 -13.5t54.5 -25.5t52 -9.5t48 35.5zM424 217q-26 -34 -54 -55.5t-63 -25.5q-29 -2 -54.5 7.5
t-53.5 23.5q-14 8 -28.5 14t-26.5 4q-10 -1 -26 -9t-32 -24l-56 55q29 38 60.5 58.5t63.5 22.5q27 1 55 -13.5t55 -25.5t52 -9.5t48 35.5z" />
    <glyph glyph-name="notequal" unicode="&#x2260;" horiz-adv-x="532" 
d="M488 314h-158l-37 -63h186l-15 -107h-232l-59 -102l-82 44l32 58h-101l15 107h147l35 63h-173l15 106h218l55 98l88 -37l-34 -61h115z" />
    <glyph glyph-name="lessequal" unicode="&#x2264;" horiz-adv-x="485" 
d="M417 281l-16 -116l-344 194l10 69l398 197l-16 -117l-238 -115zM415 132l-15 -107h-395l15 107h395z" />
    <glyph glyph-name="greaterequal" unicode="&#x2265;" horiz-adv-x="483" 
d="M443 354l-398 -194l16 116l238 112l-206 115l17 117l343 -197zM416 127l-15 -107h-395l15 107h395z" />
    <glyph glyph-name="lozenge" unicode="&#x25ca;" horiz-adv-x="547" 
d="M27 344l262 372h87l155 -371l-262 -373h-88zM245 105l162 239l-95 248l-162 -246z" />
    <glyph glyph-name="i.loclTRK" horiz-adv-x="228" 
d="M173 727q32 0 51 -21.5t14 -53.5t-29.5 -54t-56.5 -22t-51 22t-14 54t29.5 53.5t56.5 21.5zM199 519l-73 -519h-110l73 519h110z" />
    <glyph glyph-name="f_i" horiz-adv-x="519" 
d="M-31 -106q27 20 35 45.5t10 42.5l77 550q6 45 27.5 78.5t53.5 55.5t72.5 33.5t85.5 11.5l-15 -108q-46 0 -78 -18.5t-37 -52.5l-6 -39h99l-15 -108h-99l-56 -403q-14 -100 -112 -156zM382 639q5 30 27.5 50t51.5 20q31 0 48 -20t12 -50q-4 -29 -26.5 -49.5t-53.5 -20.5
q-29 0 -46 20.5t-13 49.5zM309 0l72 519h110l-72 -519h-110z" />
    <glyph glyph-name="uni0414.loclBGR" horiz-adv-x="683" 
d="M495 -131l17 131h-426l-18 -131h-115l33 238h65l282 601h128l117 -601h65l-33 -238h-115zM457 107l-55 315l-22 160h-2l-63 -153l-144 -322h286z" />
    <glyph glyph-name="uni041B.loclBGR" horiz-adv-x="610" 
d="M344 582h-2l-35 -93l-228 -489h-123l340 708h128l145 -708h-123l-93 489z" />
    <glyph glyph-name="uni0432.loclBGR" horiz-adv-x="508" 
d="M318 717q36 0 69 -9t57 -28.5t36 -51t6 -75.5q-4 -29 -15.5 -54t-27 -45t-32.5 -34.5t-33 -22.5q20 -2 37 -12t28.5 -27t17 -39.5t1.5 -47.5l-15 -105q-6 -44 -28.5 -77t-55 -55t-71 -33t-76.5 -11t-73.5 10.5t-61.5 32t-39 54.5t-7 77l53 378q6 40 26 72.5t50.5 55.5
t70 35t83.5 12zM302 617q-43 0 -71 -20.5t-34 -62.5l-19 -136q24 7 47 14t47 14q46 14 71.5 45t30.5 72q6 36 -12.5 55t-59.5 19zM263 341q-26 -5 -49.5 -12t-47.5 -15l-20 -140q-3 -21 3 -36t18.5 -25.5t29 -15.5t34.5 -5q17 0 35 5t33 14.5t25.5 24.5t13.5 36l15 103
q5 38 -21 56t-69 10z" />
    <glyph glyph-name="uni0433.loclBGR" horiz-adv-x="442" 
d="M255 528q33 0 63 -9t52 -27t32.5 -45.5t5.5 -64.5q-6 -40 -23 -67t-42.5 -45t-57 -29t-64.5 -19q-21 -5 -39 -10.5t-32 -13t-23 -19t-12 -28.5q-5 -36 15.5 -51t58.5 -15q80 0 143 54l52 -65q-45 -46 -98 -65t-115 -19q-37 0 -69 9.5t-54.5 29t-33.5 48.5t-6 68
q6 38 21.5 64t39.5 44t55 30t68 22l34 8.5t33 12t25.5 19.5t13.5 31q4 28 -14.5 40t-51.5 12q-58 0 -107 -36l-56 64q42 38 90.5 55t95.5 17z" />
    <glyph glyph-name="uni0434.loclBGR" horiz-adv-x="504" 
d="M0 0zM63 -45q18 -29 52.5 -47t70.5 -18q19 0 38 8t34.5 23.5t26.5 37.5t15 51q-25 -10 -50 -14.5t-49 -4.5q-39 0 -74 12t-60 35t-37 56t-6 77l25 175q7 48 31 83t58.5 57t76.5 32t85 10q49 -1 94 -14.5t77 -38.5l-70 -489q-7 -49 -29 -85t-53.5 -59t-69.5 -34.5
t-77 -11.5q-29 0 -57 6.5t-52.5 18.5t-43.5 30t-31 41zM352 406q-13 10 -32.5 15.5t-40.5 5.5q-20 0 -40 -4.5t-36.5 -14t-28.5 -25t-15 -37.5l-27 -173q-2 -20 5.5 -34.5t20 -23.5t30 -14t36.5 -5q23 0 46 6t40 17z" />
    <glyph glyph-name="uni0436.loclBGR" horiz-adv-x="749" 
d="M524 280l171 -280h-130l-121 212l-33 -26l-26 -186h-108l27 186l-23 26l-184 -212h-130l252 280l-182 238h132l153 -207l55 397h108l-56 -397l210 207h133z" />
    <glyph glyph-name="uni0438.loclBGR" horiz-adv-x="519" 
d="M423 33q-50 -20 -103 -31.5t-102 -11.5q-42 0 -78 10t-61.5 32t-37.5 56t-5 82l49 348h110l-49 -350q-2 -21 5.5 -37t21.5 -26t33 -15t39 -5t41 4.5t38 13.5l58 415h109z" />
    <glyph glyph-name="uni0439.loclBGR" horiz-adv-x="520" 
d="M467 714q-8 -36 -24.5 -62.5t-39 -44.5t-48.5 -26.5t-52 -8.5q-25 0 -49 9.5t-42 27.5t-28.5 44.5t-7.5 60.5h95q1 -23 13.5 -34t29.5 -12t34 11t25 35h94zM423 29q-66 -23 -115.5 -31t-88.5 -8q-40 0 -76 10.5t-62 33t-38.5 56t-6.5 80.5l49 348h109l-48 -349
q-3 -19 3 -34t18 -25t28 -15.5t33 -5.5q55 0 96 14l58 415h110z" />
    <glyph glyph-name="uni043A.loclBGR" horiz-adv-x="500" 
d="M385 518h138l-249 -239l176 -279h-129l-134 212l-35 -31l-25 -181h-110l99 708h110l-56 -399z" />
    <glyph glyph-name="uni043B.loclBGR" horiz-adv-x="478" 
d="M258 420h-3l-41 -117l-133 -303h-117l239 518h135l89 -518h-118l-43 303z" />
    <glyph glyph-name="uni043F.loclBGR" horiz-adv-x="518" 
d="M82 479q50 18 102.5 30t102.5 12q40 0 75.5 -10.5t61.5 -32.5t38.5 -55.5t5.5 -79.5l-48 -343h-108l48 343q3 20 -3 35t-18 24.5t-28.5 14t-34.5 4.5q-26 0 -51.5 -5.5t-43.5 -12.5l-57 -403h-109z" />
    <glyph glyph-name="uni0442.loclBGR" horiz-adv-x="774" 
d="M80 473q38 24 88 39.5t98 15.5q46 -1 84.5 -18.5t55.5 -54.5q28 34 68.5 53.5t89.5 19.5q35 0 66.5 -12.5t54.5 -35.5t34 -56.5t5 -76.5l-48 -347h-109l48 343q7 35 -14.5 56.5t-53.5 21.5q-16 0 -33 -6t-31.5 -16t-25 -23.5t-12.5 -28.5l-48 -347h-108l49 352
q2 17 -3.5 30t-16.5 21.5t-26.5 13t-32.5 4.5q-20 1 -41.5 -4.5t-39.5 -16.5l-55 -400h-108z" />
    <glyph glyph-name="uni0446.loclBGR" horiz-adv-x="549" 
d="M444 -124h-90l23 144l-6 -2q-33 -12 -74 -19.5t-78 -7.5q-39 0 -75 10.5t-62 32.5t-39 56t-7 80l49 349h109l-48 -349q-3 -19 3 -34t17.5 -25t27 -15.5t33.5 -5.5q26 0 48 1.5t43 8.5l59 419h110l-56 -402h67l-20 -120z" />
    <glyph glyph-name="uni0448.loclBGR" horiz-adv-x="784" 
d="M689 39q-37 -21 -87 -35t-98 -14q-43 0 -82 14t-64 44q-32 -29 -73 -43.5t-80 -14.5q-40 0 -73.5 11t-57 33t-34 55.5t-4.5 77.5l49 351h110l-49 -351q-7 -43 15.5 -59.5t58.5 -15.5q14 0 30 4.5t30.5 12t24.5 18.5t12 26l51 365h108l-51 -365q-2 -17 4 -29t18 -19.5
t28.5 -11.5t33.5 -4q23 0 44.5 5t35.5 14l57 410h110z" />
    <glyph glyph-name="uni0449.loclBGR" horiz-adv-x="818" 
d="M712 -124h-89l23 142l-9 -3q-31 -11 -66 -18t-67 -7q-43 0 -82 14t-64 44q-32 -29 -73 -43.5t-80 -14.5q-40 0 -73.5 11t-57 33t-34 55.5t-4.5 77.5l49 351h110l-49 -351q-7 -43 15.5 -59.5t58.5 -15.5q14 0 30 4.5t30.5 12t24.5 18.5t12 26l51 365h108l-51 -365
q-2 -17 4 -29t18 -19.5t28.5 -11.5t33.5 -4q23 0 44 3.5t35 10.5l58 415h110l-56 -401h68l-21 -120z" />
    <glyph glyph-name="uni044E.loclBGR" horiz-adv-x="731" 
d="M283 354q6 44 29 76.5t55 54t70.5 32.5t76.5 11t73 -11t60.5 -33.5t38.5 -56t7 -78.5l-26 -183q-6 -44 -28 -77t-54 -55t-70.5 -33t-76.5 -11t-73.5 11t-61.5 33t-39 55t-7 77l8 57h-108l-32 -223h-110l100 708h110l-55 -390h108zM499 425q-17 0 -35 -4.5t-33 -13.5
t-25.5 -23.5t-13.5 -33.5l-25 -182q-3 -19 3.5 -33.5t19 -24t29 -14t33.5 -4.5t34.5 4.5t32.5 14t25.5 24t13.5 33.5l25 182q3 19 -3.5 33.5t-18.5 23.5t-28.5 13.5t-33.5 4.5z" />
    <glyph glyph-name=".ttfautohint" horiz-adv-x="240" 
d="M0 0z" />
    </font>
</defs>
</svg>
