<?xml version="1.0" standalone="no"?>
<!DOCTYPE svg PUBLIC "-//W3C//DTD SVG 1.1//EN" "http://www.w3.org/Graphics/SVG/1.1/DTD/svg11.dtd" >
<svg xmlns="http://www.w3.org/2000/svg" xmlns:xlink="http://www.w3.org/1999/xlink" version="1.1">
<metadata>
Created by FontForge 20170731 at Fri May 16 14:23:24 2014
 By Aleksey,,,
Copyright (c) 2014 by (c) 2009 Designed by Svetoslav Simov (c) Fontfabric, Inc. All rights reserved.
</metadata>
<defs>
<font id="UniSansRegularItalic" horiz-adv-x="521" >
  <font-face 
    font-family="Uni Sans Regular Italic"
    font-weight="400"
    font-style="italic"
    font-stretch="normal"
    units-per-em="1000"
    panose-1="0 0 5 0 0 0 0 0 0 0"
    ascent="756"
    descent="-244"
    x-height="518"
    cap-height="708"
    bbox="-99 -254 1070.08 962"
    underline-thickness="50"
    underline-position="-150"
    unicode-range="U+0020-FB02"
  />
<missing-glyph horiz-adv-x="500" 
d="M499 0h-508l98 700h508zM194 625q28 -54 54 -102t55 -104l168 206h-277zM249 350q-15 29 -28 52.5t-25 46t-25 46.5t-28 54l-56 -399zM501 549q-42 -51 -81 -99t-81 -100l106 -199zM394 75q-29 54 -55.5 102t-54.5 104q-44 -54 -83 -102t-84 -104h277z" />
    <glyph glyph-name="fi" unicode="fi" horiz-adv-x="489" 
d="M-35 -119q26 17 37 41t14 46l81 574q6 43 25.5 75.5t48.5 54t66 32.5t78 11l-11 -81q-49 0 -84 -23.5t-41 -68.5l-14 -95h105l-11 -81h-105l-56 -398q-7 -48 -33 -84.5t-64 -61.5zM376 649q3 24 22 40t42 16q24 0 37.5 -16t10.5 -40q-4 -23 -22 -39.5t-42 -16.5
q-23 0 -37.5 16.5t-10.5 39.5zM303 0l73 521h80l-73 -521h-80z" />
    <glyph glyph-name="fl" unicode="fl" horiz-adv-x="522" 
d="M-35 -119q26 17 37 41t14 46l81 574q6 43 25.5 75.5t48.5 54t66 32.5t78 11l-11 -81q-49 0 -84 -23.5t-41 -68.5l-14 -95h105l-11 -81h-105l-56 -398q-7 -48 -33 -84.5t-64 -61.5zM474 -4q-85 0 -124 44.5t-28 124.5l75 534h80l-75 -534q-6 -43 13.5 -66t69.5 -23z" />
    <glyph glyph-name=".notdef" horiz-adv-x="500" 
d="M499 0h-508l98 700h508zM194 625q28 -54 54 -102t55 -104l168 206h-277zM249 350q-15 29 -28 52.5t-25 46t-25 46.5t-28 54l-56 -399zM501 549q-42 -51 -81 -99t-81 -100l106 -199zM394 75q-29 54 -55.5 102t-54.5 104q-44 -54 -83 -102t-84 -104h277z" />
    <glyph glyph-name=".null" horiz-adv-x="0" 
 />
    <glyph glyph-name="nonmarkingreturn" horiz-adv-x="333" 
 />
    <glyph glyph-name="space" unicode=" " horiz-adv-x="212" 
 />
    <glyph glyph-name="exclam" unicode="!" horiz-adv-x="217" 
d="M124 698h82l-74 -522h-82zM13 49q4 25 23 42t44 17t40 -17t11 -42t-23 -42t-44 -17t-40 17t-11 42z" />
    <glyph glyph-name="quotedbl" unicode="&#x22;" horiz-adv-x="326" 
d="M147 455h-67l35 243h85zM277 455h-66l35 243h85z" />
    <glyph glyph-name="numbersign" unicode="#" horiz-adv-x="736" 
d="M637 211h-177q-23 -53 -46.5 -107t-45.5 -105h-86l92 212h-126q-22 -53 -45.5 -107t-45.5 -105h-87l92 212h-148l28 79h155q15 34 28 61.5t28 63.5h-171l28 80h178l87 202h87l-88 -202h125l88 202h87l-89 -202h151l-33 -80h-153l-54 -125h170zM339 415q-14 -34 -27 -61.5
t-28 -63.5h124q16 34 28.5 61.5t27.5 63.5h-125z" />
    <glyph glyph-name="dollar" unicode="$" horiz-adv-x="575" 
d="M334 397q41 -9 80 -21.5t67 -36.5t40.5 -62t0.5 -98q-9 -43 -32.5 -76.5t-56.5 -57.5t-73.5 -38t-82.5 -17l-14 -98h-73l14 98q-34 4 -66 15t-59 29.5t-47 44.5t-29 60l81 34q13 -44 49 -68.5t83 -31.5l36 256q-40 9 -76.5 21t-63 33.5t-38.5 55.5t-2 87v-1q7 42 29 75
t53.5 56t70 36.5t80.5 18.5l14 97h73l-14 -97q34 -3 66.5 -14t59 -29.5t46 -44t29.5 -58.5l-80 -34q-14 44 -49.5 68.5t-82.5 29.5zM154 521q-6 -26 0.5 -44t22 -30.5t38 -20.5t48.5 -14l31 216q-51 -7 -91 -33.5t-49 -73.5zM289 73q52 7 95 34.5t56 75.5q5 30 -2.5 51
t-23.5 36.5t-40 25.5t-52 17z" />
    <glyph glyph-name="percent" unicode="%" horiz-adv-x="778" 
d="M652 743l61 -43l-596 -771l-60 43zM363 511q-6 -45 -23 -81t-41 -61t-54 -38.5t-63 -13.5q-73 0 -106 50t-19 146q6 44 22.5 79.5t40.5 60.5t54 38.5t63 13.5q72 0 106 -50.5t20 -143.5zM281 511q8 60 -7 87t-50 27t-56 -26.5t-29 -85.5q-9 -61 5 -87.5t50 -26.5t57.5 27
t29.5 85zM733 184q-6 -45 -22.5 -81t-40.5 -61t-54 -38t-63 -13q-74 0 -106.5 49.5t-18.5 145.5q6 45 22 80.5t40 60t54 38t64 13.5q72 0 105.5 -50t19.5 -144zM652 184q8 59 -7 87t-49 28q-36 0 -57.5 -27t-29.5 -86q-9 -61 5 -87.5t51 -26.5q35 0 57 27t30 85z" />
    <glyph glyph-name="ampersand" unicode="&#x26;" horiz-adv-x="630" 
d="M436 232q15 21 32.5 44t30.5 42l65 -35l-79 -107l98 -135h-107l-49 64q-48 -51 -99.5 -80t-120.5 -29q-45 0 -82 14t-62 40.5t-36.5 63.5t-5.5 84q6 38 22 67t39 52t51.5 41t58.5 35q-23 32 -40.5 69.5t-11.5 82.5q5 38 24.5 68t47 50.5t61.5 31.5t69 11q32 0 60 -11
t47.5 -31t29 -47.5t5.5 -61.5q-5 -36 -21 -62.5t-38.5 -47.5t-50 -37t-55.5 -30zM328 631q-38 0 -68.5 -23.5t-35.5 -61.5q-2 -15 2 -30.5t11 -30.5t16.5 -29t18.5 -26q20 9 41 20.5t39.5 26.5t31.5 33t16 41q5 35 -15.5 57.5t-56.5 22.5zM236 339q-21 -12 -43 -26
t-40.5 -31t-31.5 -37.5t-16 -44.5q-4 -29 3.5 -52t24.5 -39.5t41 -25.5t53 -9q47 0 85.5 26.5t69.5 61.5z" />
    <glyph glyph-name="quotesingle" unicode="'" horiz-adv-x="197" 
d="M151 455h-71l35 243h84z" />
    <glyph glyph-name="parenleft" unicode="(" horiz-adv-x="275" 
d="M311 731q-38 -42 -69 -90.5t-54 -100t-38 -103.5t-22 -100q-8 -54 -6 -105t11.5 -100t27 -96.5t40.5 -95.5l-71 -42q-29 49 -48.5 103.5t-30 111t-12 113.5t6.5 111q8 57 25.5 115t44 114t60 109.5t74.5 100.5z" />
    <glyph glyph-name="parenright" unicode=")" horiz-adv-x="276" 
d="M-33 -87q38 41 69.5 90t54.5 100.5t38.5 103.5t22.5 100q15 110 -3.5 214t-66.5 201l71 43q28 -50 47.5 -107t30 -117t11.5 -119.5t-6 -114.5q-8 -57 -26 -115t-44.5 -114t-60.5 -109.5t-74 -100.5z" />
    <glyph glyph-name="asterisk" unicode="*" horiz-adv-x="444" 
d="M443 532l-136 -41l67 -113l-62 -43l-69 115l-100 -116l-54 43l102 115l-128 43l29 69l131 -44l20 138h71l-20 -139l138 43z" />
    <glyph glyph-name="plus" unicode="+" horiz-adv-x="579" 
d="M294 591h81l-30 -213h210l-12 -82h-210l-30 -215h-81l30 215h-219l12 82h219z" />
    <glyph glyph-name="comma" unicode="," horiz-adv-x="223" 
d="M28 -131h-82l104 243h94z" />
    <glyph glyph-name="hyphen" unicode="-" horiz-adv-x="379" 
d="M313 257h-261l11 82h261z" />
    <glyph glyph-name="period" unicode="." horiz-adv-x="212" 
d="M13 53q4 25 23 42t44 17t40 -17t11 -42t-23 -42t-44 -17t-40 17t-11 42z" />
    <glyph glyph-name="slash" unicode="/" horiz-adv-x="415" 
d="M48 -38l-70 27l402 747l70 -26z" />
    <glyph glyph-name="zero" unicode="0" horiz-adv-x="619" 
d="M265 -10q-45 0 -89.5 12.5t-77.5 38t-50.5 64.5t-9.5 93l45 312q8 54 36.5 93t69 64.5t88 38t92.5 12.5t89 -12.5t77 -38t50 -64.5t9 -93l-45 -312q-8 -54 -36.5 -93t-68 -64.5t-87 -38t-92.5 -12.5zM120 200q-5 -35 7.5 -59t35.5 -39t53 -21.5t60 -6.5t61 6.5t58 21.5
t46.5 39t24.5 59l46 308q5 36 -7.5 60t-35.5 38.5t-52.5 21t-59.5 6.5t-61.5 -6.5t-58.5 -21t-46.5 -38.5t-24.5 -60z" />
    <glyph glyph-name="one" unicode="1" horiz-adv-x="313" 
d="M121 0l85 589l-115 -107l-55 50l192 176h76l-102 -708h-81z" />
    <glyph glyph-name="two" unicode="2" horiz-adv-x="565" 
d="M332 638q-30 1 -58 -6.5t-52.5 -21t-45 -32.5t-34.5 -43l-69 31q21 37 50.5 65.5t65 47.5t75.5 29t81 10q51 0 91.5 -16.5t68 -44t40 -64t6.5 -76.5q-6 -42 -36 -90.5t-77 -89.5l-291 -255h344l-11 -82h-462l-18 60l386 334q74 65 82 124q7 49 -29.5 83t-106.5 37z" />
    <glyph glyph-name="three" unicode="3" horiz-adv-x="579" 
d="M83 170q9 -24 25.5 -42t39 -30t49 -18t54.5 -6q33 0 65 8t58 24t44 40t23 57q11 72 -25.5 106t-108.5 33h-69l10 72h69q54 0 92.5 28t46.5 84q4 29 -4.5 49.5t-26 33.5t-42 19t-51.5 6q-48 0 -94.5 -19t-75.5 -61l-66 37q20 31 47.5 55t59.5 40t66.5 24t68.5 8
q43 0 82 -12t67 -36t42.5 -60t7.5 -84q-6 -42 -30.5 -83t-71.5 -61q28 -10 47 -28.5t29.5 -42.5t13 -52t-1.5 -57q-8 -53 -36 -93t-68 -66.5t-87.5 -39.5t-95.5 -13q-38 0 -74.5 9t-67.5 27t-55 45t-36 63z" />
    <glyph glyph-name="four" unicode="4" horiz-adv-x="568" 
d="M511 171h-66l-25 -169h-82l25 169h-322l-38 79l434 458h86l-67 -461h66zM374 247l52 345l-322 -345h270z" />
    <glyph glyph-name="five" unicode="5" horiz-adv-x="580" 
d="M92 168q17 -46 62 -69.5t98 -23.5q33 0 65.5 8t59.5 24.5t45.5 42t23.5 59.5l6 43q5 34 -5.5 58t-32 39t-51.5 22t-63 7q-51 0 -93 -10t-92 -32l-47 -2l58 374h442l-12 -82h-360l-31 -191q37 14 72.5 21t73.5 6q46 0 89.5 -12t75.5 -37.5t48.5 -65t9.5 -94.5l-6 -45
q-7 -54 -35 -95t-68.5 -68.5t-89.5 -41t-97 -13.5q-37 0 -72.5 9t-65.5 27t-53 44.5t-35 61.5z" />
    <glyph glyph-name="six" unicode="6" horiz-adv-x="613" 
d="M520 553q-14 42 -57 61.5t-97 19.5q-35 0 -68 -8t-60 -24t-45.5 -40t-24.5 -56l-25 -135q20 22 44 37.5t49.5 25t50.5 13.5t47 4q49 0 93.5 -13.5t77 -40t49 -65.5t9.5 -90l-6 -43q-7 -51 -34.5 -90.5t-67.5 -65.5t-88.5 -39.5t-97.5 -13.5q-50 0 -95.5 13t-79 39.5
t-50 65.5t-8.5 91l49 310q8 52 36.5 91.5t69 65.5t89 39t98.5 13q38 0 73.5 -9t65 -26t52.5 -43t35 -60l-80 -39zM479 241q4 32 -7.5 56t-33.5 40t-52 24t-64 8q-35 0 -68.5 -8t-61 -24t-46 -40t-22.5 -56l-5 -41q-4 -32 8 -56t34.5 -40t53.5 -24t66 -8q34 0 67 8t59.5 24
t44.5 40t22 56z" />
    <glyph glyph-name="seven" unicode="7" horiz-adv-x="513" 
d="M534 708l19 -55l-464 -653h-93l443 626h-362l12 82h445z" />
    <glyph glyph-name="eight" unicode="8" horiz-adv-x="611" 
d="M251 -10q-48 0 -91.5 13.5t-75.5 40t-48.5 66.5t-9.5 93q8 55 42 103t97 74q-20 7 -33.5 24t-21 37.5t-10 43t0.5 41.5q7 48 31.5 84t59 60t76.5 36t84 12h18q42 0 81 -12t67 -36t42 -60t7 -84q-3 -20 -11 -42t-20 -42.5t-28 -37t-36 -25.5q25 -9 43 -27.5t28 -42t13 -51
t-1 -55.5q-9 -53 -36.5 -92t-67 -65t-87 -39.5t-95.5 -16.5h-18zM340 644q-27 0 -54 -7.5t-48.5 -22.5t-36.5 -37t-19 -51q-5 -32 5 -54t28.5 -35t44 -18.5t51.5 -5.5h18q26 0 52 5.5t48 18.5t37 35t20 54q4 29 -5 51t-27.5 37t-43.5 22.5t-52 7.5h-18zM280 65q30 0 62 8.5
t59.5 25.5t47 43t24.5 62q6 41 -4.5 68t-32.5 42.5t-52.5 21.5t-64.5 6h-18q-34 0 -66.5 -6t-58.5 -21.5t-44.5 -42.5t-24.5 -68q-5 -36 7.5 -62t35 -43t52.5 -25.5t60 -8.5h18z" />
    <glyph glyph-name="nine" unicode="9" horiz-adv-x="615" 
d="M108 166q15 -48 59 -71t99 -23q34 0 68 8t61 24t45.5 40t23.5 56l17 124q-19 -23 -42 -38t-48.5 -23.5t-51 -11.5t-49.5 -3q-49 0 -93.5 13.5t-77 39.5t-49 64.5t-9.5 90.5l7 53q7 52 34.5 91t67.5 65.5t89 39.5t98 13t94 -12.5t78 -39t50 -66t10 -91.5l-43 -310
q-7 -52 -35 -91t-69 -65.5t-90 -39.5t-98 -13q-38 0 -73.5 9t-65.5 26t-52.5 43t-34.5 60zM144 457q-5 -32 6.5 -56t34 -40t53 -24t64.5 -8t68 8t61 24t45.5 40t23.5 56l7 49q4 33 -7.5 57t-34.5 39.5t-54.5 23.5t-65.5 8t-67 -8t-59.5 -24t-45 -40t-22.5 -56z" />
    <glyph glyph-name="colon" unicode=":" horiz-adv-x="235" 
d="M75 426q4 25 23.5 42t44.5 17t39.5 -17t10.5 -42q-3 -25 -22.5 -42t-44.5 -17t-39.5 17t-11.5 42zM25 67q4 26 23 42.5t44 16.5t40 -16.5t11 -42.5q-4 -25 -23 -41.5t-44 -16.5t-40 16.5t-11 41.5z" />
    <glyph glyph-name="semicolon" unicode=";" horiz-adv-x="256" 
d="M79 412q4 25 23 42t45 17q25 0 39 -17t10 -42q-3 -25 -22 -42t-44 -17q-26 0 -40 17t-11 42zM51 -131h-82l95 243h103z" />
    <glyph glyph-name="less" unicode="&#x3c;" horiz-adv-x="438" 
d="M127 301q60 -38 120 -75t118 -74l-13 -93l-331 211l9 61l390 215l-13 -94z" />
    <glyph glyph-name="equal" unicode="=" horiz-adv-x="534" 
d="M477 333h-413l11 78h413zM456 181h-413l11 79h413z" />
    <glyph glyph-name="greater" unicode="&#x3e;" horiz-adv-x="439" 
d="M407 270l-390 -211l13 93l280 149q-60 38 -119 75.5t-119 75.5l13 94l331 -215z" />
    <glyph glyph-name="question" unicode="?" horiz-adv-x="489" 
d="M78 630q41 44 96 66t112 22q43 0 83 -13t68.5 -39.5t42.5 -65.5t7 -90q-8 -50 -28.5 -87t-51.5 -63.5t-69.5 -44t-80.5 -28.5q-7 -38 -13.5 -70.5t-13.5 -69.5h-71l24 209q38 0 75.5 11.5t68.5 32t51.5 49t24.5 63.5q4 31 -5.5 54.5t-28 39.5t-43.5 23.5t-53 7.5
q-38 0 -78 -17t-72 -50l-56 49zM126 44q4 23 21.5 38.5t40.5 15.5t36.5 -15.5t9.5 -38.5q-3 -23 -20.5 -38.5t-40.5 -15.5t-36.5 15.5t-10.5 38.5z" />
    <glyph glyph-name="at" unicode="@" horiz-adv-x="758" 
d="M646 548q-29 44 -82 67t-116 23q-61 0 -116 -23.5t-98.5 -63t-72 -91.5t-36.5 -109q-9 -64 1 -117t39.5 -91.5t79 -59.5t119.5 -21q23 0 48.5 4.5t57.5 16.5l25 -64q-42 -15 -75.5 -21.5t-65.5 -6.5q-92 0 -155.5 28t-100 77t-48.5 114.5t-1 140.5q10 75 47 140.5t92 114
t124 76.5t144 28q71 0 128.5 -22.5t96 -62t56.5 -93t9 -115.5q-9 -61 -36.5 -113.5t-65.5 -91.5t-82 -61t-86 -22q-23 0 -41 13.5t-15 48.5q-23 -30 -57 -44t-66 -14q-29 0 -52 13t-38 34t-22 47.5t-3 53.5q7 51 29.5 101.5t57.5 90.5t81.5 65t100.5 25q14 0 29 -4.5
t27.5 -13t20.5 -21t9 -29.5l18 35l79 -3l-125 -269q-4 -8 -8 -17.5t-6 -17t0.5 -12.5t11.5 -5q22 0 48.5 19t50 49.5t41.5 68t23 74.5q11 76 -23 128zM258 283q-5 -33 11 -54t47 -21q30 0 59 20t52 49.5t39 63.5t20 63q5 38 -6.5 61t-43.5 23q-38 1 -69 -19.5t-53.5 -51
t-37 -67t-18.5 -67.5z" />
    <glyph glyph-name="A" unicode="A" horiz-adv-x="615" 
d="M571 0h-88l-51 227h-273l-111 -227h-89l353 708h102zM350 618q-38 -78 -74.5 -152.5t-76.5 -154.5h216z" />
    <glyph glyph-name="B" unicode="B" horiz-adv-x="625" 
d="M584 522q-6 -42 -25 -79.5t-54 -63.5q48 -26 62 -71.5t5 -104.5q-9 -56 -33 -95t-60 -63t-81 -34.5t-96 -10.5h-271l99 708h272q43 0 79 -11.5t61 -35t36.5 -58.5t5.5 -81zM361 417q27 0 51 5.5t42.5 18t31 32.5t16.5 49q4 28 -3 47.5t-23 31.5t-38 17.5t-48 5.5h-188
l-29 -207h188zM314 84q34 0 63.5 5t52.5 18.5t38 37t20 59.5t-2.5 61t-26 40t-46.5 21.5t-64 6.5h-188l-35 -249h188z" />
    <glyph glyph-name="C" unicode="C" horiz-adv-x="594" 
d="M80 497q7 55 36 96t71 69t92.5 42t101.5 14q38 0 74.5 -8.5t67 -26.5t53.5 -44.5t35 -62.5l-80 -38q-18 48 -64.5 72t-100.5 24q-34 0 -68 -8.5t-62 -25.5t-47.5 -43t-24.5 -60l-39 -286q-5 -35 7 -60.5t35.5 -42.5t55 -25.5t65.5 -8.5q55 0 108 23.5t84 71.5l70 -35
q-23 -36 -54 -63t-67 -45t-75 -27t-77 -9q-50 0 -96 14t-79.5 41.5t-51 69t-9.5 96.5z" />
    <glyph glyph-name="D" unicode="D" horiz-adv-x="637" 
d="M370 708q51 0 97.5 -12t80.5 -38t51.5 -66.5t9.5 -96.5l-40 -283q-8 -56 -36.5 -96t-70 -66t-91 -38t-100.5 -12h-240l99 708h240zM282 84q35 0 69 7t62.5 22.5t47.5 39.5t24 59l40 283q5 35 -7.5 59.5t-36.5 40t-56 22.5t-67 7h-157l-76 -540h157z" />
    <glyph glyph-name="E" unicode="E" horiz-adv-x="570" 
d="M170 396h341l-12 -84h-341l-32 -228h370l-11 -84h-454l99 708h454l-12 -84h-370z" />
    <glyph glyph-name="F" unicode="F" horiz-adv-x="558" 
d="M167 376h324l-11 -84h-324l-41 -292h-84l99 708h453l-12 -84h-369z" />
    <glyph glyph-name="G" unicode="G" horiz-adv-x="630" 
d="M80 497q8 55 37 96t70.5 69t91.5 42t100 14q38 0 74 -9t66.5 -27t53.5 -45t35 -63l-81 -36q-17 48 -62.5 72t-99.5 24q-34 0 -68 -8.5t-62 -25.5t-47.5 -43t-24.5 -60l-40 -284q-5 -35 7.5 -61.5t36 -43.5t55 -25.5t66.5 -8.5q34 0 69 8.5t63.5 25.5t48.5 43.5t25 61.5
l10 72h-209l11 83h292l-21 -154q-8 -56 -37 -98t-71 -70t-92 -42t-101 -14t-97 14t-79.5 42t-50.5 70t-9 98z" />
    <glyph glyph-name="H" unicode="H" horiz-adv-x="686" 
d="M115 0h-84l99 708h84l-44 -313h370l44 313h84l-99 -708h-84l43 312h-370z" />
    <glyph glyph-name="I" unicode="I" horiz-adv-x="231" 
d="M114 0h-83l99 708h83z" />
    <glyph glyph-name="J" unicode="J" horiz-adv-x="592" 
d="M580 708l-70 -498q-8 -54 -36 -95.5t-68.5 -69t-89 -41.5t-96.5 -14q-43 0 -82.5 12t-70.5 36t-50.5 60.5t-22.5 84.5l85 14q1 -31 14.5 -54t35 -38.5t49 -23t56.5 -7.5q32 0 64.5 8t59 25t45 42.5t23.5 60.5l58 414h-227l12 84h311z" />
    <glyph glyph-name="K" unicode="K" horiz-adv-x="629" 
d="M164 352q103 88 206 178t206 178h111l-389 -341q33 -42 69.5 -89.5t74 -95.5t73.5 -94.5t69 -87.5h-109l-245 307l-82 -72l-33 -235h-84l99 708h84z" />
    <glyph glyph-name="L" unicode="L" horiz-adv-x="509" 
d="M130 708h84l-88 -624h340l-11 -84h-424z" />
    <glyph glyph-name="M" unicode="M" horiz-adv-x="796" 
d="M115 0h-84l99 708h105l150 -494l288 494h105l-99 -708h-84l77 551l-268 -458h-71l-141 457z" />
    <glyph glyph-name="N" unicode="N" horiz-adv-x="686" 
d="M584 708h84l-99 -708h-101l-274 568l-79 -568h-84l99 708h90l282 -593z" />
    <glyph glyph-name="O" unicode="O" horiz-adv-x="671" 
d="M78 496q7 55 37.5 97t74 69.5t96.5 41.5t106 14t101.5 -14t84.5 -41.5t54.5 -69.5t11.5 -97l-38 -283q-8 -56 -38 -97.5t-73.5 -69.5t-96.5 -42t-106 -14t-102 14t-85 42t-54.5 69.5t-10.5 97.5zM123 213q-5 -35 9 -61t39.5 -43.5t60 -26.5t72.5 -9q37 0 74.5 9t68 26.5
t51 43.5t25.5 61l38 283q5 37 -8.5 63t-39.5 42.5t-61 24.5t-72 8q-38 0 -75 -8.5t-67.5 -25t-51 -42.5t-25.5 -62z" />
    <glyph glyph-name="P" unicode="P" horiz-adv-x="612" 
d="M130 708h270q60 0 102 -20t67.5 -53t34.5 -76t3 -89q-6 -43 -26.5 -82t-55 -68.5t-82 -47t-106.5 -17.5h-188l-35 -255h-83zM348 339q39 0 69.5 12t52.5 32t34.5 45.5t16.5 52.5t-2 53t-22 46t-43 32.5t-66 11.5h-187l-40 -285h187z" />
    <glyph glyph-name="Q" unicode="Q" horiz-adv-x="670" 
d="M393 716q53 0 101.5 -14t84.5 -41.5t54.5 -69.5t10.5 -97l-39 -280q-7 -50 -27 -87t-49 -63l45 -67l-62 -41l-46 68q-39 -18 -83.5 -26t-90.5 -8q-53 0 -102 14t-85 42.5t-54.5 70t-10.5 97.5l39 280q8 55 38 97t73.5 69.5t96.5 41.5t106 14zM561 494q5 37 -8.5 63.5
t-39.5 43.5t-61 25t-72 8t-74 -8.5t-67 -26t-50.5 -43.5t-25.5 -62l-39 -280q-5 -35 8.5 -61.5t38.5 -44t59.5 -26t71.5 -8.5q70 0 118 17l-44 66l63 43l46 -69q31 34 37 83z" />
    <glyph glyph-name="R" unicode="R" horiz-adv-x="616" 
d="M264 289h-109l-40 -289h-84l99 708h270q51 0 93 -12t70.5 -37.5t42 -65.5t6.5 -97q-8 -53 -29.5 -91t-54 -62.5t-73.5 -37.5t-87 -15l188 -290h-103zM353 367q72 0 118.5 28t56.5 101q5 37 -3 61.5t-27 39.5t-47 21.5t-62 5.5h-187l-36 -257h187z" />
    <glyph glyph-name="S" unicode="S" horiz-adv-x="589" 
d="M158 528q-7 -32 4 -52t33.5 -33t53.5 -20.5t65 -14.5q45 -9 89 -21t77 -35.5t48.5 -63.5t2.5 -105q-9 -49 -37 -85t-67 -60t-86 -36t-94 -12q-40 0 -78.5 9.5t-71 28t-57 47t-35.5 66.5l82 35q8 -26 25 -45t40.5 -31.5t51 -19t56.5 -6.5q31 0 62.5 7t57 21t44 35t24.5 50
q9 38 -2.5 62.5t-35.5 39.5t-57.5 23.5t-69.5 16.5q-42 9 -82.5 21.5t-70.5 35t-46 57.5t-9 88q9 46 36.5 81.5t65.5 58.5t83 35t91 12q39 0 77 -8.5t70.5 -26.5t56 -45.5t34.5 -64.5l-81 -34q-7 25 -24 43t-39.5 29.5t-50 17t-55.5 5.5q-31 0 -61 -6t-54.5 -19t-42 -33
t-23.5 -48z" />
    <glyph glyph-name="T" unicode="T" horiz-adv-x="563" 
d="M368 624l-87 -624h-84l87 624h-227l12 84h538l-12 -84h-227z" />
    <glyph glyph-name="U" unicode="U" horiz-adv-x="675" 
d="M141 216q-5 -36 7 -62.5t35.5 -44.5t55.5 -26.5t67 -8.5q34 0 69 8.5t63.5 26.5t48 44.5t24.5 62.5l67 492h84l-67 -492q-8 -56 -36.5 -98.5t-70.5 -71t-92.5 -42.5t-100.5 -14q-51 0 -97 14t-80 42.5t-51.5 71t-9.5 98.5l67 492h84z" />
    <glyph glyph-name="V" unicode="V" horiz-adv-x="616" 
d="M147 708l132 -613l303 613h88l-353 -708h-103l-156 708h89z" />
    <glyph glyph-name="W" unicode="W" horiz-adv-x="931" 
d="M978 708l-304 -708h-102l-83 471q-54 -117 -108.5 -236t-107.5 -235h-102l-106 708h87l85 -608l235 519h74l90 -518l256 607h86z" />
    <glyph glyph-name="X" unicode="X" horiz-adv-x="593" 
d="M353 353q45 -85 96.5 -176.5t97.5 -176.5h-102l-152 284l-230 -284h-102l292 353l-191 355h100l152 -280q57 69 115 140t115 140h101z" />
    <glyph glyph-name="Y" unicode="Y" horiz-adv-x="576" 
d="M203 0l38 276q-45 104 -92.5 216.5t-92.5 215.5h97l144 -343q59 85 119 171.5t119 171.5h98l-308 -432l-38 -276h-84z" />
    <glyph glyph-name="Z" unicode="Z" horiz-adv-x="580" 
d="M586 708l19 -58l-494 -566h402l-11 -84h-500l-16 59l493 565h-395l12 84h490z" />
    <glyph glyph-name="bracketleft" unicode="[" horiz-adv-x="264" 
d="M94 -51h86l-10 -75h-169l122 869h169l-11 -75h-86z" />
    <glyph glyph-name="backslash" unicode="\" horiz-adv-x="415" 
d="M78 710l79 26l193 -747l-80 -26z" />
    <glyph glyph-name="bracketright" unicode="]" horiz-adv-x="264" 
d="M170 672h-85l10 72h169l-122 -869h-168l9 72h85z" />
    <glyph glyph-name="asciicircum" unicode="^" horiz-adv-x="555" 
d="M535 417h-98l-118 190l-166 -190h-99l249 281h57z" />
    <glyph glyph-name="underscore" unicode="_" horiz-adv-x="619" 
d="M506 -83h-500l11 80h500z" />
    <glyph glyph-name="grave" unicode="`" horiz-adv-x="210" 
d="M127 892l65 -136h-87l-89 136h111z" />
    <glyph glyph-name="a" unicode="a" horiz-adv-x="508" 
d="M330 48q-29 -28 -66 -43t-80 -15q-34 0 -64.5 11t-53 32.5t-33 53.5t-4.5 74l28 191q7 49 30 83t55.5 54.5t72.5 29.5t81 9q50 0 93 -13.5t81 -36.5l-67 -478h-70zM382 432q-20 10 -40 16.5t-51 6.5q-27 0 -53 -6.5t-47.5 -20t-36 -33t-18.5 -46.5l-28 -193
q-7 -49 22 -71.5t76 -22.5q38 0 71.5 17t57.5 38z" />
    <glyph glyph-name="b" unicode="b" horiz-adv-x="511" 
d="M168 496q32 20 62.5 26t62.5 6q38 0 72.5 -11.5t59 -33t37.5 -54t7 -74.5l-26 -193q-6 -43 -27.5 -75.5t-52 -54t-68 -32t-74.5 -10.5q-50 0 -99.5 10t-98.5 27l94 673h80zM110 80q29 -9 59.5 -12t61.5 -3q22 0 44 6.5t40 19t31 30.5t16 42l29 198q3 23 -4.5 40.5
t-22.5 29t-36 17.5t-43 6q-29 0 -61 -6.5t-63 -17.5z" />
    <glyph glyph-name="c" unicode="c" horiz-adv-x="466" 
d="M376 401q-11 27 -41.5 40t-65.5 13q-23 0 -45 -6t-40.5 -17.5t-31 -29t-16.5 -41.5l-31 -204q-3 -23 4.5 -40t23 -28.5t36 -17t43.5 -5.5q39 0 76.5 20t55.5 62l71 -29q-16 -32 -39.5 -56t-52 -40t-59.5 -24t-61 -8q-37 0 -71.5 11t-59.5 32.5t-37.5 54t-6.5 76.5l27 190
q6 43 28 76t53.5 54.5t69 32.5t74.5 11q55 0 102 -26t69 -78l-69 -33z" />
    <glyph glyph-name="d" unicode="d" horiz-adv-x="511" 
d="M410 27q-54 -17 -106 -27t-102 -10q-37 1 -71 11.5t-59 32t-37.5 53.5t-6.5 75l26 194q6 42 27.5 74t53 54t69 33t75.5 11q33 0 62 -8.5t54 -22.5l29 203h80zM212 65q30 0 62.5 3t63.5 12l48 350q-28 11 -58.5 17.5t-59.5 6.5q-23 0 -45 -6t-40.5 -17.5t-31 -29
t-15.5 -40.5l-26 -197q-3 -23 4.5 -41.5t21.5 -31t34 -19.5t42 -7z" />
    <glyph glyph-name="e" unicode="e" horiz-adv-x="482" 
d="M401 81q-45 -53 -95 -72t-103 -19q-37 0 -71.5 10.5t-59.5 32.5t-38 54t-7 76l26 184q6 45 28 79t53.5 56.5t69.5 34t76 11.5q37 0 71.5 -11t59 -33.5t37 -55.5t6.5 -77q-6 -43 -24.5 -71.5t-45.5 -45.5t-61 -24t-70 -7q-35 0 -67 4t-70 15l-10 -66q-3 -24 5.5 -41
t24.5 -28.5t37 -16.5t42 -5q16 0 31.5 2t30.5 7.5t31 16t34 27.5zM125 289q32 -11 61 -15.5t63 -4.5q22 0 42.5 3t37.5 12t28.5 26t15.5 44t-3 46t-22 31t-36 17.5t-43 5.5q-23 0 -45.5 -7t-41 -20.5t-31.5 -33.5t-17 -45z" />
    <glyph glyph-name="f" unicode="f" horiz-adv-x="271" 
d="M-35 -119q26 17 37 41t14 46l81 574q6 43 25.5 75.5t48.5 54t66 32.5t78 11l-11 -81q-49 0 -84 -23.5t-41 -68.5l-5 -38h105l-10 -74h-105l-66 -462q-7 -48 -33 -84.5t-64 -61.5z" />
    <glyph glyph-name="g" unicode="g" horiz-adv-x="506" 
d="M65 -69q14 -21 47.5 -35.5t67.5 -14.5q23 0 46 5.5t42 16.5t32.5 28.5t16.5 41.5l7 44q-28 -17 -59.5 -22t-61.5 -5q-38 0 -72.5 11t-59 33t-37 54.5t-6.5 74.5l28 195q6 42 27 74t51.5 53.5t67 32t73.5 10.5q65 0 112.5 -12t82.5 -29l-74 -514q-6 -44 -27.5 -75
t-51.5 -51.5t-66.5 -30t-73.5 -9.5q-51 0 -97 19t-75 57zM383 438q-20 9 -47 14.5t-55 5.5q-26 0 -50.5 -5t-44.5 -17t-33.5 -31t-17.5 -47l-30 -198q-3 -23 3.5 -41t20.5 -30.5t34.5 -19.5t44.5 -7q59 0 123 23z" />
    <glyph glyph-name="h" unicode="h" 
d="M170 498q27 14 60 22t63 8q38 0 72 -11t59 -33t37.5 -54t6.5 -74l-49 -356h-79l50 364q3 23 -5 40t-23 28t-35.5 16.5t-42.5 5.5q-31 0 -61 -4.5t-62 -16.5l-60 -433h-80l98 698h80z" />
    <glyph glyph-name="i" unicode="i" horiz-adv-x="208" 
d="M99 662q3 24 22 40t42 16q24 0 37.5 -16t10.5 -40q-4 -23 -22 -39.5t-42 -16.5q-23 0 -37.5 16.5t-10.5 39.5zM173 518l-72 -518h-80l72 518h80z" />
    <glyph glyph-name="j" unicode="j" horiz-adv-x="208" 
d="M100 661q3 24 22 40t42 16q24 0 37.5 -16t10.5 -40q-3 -23 -21.5 -39.5t-42.5 -16.5q-23 0 -37 16.5t-11 39.5zM-87 -98q24 -4 43 1.5t32 18t21 30.5t11 39l74 528h80l-74 -528q-6 -40 -22 -72.5t-41.5 -55.5t-59.5 -34t-76 -7z" />
    <glyph glyph-name="k" unicode="k" horiz-adv-x="497" 
d="M411 518h106l-267 -236l190 -282h-92l-158 229l-65 -58l-24 -171h-80l98 698h80l-59 -420z" />
    <glyph glyph-name="l" unicode="l" horiz-adv-x="241" 
d="M192 -10q-85 0 -124 44.5t-28 124.5l74 540h80l-74 -540q-6 -43 13.5 -66t69.5 -23z" />
    <glyph glyph-name="m" unicode="m" horiz-adv-x="795" 
d="M87 483q39 20 87.5 32.5t95.5 12.5q43 0 82.5 -13t65.5 -44q33 30 73 43.5t77 13.5q40 0 74.5 -10t58.5 -31t35.5 -53t5.5 -77l-51 -358h-80l53 364q4 27 -3 45t-21.5 28.5t-34.5 14t-42 3.5q-18 0 -37.5 -4.5t-36 -13.5t-28 -22.5t-14.5 -31.5l-56 -383h-78l53 372
q3 20 -4.5 35.5t-22 26t-34.5 16t-41 5.5q-29 0 -57 -7t-47 -19l-61 -429h-80z" />
    <glyph glyph-name="n" unicode="n" horiz-adv-x="519" 
d="M87 485q52 17 105.5 30t102.5 13q37 0 70.5 -10.5t58 -31.5t36.5 -53t6 -75l-49 -358h-79l50 361q3 24 -4.5 41.5t-22.5 29t-35 17t-41 5.5q-35 0 -68.5 -7.5t-56.5 -15.5l-60 -431h-80z" />
    <glyph glyph-name="o" unicode="o" horiz-adv-x="496" 
d="M55 355q6 43 28 75.5t53 54t68.5 32.5t75.5 11q37 0 71.5 -11t59.5 -32.5t37.5 -54t6.5 -75.5l-27 -192q-6 -44 -27.5 -76t-52.5 -53.5t-68.5 -32.5t-74.5 -11q-38 0 -72.5 11t-59.5 32.5t-38 53.5t-7 76zM269 454q-22 0 -44 -6.5t-41 -19t-32 -31t-17 -42.5l-29 -196
q-4 -24 4.5 -42t24 -29.5t36.5 -17t43 -5.5q21 0 43 5.5t40.5 17t31.5 29.5t17 42l29 196q4 24 -4.5 42.5t-24 31t-36 19t-41.5 6.5z" />
    <glyph glyph-name="p" unicode="p" horiz-adv-x="511" 
d="M88 491q54 17 106.5 27t102.5 10q37 0 70.5 -11t58.5 -32t37.5 -53.5t6.5 -75.5l-26 -192q-6 -42 -27.5 -74.5t-53 -54.5t-69.5 -33t-76 -11q-32 0 -61 5t-55 23l-28 -200h-80zM113 88q27 -11 56.5 -17t60.5 -6q22 0 44.5 6t41.5 18t31.5 29.5t15.5 40.5l26 201
q3 22 -4.5 39.5t-22.5 29.5t-35 18.5t-42 6.5q-31 0 -63 -2t-62 -10z" />
    <glyph glyph-name="q" unicode="q" horiz-adv-x="511" 
d="M328 19q-29 -18 -61 -23.5t-63 -5.5q-38 0 -72.5 11t-59.5 33t-37.5 55t-6.5 75l27 193q6 43 27.5 75.5t52.5 53.5t68 31.5t75 10.5q50 0 99 -9.5t98 -26.5l-95 -673h-80zM389 442q-27 8 -58.5 10t-62.5 2q-22 0 -44 -6.5t-40 -18.5t-31 -30t-16 -41l-30 -201
q-3 -23 4 -40t21.5 -28.5t35.5 -17.5t45 -6q31 0 63 6t62 17z" />
    <glyph glyph-name="r" unicode="r" horiz-adv-x="312" 
d="M318 450q-11 2 -22 3t-22 1q-48 0 -84 -23.5t-43 -71.5l-49 -359h-80l50 360q6 48 28 80t52.5 51.5t65.5 28t68 8.5q24 0 47 -5z" />
    <glyph glyph-name="s" unicode="s" horiz-adv-x="445" 
d="M65 137q21 -39 59.5 -55.5t78.5 -16.5q18 0 35.5 4.5t32.5 14t25.5 24t13.5 34.5q3 21 -4.5 35t-21 23t-31.5 14.5t-35 8.5q-31 6 -62 15t-54.5 26.5t-36.5 44.5t-7 69q6 41 27.5 69.5t51 46.5t64 26t66.5 8q41 0 80 -15t68 -47l-59 -57q-20 25 -45.5 35t-52.5 10
q-17 0 -36.5 -2.5t-37 -10t-30 -21t-15.5 -35.5q-2 -20 8 -34.5t26 -25t35 -16.5t36 -9q30 -6 58 -17t49 -29.5t32 -46.5t6 -67q-6 -39 -24.5 -67t-45.5 -46.5t-60 -27.5t-66 -9q-62 0 -113 24t-80 84z" />
    <glyph glyph-name="t" unicode="t" horiz-adv-x="283" 
d="M228 -10q-47 -6 -84.5 3t-62.5 31.5t-36.5 56t-5.5 77.5l69 487h79l-19 -127h106l-11 -75h-106l-39 -285q-3 -22 3.5 -42.5t21.5 -35t38.5 -21t55.5 -0.5z" />
    <glyph glyph-name="u" unicode="u" 
d="M420 29q-38 -13 -69 -20.5t-56.5 -11.5t-46 -5.5t-36.5 -1.5q-36 0 -70 11t-58.5 32.5t-37 54t-6.5 75.5l50 355h80l-50 -357q-3 -23 4.5 -40.5t22 -30t34.5 -19t42 -6.5q68 0 124 18l61 435h80z" />
    <glyph glyph-name="v" unicode="v" horiz-adv-x="480" 
d="M273 225l144 293h83l-255 -518h-95l-111 518h81l88 -446h2z" />
    <glyph glyph-name="w" unicode="w" horiz-adv-x="714" 
d="M417 507l51 -428h2l54 146l125 293h80l-227 -518h-89l-28 227l-14 170l-60 -174l-87 -223h-97l-84 518h78l46 -293l19 -146h2l160 428h69z" />
    <glyph glyph-name="x" unicode="x" horiz-adv-x="485" 
d="M426 0h-98l-101 195l-156 -195h-98l215 259l-143 259h98l102 -196l155 196h98l-214 -259z" />
    <glyph glyph-name="y" unicode="y" horiz-adv-x="533" 
d="M74 -63q26 -32 59 -42t68 -10q24 0 48 6t44 18t33.5 30t16.5 43l7 40q-30 -20 -64 -26t-66 -6q-42 0 -78 11.5t-60.5 34t-36 56t-5.5 76.5l50 350h82l-51 -360q-3 -24 4.5 -42t22.5 -30t35.5 -18t43.5 -6q31 0 65 7.5t66 19.5l61 429h80l-76 -536q-6 -45 -28 -78
t-53.5 -54.5t-69 -32t-76.5 -10.5q-51 0 -99 20.5t-78 59.5z" />
    <glyph glyph-name="z" unicode="z" horiz-adv-x="467" 
d="M424 518l35 -52l-363 -392h303l-10 -74h-368l-36 51l364 403h-281l4 64h352z" />
    <glyph glyph-name="braceleft" unicode="{" horiz-adv-x="291" 
d="M261 672q-20 0 -25 -16.5t-10 -45.5l-21 -152q-8 -60 -29 -96.5t-38 -53.5q12 -16 23 -52t2 -96l-22 -155q-4 -29 -1 -43.5t23 -14.5h44l-10 -72h-61q-46 0 -66 34t-12 94l19 138q4 25 4.5 49t-4.5 42.5t-16.5 29.5t-31.5 11l10 72q20 0 34.5 11.5t24.5 30t16.5 42.5
t10.5 49l19 138q8 60 38 94t76 34h61l-10 -72h-48z" />
    <glyph glyph-name="bar" unicode="|" horiz-adv-x="204" 
d="M-5 -169l128 911h80l-128 -911h-80z" />
    <glyph glyph-name="braceright" unicode="}" horiz-adv-x="292" 
d="M156 744q46 0 66 -34t12 -94l-19 -138q-4 -25 -4.5 -49t4.5 -42.5t16.5 -30t31.5 -11.5l-10 -72q-20 0 -34.5 -11t-24.5 -29.5t-16.5 -42.5t-10.5 -49l-19 -138q-8 -60 -38 -94t-76 -34h-60l9 72h43q21 0 28 14.5t11 43.5l22 155q8 61 29 97.5t37 52.5q-12 16 -22.5 52
t-1.5 96l21 152q5 29 4 45.5t-21 16.5h-48l10 72h61z" />
    <glyph glyph-name="asciitilde" unicode="~" horiz-adv-x="517" 
d="M474 333q-12 -20 -26.5 -38.5t-33 -32.5t-40.5 -23t-48 -9q-27 0 -49.5 12t-39.5 25q-16 11 -30 19.5t-30 8.5q-23 0 -45.5 -20.5t-44.5 -48.5l-46 43q12 18 27.5 36.5t34 33t40.5 24t48 9.5q32 0 55.5 -12.5t41.5 -26.5q14 -9 27.5 -17.5t24.5 -8.5q24 0 46.5 22
t44.5 50z" />
    <glyph glyph-name="uni00A0" unicode="&#xa0;" horiz-adv-x="212" 
 />
    <glyph glyph-name="exclamdown" unicode="&#xa1;" horiz-adv-x="209" 
d="M186 470q-4 -26 -23 -42.5t-44 -16.5q-26 0 -40 16.5t-10 42.5q3 25 22 41.5t45 16.5q25 0 39 -16.5t11 -41.5zM78 -176h-83l73 522h83z" />
    <glyph glyph-name="cent" unicode="&#xa2;" horiz-adv-x="472" 
d="M373 390q-9 21 -29.5 33.5t-46.5 17.5l-50 -361q29 5 57.5 21.5t43.5 50.5l67 -30q-13 -27 -33.5 -48t-44.5 -36.5t-50.5 -25t-51.5 -13.5l-12 -88h-70l13 89q-31 5 -58.5 18.5t-46.5 34.5t-28 50t-4 67l26 180q5 38 22 68t41.5 51t55.5 33.5t64 16.5l13 90h70l-12 -88
q47 -5 84 -30t57 -71zM109 168q-6 -36 15 -57t53 -29l50 356q-35 -7 -61 -28.5t-31 -59.5z" />
    <glyph glyph-name="sterling" unicode="&#xa3;" horiz-adv-x="525" 
d="M144 336h-98l11 72h98l14 100q5 34 20 71t42.5 68t69.5 51t101 20q41 0 74.5 -16t65.5 -49l-66 -52q-19 23 -39 32.5t-48 9.5q-32 0 -56.5 -12.5t-41.5 -31t-26.5 -40.5t-12.5 -41l-16 -110h156l-11 -72h-156l-38 -261h260l-10 -75h-439l10 75h98z" />
    <glyph glyph-name="currency" unicode="&#xa4;" horiz-adv-x="612" 
d="M93 201q-20 31 -28 68.5t-2 79.5q5 42 24 79.5t47 68.5q-11 12 -23 26.5t-22 25.5l58 55l48 -55q35 24 73 35.5t79 11.5q82 0 140 -47q6 6 15 13.5t17.5 15.5t16.5 15t13 11l43 -55l-61 -52q42 -63 31 -148q-6 -42 -24.5 -79.5t-47.5 -68.5q11 -12 23 -26.5t22 -25.5
l-57 -55l-48 55q-71 -47 -152 -47q-40 0 -76 12t-64 35q-7 -6 -15.5 -13.5t-17.5 -15.5t-16.5 -15t-12.5 -11l-44 55zM140 348q-5 -36 4.5 -67t29.5 -54t48.5 -36.5t63.5 -13.5t68 13.5t59.5 36.5t44.5 54t23 67t-4 68t-29 55.5t-49 37t-64 13.5t-67.5 -13.5t-59 -37
t-45 -55.5t-23.5 -68z" />
    <glyph glyph-name="yen" unicode="&#xa5;" horiz-adv-x="617" 
d="M479 251h-139l-7 -49h155l-25 -69h-140l-19 -133h-82l19 133h-157l25 69h142l7 49h-154l24 69h112l-161 388h96l138 -355l238 355h97l-272 -388h127z" />
    <glyph glyph-name="brokenbar" unicode="&#xa6;" horiz-adv-x="213" 
d="M70 338l50 358h82l-50 -358h-82zM3 -137l51 359h82l-51 -359h-82z" />
    <glyph glyph-name="section" unicode="&#xa7;" horiz-adv-x="476" 
d="M68 32q10 -45 41.5 -66.5t69.5 -21.5q19 0 38.5 5.5t36.5 16t28.5 25.5t14.5 35q3 18 -5 33t-23 27t-35 22.5t-41 21.5q-29 14 -57 29t-49.5 35.5t-32.5 48.5t-5 67q7 46 36.5 76t67.5 49q-26 21 -39 49.5t-8 68.5q6 40 26.5 70t50 50.5t65 31t70.5 10.5q52 0 95.5 -25
t57.5 -83l-79 -40q-9 35 -33 52t-55 17q-19 0 -38 -5.5t-35 -16t-27.5 -26t-14.5 -35.5q-2 -18 5.5 -31.5t21.5 -25.5t33.5 -22.5t40.5 -20.5q28 -14 55 -29t47.5 -35.5t31 -47.5t5.5 -64q-6 -43 -30 -74t-60 -52q23 -21 35.5 -50.5t7.5 -65.5q-6 -41 -26 -73t-49.5 -54
t-65.5 -33.5t-73 -11.5q-64 0 -113.5 32t-66.5 102zM271 190q12 7 24.5 16t23.5 19.5t19 22.5t10 24q2 15 -3.5 28t-14.5 23.5t-20 18t-21 13.5l-60 38q-15 -5 -31 -12.5t-29.5 -17.5t-23 -22.5t-11.5 -28.5q-2 -17 1 -28.5t9.5 -20.5t16.5 -16t21 -13l1 1z" />
    <glyph glyph-name="dieresis" unicode="&#xa8;" horiz-adv-x="281" 
d="M93 824q3 23 20 38t39 15t35 -15t10 -38q-4 -22 -21 -37t-39 -15t-35 15t-9 37zM264 824q3 23 19.5 38t39.5 15q22 0 35 -15t10 -38q-4 -22 -21 -37t-39 -15q-23 0 -35.5 15t-8.5 37z" />
    <glyph glyph-name="copyright" unicode="&#xa9;" horiz-adv-x="815" 
d="M47 349q10 76 48.5 142.5t95.5 116t127.5 78.5t146.5 29t138.5 -29t105 -78.5t62 -116t9.5 -142.5q-11 -76 -49 -142.5t-95 -116t-127.5 -78.5t-146.5 -29t-138.5 29t-105.5 78.5t-62.5 116t-8.5 142.5zM124 349q-9 -60 6.5 -112.5t49.5 -92t83.5 -62.5t109.5 -23
t115.5 23t100.5 62.5t75 92t39 112.5q8 60 -7.5 113t-49 92t-83 62t-109.5 23t-116 -23t-101 -62t-75 -92t-38 -113zM540 445l-5 9q-10 25 -38.5 36.5t-61.5 11.5q-21 0 -42 -5t-38 -16t-29 -27.5t-15 -38.5l-20 -142q-3 -22 4.5 -38t21.5 -26.5t33.5 -16t40.5 -5.5
q36 0 71.5 19t52.5 58l63 -33q-14 -30 -36.5 -52.5t-49 -37t-55.5 -21.5t-57 -7q-35 0 -67 10t-55.5 30t-35.5 50.5t-6 71.5l20 140q6 41 26.5 71.5t49.5 50.5t64 30t70 10q51 0 95 -24t65 -72z" />
    <glyph glyph-name="ordfeminine" unicode="&#xaa;" horiz-adv-x="383" 
d="M289 592q3 21 -16 33.5t-43 12.5q-20 0 -44.5 -9.5t-44.5 -30.5l-43 46q35 34 73.5 50t72.5 16q26 0 50 -7.5t41.5 -22.5t26 -37.5t4.5 -52.5l-32 -228q-43 -14 -81 -19t-73 -4q-56 1 -89.5 32t-25.5 91q5 34 20.5 55.5t38 33.5t49 16.5t54.5 4.5q31 0 57 -15zM276 505
q-13 3 -28 5.5t-31 2.5q-26 0 -47.5 -11.5t-26.5 -39.5q-3 -26 11 -40t37 -15q17 0 35 1.5t37 3.5z" />
    <glyph glyph-name="guillemotleft" unicode="&#xab;" horiz-adv-x="445" 
d="M264 462l-139 -169q22 -41 46.5 -84.5t45.5 -84.5l-75 -41l-112 210l171 211zM423 462l-138 -169q22 -41 46 -84.5t45 -84.5l-75 -41l-111 210l170 211z" />
    <glyph glyph-name="logicalnot" unicode="&#xac;" horiz-adv-x="595" 
d="M67 405h479l-34 -244h-79l23 165h-400z" />
    <glyph glyph-name="uni00AD" unicode="&#xad;" horiz-adv-x="361" 
d="M297 202h-261l11 82h261z" />
    <glyph glyph-name="registered" unicode="&#xae;" horiz-adv-x="813" 
d="M47 349q10 76 48.5 142.5t95 116t127 78.5t146.5 29t138.5 -29t105 -78.5t62 -116t9.5 -142.5q-11 -76 -49 -142.5t-95 -116t-127.5 -78.5t-146.5 -29t-138.5 29t-105 78.5t-62 116t-8.5 142.5zM127 349q-9 -59 6 -111t48.5 -90.5t82.5 -61t108 -22.5t114 22.5t99 61
t74 90.5t39 111q8 59 -7 111t-48.5 91t-82 61.5t-107.5 22.5t-114.5 -22.5t-99.5 -61.5t-74 -91t-38 -111zM304 547h150q72 0 104 -32.5t24 -90.5q-8 -54 -38 -83t-68 -40q23 -38 42.5 -73t41.5 -71h-85l-83 140h-51l-20 -141h-72zM401 365q18 0 36 2t33 8t25 17.5t13 31.5
q2 15 -3 25.5t-14.5 17t-22.5 9.5t-26 3h-75l-16 -114h50z" />
    <glyph glyph-name="macron" unicode="&#xaf;" horiz-adv-x="240" 
d="M86 853h236l-12 -74h-236z" />
    <glyph glyph-name="degree" unicode="&#xb0;" horiz-adv-x="359" 
d="M196 426q-29 0 -53 11t-40.5 30t-24 45t-3.5 55t19 54.5t36.5 44.5t49 30t56.5 11t53 -11t40 -30t23.5 -44.5t3.5 -54.5t-19 -54.5t-36.5 -45t-49 -30.5t-55.5 -11zM207 500q27 0 49 19.5t26 46.5t-13 47t-44 20t-49.5 -20t-26.5 -47t13.5 -46.5t44.5 -19.5z" />
    <glyph glyph-name="plusminus" unicode="&#xb1;" horiz-adv-x="547" 
d="M275 605h81l-24 -165h177l-11 -80h-177l-23 -166h-81l23 166h-173l11 80h173zM459 65h-435l11 79h435z" />
    <glyph glyph-name="twosuperior" unicode="&#xb2;" horiz-adv-x="412" 
d="M352 279h-286l-14 53l227 194q28 19 38 40.5t5 40.5t-24 31t-48 12q-19 0 -35.5 -6t-30 -15t-23.5 -19t-15 -19l-56 27q29 54 73 77t95 23q45 0 84 -21.5t52 -65.5q2 -11 2.5 -21.5t-0.5 -20.5q-5 -33 -25 -60t-48 -49h1l-153 -126h192z" />
    <glyph glyph-name="threesuperior" unicode="&#xb3;" horiz-adv-x="397" 
d="M378 595q-3 -23 -18.5 -43.5t-41.5 -33.5q31 -12 45.5 -39.5t9.5 -59.5q-5 -23 -15.5 -44.5t-29.5 -39.5q-29 -28 -68.5 -40t-74.5 -10q-47 2 -82.5 25t-54.5 79l67 31q8 -20 17 -31.5t19.5 -18t22.5 -9t26 -3.5q20 -2 43.5 6t40.5 25q13 17 16 34.5t-3.5 31.5t-22 22
t-39.5 7h-44l8 57h44q31 0 47.5 16.5t17 36t-15 36t-46.5 16.5q-29 0 -48 -10.5t-38 -38.5l-61 28q14 26 32.5 43.5t38.5 28t40.5 15t37.5 5.5q25 1 50.5 -5.5t44.5 -21t29 -38.5t6 -57z" />
    <glyph glyph-name="acute" unicode="&#xb4;" horiz-adv-x="213" 
d="M8 756l99 136h108l-121 -136h-86z" />
    <glyph glyph-name="mu" unicode="&#xb5;" horiz-adv-x="522" 
d="M347 65q-27 -35 -67 -55t-85 -20q-58 0 -93 32l-34 -238h-83l104 734h84l-46 -324q-3 -24 -2.5 -47.5t8.5 -41.5t25.5 -29t47.5 -11q28 0 54.5 10.5t48.5 31t37 52t21 73.5l41 286h84l-72 -520h-81z" />
    <glyph glyph-name="paragraph" unicode="&#xb6;" horiz-adv-x="567" 
d="M235 252q-54 2 -91.5 21.5t-60.5 50.5t-31.5 69.5t-2.5 78.5q6 42 27 83t56 72.5t83.5 51t110.5 19.5h229l-115 -818h-82l104 746h-92l-104 -746h-83z" />
    <glyph glyph-name="periodcentered" unicode="&#xb7;" horiz-adv-x="225" 
d="M55 315q3 25 22 42t45 17q25 0 39 -17t11 -42q-4 -25 -23 -42t-44 -17q-26 0 -40 17t-10 42z" />
    <glyph glyph-name="cedilla" unicode="&#xb8;" horiz-adv-x="240" 
d="M135 -61q37 0 59 -22.5t17 -60.5q-3 -26 -16.5 -44t-32.5 -29.5t-41 -17t-43 -5.5q-22 0 -43.5 7t-43.5 18l31 54q20 -11 33 -14t30 -3q23 0 36 10.5t16 23.5t-5 23.5t-26 10.5q-8 0 -17.5 -1.5t-18.5 -6.5l-13 15l54 103h56z" />
    <glyph glyph-name="onesuperior" unicode="&#xb9;" horiz-adv-x="256" 
d="M59 583l125 125h65l-60 -434h-74l45 322l-52 -58z" />
    <glyph glyph-name="ordmasculine" unicode="&#xba;" horiz-adv-x="411" 
d="M208 332q-29 0 -56 8t-47 24.5t-30.5 41.5t-5.5 58l15 110q5 33 22.5 57.5t42 41t54 25t58.5 8.5t56.5 -8.5t47.5 -25t30.5 -41t5.5 -57.5l-15 -110q-5 -33 -22.5 -58t-42 -41.5t-54.5 -24.5t-59 -8zM144 464q-2 -17 4 -28t17 -17.5t25.5 -9.5t28.5 -3q15 0 30 3t28 9.5
t22.5 17.5t11.5 28l15 110q2 16 -4 27.5t-17 18t-25.5 9.5t-29.5 3q-29 0 -57.5 -12.5t-33.5 -45.5z" />
    <glyph glyph-name="guillemotright" unicode="&#xbb;" horiz-adv-x="449" 
d="M17 123l140 170q-23 41 -47 84.5t-46 84.5l75 42l113 -211l-172 -210zM181 123l139 170q-23 41 -46.5 84.5t-45.5 84.5l75 42l112 -211l-171 -210z" />
    <glyph glyph-name="onequarter" unicode="&#xbc;" horiz-adv-x="722" 
d="M105 -37l-60 40l549 732l61 -40zM191 274h-74l47 322l-52 -58l-49 45l125 125h65zM668 446l-38 -275h39l-10 -71h-39l-15 -102h-75l15 102h-190l-34 61l276 285h71zM424 171h131l26 165z" />
    <glyph glyph-name="onehalf" unicode="&#xbd;" horiz-adv-x="779" 
d="M93 -37l-59 40l549 732l60 -40zM192 274h-74l46 322l-52 -58l-49 45l125 125h65zM669 199l-153 -124h192l-10 -75h-286l-15 53l227 192q28 19 38 40.5t5 40.5t-23.5 31t-48.5 12q-19 0 -35.5 -6t-30 -15t-23.5 -19t-15 -19l-56 27q29 54 73 77t95 23q45 0 84 -21.5
t53 -65.5q4 -21 1 -42q-5 -33 -24.5 -60t-48.5 -49h1z" />
    <glyph glyph-name="threequarters" unicode="&#xbe;" horiz-adv-x="805" 
d="M189 -37l-59 40l549 732l60 -40zM366 585q-3 -23 -18.5 -43.5t-41.5 -33.5q31 -12 45.5 -39.5t9.5 -59.5q-5 -23 -15.5 -44.5t-29.5 -39.5q-29 -28 -68.5 -40t-74.5 -10q-42 2 -79 23t-50 61l-8 20l70 32l9 -20q6 -20 28 -30.5t45 -12.5q20 -2 43.5 6t40.5 25v-1
q12 17 15 34.5t-3.5 32t-22 22.5t-38.5 7h-44l8 57h44q15 1 29 9.5t23.5 20.5t11.5 26.5t-7 27.5q-8 11 -23 16t-31 5q-23 0 -44 -9t-33 -26l-9 -14l-61 28q14 26 32.5 43.5t38.5 28t40.5 15t37.5 5.5q32 1 63 -10q14 -5 27.5 -13t21.5 -19q12 -17 16.5 -38t1.5 -42z
M683 446h71l-38 -275h39l-10 -71h-39l-15 -102h-75l15 102h-190l-34 61zM667 336l-157 -165h131z" />
    <glyph glyph-name="questiondown" unicode="&#xbf;" horiz-adv-x="486" 
d="M349 474q-4 -23 -21.5 -38.5t-40.5 -15.5t-36.5 15.5t-9.5 38.5q3 23 20.5 38.5t40.5 15.5t36.5 -15.5t10.5 -38.5zM397 -112q-41 -44 -96 -66t-112 -22q-44 0 -83.5 13t-68 39.5t-43 65.5t-6.5 90q7 50 28 87t52 63.5t69.5 44t80.5 28.5q7 38 13.5 70.5t13.5 69.5h71
l-24 -209q-38 0 -75.5 -11.5t-68.5 -32t-51.5 -49t-24.5 -63.5q-4 -32 5.5 -55t28 -39t43.5 -23.5t53 -7.5q38 0 78 17t72 50l56 -49z" />
    <glyph glyph-name="Agrave" unicode="&#xc0;" horiz-adv-x="615" 
d="M366 892l65 -136h-87l-89 136h111zM571 0h-88l-51 227h-273l-111 -227h-89l353 708h102zM350 618q-38 -78 -74.5 -152.5t-76.5 -154.5h216z" />
    <glyph glyph-name="Aacute" unicode="&#xc1;" horiz-adv-x="615" 
d="M294 756l99 136h108l-121 -136h-86zM571 0h-88l-51 227h-273l-111 -227h-89l353 708h102zM350 618q-38 -78 -74.5 -152.5t-76.5 -154.5h216z" />
    <glyph glyph-name="Acircumflex" unicode="&#xc2;" horiz-adv-x="615" 
d="M536 756h-95l-59 69l-75 -69h-101l146 136h76zM571 0h-88l-51 227h-273l-111 -227h-89l353 708h102zM350 618q-38 -78 -74.5 -152.5t-76.5 -154.5h216z" />
    <glyph glyph-name="Atilde" unicode="&#xc3;" horiz-adv-x="615" 
d="M220 785q13 45 37 68t57 25q18 1 31.5 -5.5t25 -15t22 -15.5t22.5 -7q8 0 19.5 9.5t16.5 27.5l58 -21q-11 -45 -36.5 -66.5t-54.5 -23.5q-17 -2 -31 5t-26 16t-23.5 16.5t-22.5 6.5t-21.5 -10.5t-18.5 -29.5zM571 0h-88l-51 227h-273l-111 -227h-89l353 708h102zM350 618
q-38 -78 -74.5 -152.5t-76.5 -154.5h216z" />
    <glyph glyph-name="Adieresis" unicode="&#xc4;" horiz-adv-x="615" 
d="M250 824q3 23 20 38t39 15t35 -15t10 -38q-4 -22 -21 -37t-39 -15t-35 15t-9 37zM421 824q3 23 19.5 38t39.5 15q22 0 35 -15t10 -38q-4 -22 -21 -37t-39 -15q-23 0 -35.5 15t-8.5 37zM571 0h-88l-51 227h-273l-111 -227h-89l353 708h102zM350 618q-38 -78 -74.5 -152.5
t-76.5 -154.5h216z" />
    <glyph glyph-name="Aring" unicode="&#xc5;" horiz-adv-x="615" 
d="M483 0l-51 227h-273q-27 -56 -56 -113.5t-55 -113.5h-89l352 707q-23 14 -34.5 39t-6.5 54q3 22 14 41.5t27.5 34t37 23t42.5 8.5t40 -9t30 -24t17.5 -34.5t2.5 -40.5q-4 -29 -22.5 -53.5t-44.5 -38.5l157 -707h-88zM331 799q-4 -20 7.5 -34t30.5 -14q20 0 34.5 14.5
t17.5 34.5t-7.5 34t-30.5 14t-34.5 -14.5t-17.5 -34.5zM350 618q-38 -78 -74.5 -152.5t-76.5 -154.5h216z" />
    <glyph glyph-name="AE" unicode="&#xc6;" horiz-adv-x="802" 
d="M515 624l-32 -229h261l-12 -83h-261l-32 -228h290l-11 -84h-374l31 227h-184l-144 -227h-96l460 708h406l-12 -84h-290zM436 625l-199 -322h149z" />
    <glyph glyph-name="Ccedilla" unicode="&#xc7;" horiz-adv-x="594" 
d="M288 74q55 0 108 23.5t84 71.5l70 -35q-40 -63 -103 -98.5t-132 -43.5l-28 -53q37 0 59 -22.5t17 -60.5q-3 -26 -16.5 -44t-32.5 -29.5t-41 -17t-43 -5.5q-22 0 -43.5 7t-43.5 18l31 54q20 -11 33 -14t30 -3q23 0 36 10.5t16 23.5t-5 23.5t-26 10.5q-8 0 -17.5 -1.5
t-18.5 -6.5l-13 15l49 94q-47 2 -89.5 17t-73 42.5t-46 67.5t-8.5 93l39 286q7 55 36 96t71 69t92.5 42t101.5 14q38 0 74.5 -8.5t67 -26.5t53.5 -44.5t35 -62.5l-80 -38q-18 48 -64.5 72t-100.5 24q-34 0 -68 -8.5t-62 -25.5t-47.5 -43t-24.5 -60l-39 -286q-5 -35 7 -60.5
t35.5 -42.5t55 -25.5t65.5 -8.5z" />
    <glyph glyph-name="Egrave" unicode="&#xc8;" horiz-adv-x="570" 
d="M360 892l65 -136h-87l-89 136h111zM170 396h341l-12 -84h-341l-32 -228h370l-11 -84h-454l99 708h454l-12 -84h-370z" />
    <glyph glyph-name="Eacute" unicode="&#xc9;" horiz-adv-x="570" 
d="M288 756l99 136h108l-121 -136h-86zM170 396h341l-12 -84h-341l-32 -228h370l-11 -84h-454l99 708h454l-12 -84h-370z" />
    <glyph glyph-name="Ecircumflex" unicode="&#xca;" horiz-adv-x="570" 
d="M170 396h341l-12 -84h-341l-32 -228h370l-11 -84h-454l99 708h454l-12 -84h-370z" />
    <glyph glyph-name="Edieresis" unicode="&#xcb;" horiz-adv-x="570" 
d="M244 824q3 23 20 38t39 15t35 -15t10 -38q-4 -22 -21 -37t-39 -15t-35 15t-9 37zM415 824q3 23 19.5 38t39.5 15q22 0 35 -15t10 -38q-4 -22 -21 -37t-39 -15q-23 0 -35.5 15t-8.5 37zM170 396h341l-12 -84h-341l-32 -228h370l-11 -84h-454l99 708h454l-12 -84h-370z" />
    <glyph glyph-name="Igrave" unicode="&#xcc;" horiz-adv-x="231" 
d="M177 892l65 -136h-87l-89 136h111zM114 0h-83l99 708h83z" />
    <glyph glyph-name="Iacute" unicode="&#xcd;" horiz-adv-x="231" 
d="M105 756l99 136h108l-121 -136h-86zM114 0h-83l99 708h83z" />
    <glyph glyph-name="Icircumflex" unicode="&#xce;" horiz-adv-x="231" 
d="M347 756h-95l-59 69l-75 -69h-101l146 136h76zM114 0h-83l99 708h83z" />
    <glyph glyph-name="Idieresis" unicode="&#xcf;" horiz-adv-x="231" 
d="M56 824q3 23 20 38t39 15t35 -15t10 -38q-4 -22 -21 -37t-39 -15t-35 15t-9 37zM216 824q3 23 19.5 38t39.5 15q22 0 35 -15t10 -38q-4 -22 -21 -37t-39 -15q-23 0 -35.5 15t-8.5 37zM114 0h-83l99 708h83z" />
    <glyph glyph-name="Eth" unicode="&#xd0;" horiz-adv-x="642" 
d="M135 708h241q50 0 96.5 -12t80.5 -38t51.5 -66.5t9.5 -96.5l-40 -283q-8 -56 -36.5 -96t-69.5 -66t-91 -38t-100 -12h-241l43 311h-60l11 78h60zM288 84q34 0 68.5 7t62.5 22.5t47.5 39.5t24.5 59l40 283q5 35 -7.5 59.5t-36.5 40t-56.5 22.5t-66.5 7h-157l-33 -235h120
l-11 -78h-120l-32 -227h157z" />
    <glyph glyph-name="Ntilde" unicode="&#xd1;" horiz-adv-x="686" 
d="M256 785q13 45 37 68t57 25q18 1 31.5 -5.5t25 -15t22 -15.5t22.5 -7q8 0 19.5 9.5t16.5 27.5l58 -21q-11 -45 -36.5 -66.5t-54.5 -23.5q-17 -2 -31 5t-26 16t-23.5 16.5t-22.5 6.5t-21.5 -10.5t-18.5 -29.5zM584 708h84l-99 -708h-101l-274 568l-79 -568h-84l99 708h90
l282 -593z" />
    <glyph glyph-name="Ograve" unicode="&#xd2;" horiz-adv-x="671" 
d="M395 902l65 -136h-87l-89 136h111zM78 496q7 55 37.5 97t74 69.5t96.5 41.5t106 14t101.5 -14t84.5 -41.5t54.5 -69.5t11.5 -97l-38 -283q-8 -56 -38 -97.5t-73.5 -69.5t-96.5 -42t-106 -14t-102 14t-85 42t-54.5 69.5t-10.5 97.5zM123 213q-5 -35 9 -61t39.5 -43.5
t60 -26.5t72.5 -9q37 0 74.5 9t68 26.5t51 43.5t25.5 61l38 283q5 37 -8.5 63t-39.5 42.5t-61 24.5t-72 8q-38 0 -75 -8.5t-67.5 -25t-51 -42.5t-25.5 -62z" />
    <glyph glyph-name="Oacute" unicode="&#xd3;" horiz-adv-x="671" 
d="M323 766l99 136h108l-121 -136h-86zM78 496q7 55 37.5 97t74 69.5t96.5 41.5t106 14t101.5 -14t84.5 -41.5t54.5 -69.5t11.5 -97l-38 -283q-8 -56 -38 -97.5t-73.5 -69.5t-96.5 -42t-106 -14t-102 14t-85 42t-54.5 69.5t-10.5 97.5zM123 213q-5 -35 9 -61t39.5 -43.5
t60 -26.5t72.5 -9q37 0 74.5 9t68 26.5t51 43.5t25.5 61l38 283q5 37 -8.5 63t-39.5 42.5t-61 24.5t-72 8q-38 0 -75 -8.5t-67.5 -25t-51 -42.5t-25.5 -62z" />
    <glyph glyph-name="Ocircumflex" unicode="&#xd4;" horiz-adv-x="671" 
d="M565 766h-95l-59 69l-75 -69h-101l146 136h76zM78 496q7 55 37.5 97t74 69.5t96.5 41.5t106 14t101.5 -14t84.5 -41.5t54.5 -69.5t11.5 -97l-38 -283q-8 -56 -38 -97.5t-73.5 -69.5t-96.5 -42t-106 -14t-102 14t-85 42t-54.5 69.5t-10.5 97.5zM123 213q-5 -35 9 -61
t39.5 -43.5t60 -26.5t72.5 -9q37 0 74.5 9t68 26.5t51 43.5t25.5 61l38 283q5 37 -8.5 63t-39.5 42.5t-61 24.5t-72 8q-38 0 -75 -8.5t-67.5 -25t-51 -42.5t-25.5 -62z" />
    <glyph glyph-name="Otilde" unicode="&#xd5;" horiz-adv-x="671" 
d="M249 795q13 45 37 68t57 25q18 1 31.5 -5.5t25 -15t22 -15.5t22.5 -7q8 0 19.5 9.5t16.5 27.5l58 -21q-11 -45 -36.5 -66.5t-54.5 -23.5q-17 -2 -31 5t-26 16t-23.5 16.5t-22.5 6.5t-21.5 -10.5t-18.5 -29.5zM78 496q7 55 37.5 97t74 69.5t96.5 41.5t106 14t101.5 -14
t84.5 -41.5t54.5 -69.5t11.5 -97l-38 -283q-8 -56 -38 -97.5t-73.5 -69.5t-96.5 -42t-106 -14t-102 14t-85 42t-54.5 69.5t-10.5 97.5zM123 213q-5 -35 9 -61t39.5 -43.5t60 -26.5t72.5 -9q37 0 74.5 9t68 26.5t51 43.5t25.5 61l38 283q5 37 -8.5 63t-39.5 42.5t-61 24.5
t-72 8q-38 0 -75 -8.5t-67.5 -25t-51 -42.5t-25.5 -62z" />
    <glyph glyph-name="Odieresis" unicode="&#xd6;" horiz-adv-x="671" 
d="M279 834q3 23 20 38t39 15t35 -15t10 -38q-4 -22 -21 -37t-39 -15t-35 15t-9 37zM450 834q3 23 19.5 38t39.5 15q22 0 35 -15t10 -38q-4 -22 -21 -37t-39 -15q-23 0 -35.5 15t-8.5 37zM78 496q7 55 37.5 97t74 69.5t96.5 41.5t106 14t101.5 -14t84.5 -41.5t54.5 -69.5
t11.5 -97l-38 -283q-8 -56 -38 -97.5t-73.5 -69.5t-96.5 -42t-106 -14t-102 14t-85 42t-54.5 69.5t-10.5 97.5zM123 213q-5 -35 9 -61t39.5 -43.5t60 -26.5t72.5 -9q37 0 74.5 9t68 26.5t51 43.5t25.5 61l38 283q5 37 -8.5 63t-39.5 42.5t-61 24.5t-72 8q-38 0 -75 -8.5
t-67.5 -25t-51 -42.5t-25.5 -62z" />
    <glyph glyph-name="multiply" unicode="&#xd7;" horiz-adv-x="506" 
d="M435 509l48 -57l-171 -151l128 -149l-65 -58l-129 150l-176 -154l-48 58l174 152l-134 155l65 57l135 -156z" />
    <glyph glyph-name="Oslash" unicode="&#xd8;" horiz-adv-x="671" 
d="M554 679q47 -27 73 -72.5t17 -110.5l-38 -283q-8 -56 -38 -97.5t-73.5 -69.5t-96.5 -42t-106 -14q-52 0 -102 14l-43 -81l-54 27l41 77q-49 27 -76 73.5t-18 112.5l38 283q7 55 37.5 97t74 69.5t96.5 41.5t106 14q56 0 106 -15l44 81l54 -24q-2 -4 -13 -25t-29 -56z
M123 213q-5 -37 10 -64t44 -44l280 520q-36 9 -77 9q-38 0 -75 -8.5t-67.5 -25t-51 -42.5t-25.5 -62zM561 496q5 37 -9 63t-40 43q-30 -56 -66 -123t-73.5 -137t-74 -137t-66.5 -123q33 -9 72 -9q37 0 74.5 9t68 26.5t51 43.5t25.5 61z" />
    <glyph glyph-name="Ugrave" unicode="&#xd9;" horiz-adv-x="675" 
d="M397 892l65 -136h-87l-89 136h111zM141 216q-5 -36 7 -62.5t35.5 -44.5t55.5 -26.5t67 -8.5q34 0 69 8.5t63.5 26.5t48 44.5t24.5 62.5l67 492h84l-67 -492q-8 -56 -36.5 -98.5t-70.5 -71t-92.5 -42.5t-100.5 -14q-51 0 -97 14t-80 42.5t-51.5 71t-9.5 98.5l67 492h84z
" />
    <glyph glyph-name="Uacute" unicode="&#xda;" horiz-adv-x="675" 
d="M325 756l99 136h108l-121 -136h-86zM141 216q-5 -36 7 -62.5t35.5 -44.5t55.5 -26.5t67 -8.5q34 0 69 8.5t63.5 26.5t48 44.5t24.5 62.5l67 492h84l-67 -492q-8 -56 -36.5 -98.5t-70.5 -71t-92.5 -42.5t-100.5 -14q-51 0 -97 14t-80 42.5t-51.5 71t-9.5 98.5l67 492h84z
" />
    <glyph glyph-name="Ucircumflex" unicode="&#xdb;" horiz-adv-x="675" 
d="M567 756h-95l-59 69l-75 -69h-101l146 136h76zM141 216q-5 -36 7 -62.5t35.5 -44.5t55.5 -26.5t67 -8.5q34 0 69 8.5t63.5 26.5t48 44.5t24.5 62.5l67 492h84l-67 -492q-8 -56 -36.5 -98.5t-70.5 -71t-92.5 -42.5t-100.5 -14q-51 0 -97 14t-80 42.5t-51.5 71t-9.5 98.5
l67 492h84z" />
    <glyph glyph-name="Udieresis" unicode="&#xdc;" horiz-adv-x="675" 
d="M281 824q3 23 20 38t39 15t35 -15t10 -38q-4 -22 -21 -37t-39 -15t-35 15t-9 37zM452 824q3 23 19.5 38t39.5 15q22 0 35 -15t10 -38q-4 -22 -21 -37t-39 -15q-23 0 -35.5 15t-8.5 37zM141 216q-5 -36 7 -62.5t35.5 -44.5t55.5 -26.5t67 -8.5q34 0 69 8.5t63.5 26.5
t48 44.5t24.5 62.5l67 492h84l-67 -492q-8 -56 -36.5 -98.5t-70.5 -71t-92.5 -42.5t-100.5 -14q-51 0 -97 14t-80 42.5t-51.5 71t-9.5 98.5l67 492h84z" />
    <glyph glyph-name="Yacute" unicode="&#xdd;" horiz-adv-x="576" 
d="M276 756l99 136h108l-121 -136h-86zM203 0l38 276q-45 104 -92.5 216.5t-92.5 215.5h97l144 -343q59 85 119 171.5t119 171.5h98l-308 -432l-38 -276h-84z" />
    <glyph glyph-name="Thorn" unicode="&#xde;" horiz-adv-x="610" 
d="M130 708h83l-18 -129h188q60 0 102 -19.5t67.5 -51.5t34.5 -73t3 -83q-6 -43 -26.5 -83.5t-55 -72t-82 -51t-106.5 -19.5h-188l-18 -126h-83zM331 210q39 0 70 12t53.5 32t35.5 45.5t17 52.5t-2.5 52.5t-23 46t-44 32.5t-66.5 12h-188l-40 -285h188z" />
    <glyph glyph-name="germandbls" unicode="&#xdf;" horiz-adv-x="585" 
d="M251 73q91 0 139.5 35.5t57.5 104.5q5 35 -3 59.5t-27 40.5t-46 23t-60 7h-101l11 80h101q25 0 48.5 7.5t43 21.5t32.5 35.5t17 50.5q4 30 -5.5 50.5t-28.5 33.5t-43.5 18.5t-50.5 5.5t-53 -6.5t-49.5 -20.5t-38 -35.5t-19.5 -51.5l-74 -532h-81l74 532q7 47 31.5 83.5
t59.5 61t77.5 37t84.5 12.5t81 -11.5t67.5 -35t43 -59t7.5 -82.5q-6 -44 -26.5 -83t-58.5 -66q49 -25 63.5 -74.5t6.5 -108.5q-9 -55 -33.5 -95.5t-63 -67.5t-88 -40t-107.5 -13q-23 0 -40 3.5t-29 8.5q-14 5 -24 12l13 85q27 -15 47.5 -20.5t43.5 -5.5z" />
    <glyph glyph-name="agrave" unicode="&#xe0;" horiz-adv-x="515" 
d="M299 712l65 -136h-87l-89 136h111zM335 43q-35 -32 -68 -42.5t-73 -10.5q-35 0 -67.5 9.5t-56.5 30t-36 53t-5 78.5l28 191q7 49 30 83t55.5 54.5t72.5 29.5t81 9q50 0 98.5 -11.5t83.5 -30.5l-68 -486h-70zM388 436q-20 10 -45 14t-54 4q-26 0 -51.5 -4.5t-46.5 -15.5
t-35.5 -29t-18.5 -45l-28 -199q-3 -24 3.5 -42t20.5 -30t33.5 -18t40.5 -6q38 0 74.5 14.5t60.5 35.5z" />
    <glyph glyph-name="aacute" unicode="&#xe1;" horiz-adv-x="515" 
d="M227 576l99 136h108l-121 -136h-86zM335 43q-35 -32 -68 -42.5t-73 -10.5q-35 0 -67.5 9.5t-56.5 30t-36 53t-5 78.5l28 191q7 49 30 83t55.5 54.5t72.5 29.5t81 9q50 0 98.5 -11.5t83.5 -30.5l-68 -486h-70zM388 436q-20 10 -45 14t-54 4q-26 0 -51.5 -4.5t-46.5 -15.5
t-35.5 -29t-18.5 -45l-28 -199q-3 -24 3.5 -42t20.5 -30t33.5 -18t40.5 -6q38 0 74.5 14.5t60.5 35.5z" />
    <glyph glyph-name="acircumflex" unicode="&#xe2;" horiz-adv-x="515" 
d="M469 576h-95l-59 69l-75 -69h-101l146 136h76zM335 43q-35 -32 -68 -42.5t-73 -10.5q-35 0 -67.5 9.5t-56.5 30t-36 53t-5 78.5l28 191q7 49 30 83t55.5 54.5t72.5 29.5t81 9q50 0 98.5 -11.5t83.5 -30.5l-68 -486h-70zM388 436q-20 10 -45 14t-54 4q-26 0 -51.5 -4.5
t-46.5 -15.5t-35.5 -29t-18.5 -45l-28 -199q-3 -24 3.5 -42t20.5 -30t33.5 -18t40.5 -6q38 0 74.5 14.5t60.5 35.5z" />
    <glyph glyph-name="atilde" unicode="&#xe3;" horiz-adv-x="515" 
d="M153 605q13 45 37 68t57 25q18 1 31.5 -5.5t25 -15t22 -15.5t22.5 -7q8 0 19.5 9.5t16.5 27.5l58 -21q-11 -45 -36.5 -66.5t-54.5 -23.5q-17 -2 -31 5t-26 16t-23.5 16.5t-22.5 6.5t-21.5 -10.5t-18.5 -29.5zM335 43q-35 -32 -68 -42.5t-73 -10.5q-35 0 -67.5 9.5
t-56.5 30t-36 53t-5 78.5l28 191q7 49 30 83t55.5 54.5t72.5 29.5t81 9q50 0 98.5 -11.5t83.5 -30.5l-68 -486h-70zM388 436q-20 10 -45 14t-54 4q-26 0 -51.5 -4.5t-46.5 -15.5t-35.5 -29t-18.5 -45l-28 -199q-3 -24 3.5 -42t20.5 -30t33.5 -18t40.5 -6q38 0 74.5 14.5
t60.5 35.5z" />
    <glyph glyph-name="adieresis" unicode="&#xe4;" horiz-adv-x="515" 
d="M183 644q3 23 20 38t39 15t35 -15t10 -38q-4 -22 -21 -37t-39 -15t-35 15t-9 37zM354 644q3 23 19.5 38t39.5 15q22 0 35 -15t10 -38q-4 -22 -21 -37t-39 -15q-23 0 -35.5 15t-8.5 37zM335 43q-35 -32 -68 -42.5t-73 -10.5q-35 0 -67.5 9.5t-56.5 30t-36 53t-5 78.5
l28 191q7 49 30 83t55.5 54.5t72.5 29.5t81 9q50 0 98.5 -11.5t83.5 -30.5l-68 -486h-70zM388 436q-20 10 -45 14t-54 4q-26 0 -51.5 -4.5t-46.5 -15.5t-35.5 -29t-18.5 -45l-28 -199q-3 -24 3.5 -42t20.5 -30t33.5 -18t40.5 -6q38 0 74.5 14.5t60.5 35.5z" />
    <glyph glyph-name="aring" unicode="&#xe5;" horiz-adv-x="515" 
d="M328 774q34 0 54.5 -14t28.5 -35.5t4.5 -46.5t-18 -46.5t-39 -35.5t-58.5 -14t-55 14t-29 35.5t-4.5 46.5t18 46.5t39.5 35.5t59 14zM321 724q-24 0 -38 -14t-17 -31t7 -31t34 -14t38 14t17 31t-7 31t-34 14zM335 43q-35 -32 -68 -42.5t-73 -10.5q-35 0 -67.5 9.5
t-56.5 30t-36 53t-5 78.5l28 191q7 49 30 83t55.5 54.5t72.5 29.5t81 9q50 0 98.5 -11.5t83.5 -30.5l-68 -486h-70zM388 436q-20 10 -45 14t-54 4q-26 0 -51.5 -4.5t-46.5 -15.5t-35.5 -29t-18.5 -45l-28 -199q-3 -24 3.5 -42t20.5 -30t33.5 -18t40.5 -6q38 0 74.5 14.5
t60.5 35.5z" />
    <glyph glyph-name="ae" unicode="&#xe6;" horiz-adv-x="802" 
d="M718 85q-36 -49 -88 -71.5t-105 -22.5q-34 0 -65 10t-56 35l-7 -36h-59l-2 47q-35 -32 -68 -42.5t-73 -10.5q-35 0 -67.5 9.5t-56.5 30t-35.5 53t-5.5 78.5l25 183q7 46 28 80t52 56.5t70 33t82 10.5q45 0 87.5 -14t74.5 -37q32 26 72 38.5t81 12.5q37 0 71.5 -11t59 -33
t37 -55t6.5 -77q-9 -63 -48 -103t-90 -57t-106 -13t-97 29l-6 -44q-3 -24 5 -41.5t23.5 -29.5t36.5 -17.5t42 -5.5q33 0 63 9t61 43zM444 276q24 -16 63.5 -24t78.5 -2t69.5 30t38.5 72q3 25 -4 43.5t-22 30.5t-35 18t-42 6q-23 0 -45.5 -6t-41.5 -19t-32.5 -32t-16.5 -44z
M112 165q-3 -24 3.5 -41.5t20 -28t32.5 -15.5t40 -5q36 0 75.5 12.5t65.5 36.5q-1 9 -0.5 19t2.5 21l26 184q3 17 7.5 33.5t11.5 30.5q-21 16 -51.5 26.5t-67.5 10.5q-54 0 -92 -24.5t-47 -75.5z" />
    <glyph glyph-name="ccedilla" unicode="&#xe7;" horiz-adv-x="466" 
d="M211 65q39 0 76.5 20t55.5 62l71 -29q-26 -54 -74 -85.5t-100 -39.5l-28 -54q37 0 59 -22.5t17 -60.5q-3 -26 -16.5 -44t-32.5 -29.5t-41 -17t-43 -5.5q-22 0 -43.5 7t-43.5 18l31 54q20 -11 33 -14t30 -3q23 0 36 10.5t16 23.5t-5 23.5t-26 10.5q-8 0 -17.5 -1.5
t-18.5 -6.5l-13 15l49 94q-34 3 -65 15t-53 33.5t-33 52.5t-5 72l27 190q6 43 28 76t53.5 54.5t69 32.5t74.5 11q55 0 102 -26t69 -78l-69 -33l-6 10q-11 27 -41.5 40t-65.5 13q-23 0 -45 -6t-40.5 -17.5t-31 -29t-16.5 -41.5l-31 -204q-3 -23 4.5 -40t23 -28.5t36 -17
t43.5 -5.5z" />
    <glyph glyph-name="egrave" unicode="&#xe8;" horiz-adv-x="482" 
d="M283 712l65 -136h-87l-89 136h111zM401 81q-45 -53 -95 -72t-103 -19q-37 0 -71.5 10.5t-59.5 32.5t-38 54t-7 76l26 184q6 45 28 79t53.5 56.5t69.5 34t76 11.5q37 0 71.5 -11t59 -33.5t37 -55.5t6.5 -77q-6 -43 -24.5 -71.5t-45.5 -45.5t-61 -24t-70 -7q-35 0 -67 4
t-70 15l-10 -66q-3 -24 5.5 -41t24.5 -28.5t37 -16.5t42 -5q16 0 31.5 2t30.5 7.5t31 16t34 27.5zM125 289q32 -11 61 -15.5t63 -4.5q22 0 42.5 3t37.5 12t28.5 26t15.5 44t-3 46t-22 31t-36 17.5t-43 5.5q-23 0 -45.5 -7t-41 -20.5t-31.5 -33.5t-17 -45z" />
    <glyph glyph-name="eacute" unicode="&#xe9;" horiz-adv-x="482" 
d="M211 576l99 136h108l-121 -136h-86zM401 81q-45 -53 -95 -72t-103 -19q-37 0 -71.5 10.5t-59.5 32.5t-38 54t-7 76l26 184q6 45 28 79t53.5 56.5t69.5 34t76 11.5q37 0 71.5 -11t59 -33.5t37 -55.5t6.5 -77q-6 -43 -24.5 -71.5t-45.5 -45.5t-61 -24t-70 -7q-35 0 -67 4
t-70 15l-10 -66q-3 -24 5.5 -41t24.5 -28.5t37 -16.5t42 -5q16 0 31.5 2t30.5 7.5t31 16t34 27.5zM125 289q32 -11 61 -15.5t63 -4.5q22 0 42.5 3t37.5 12t28.5 26t15.5 44t-3 46t-22 31t-36 17.5t-43 5.5q-23 0 -45.5 -7t-41 -20.5t-31.5 -33.5t-17 -45z" />
    <glyph glyph-name="ecircumflex" unicode="&#xea;" horiz-adv-x="482" 
d="M453 576h-95l-59 69l-75 -69h-101l146 136h76zM401 81q-45 -53 -95 -72t-103 -19q-37 0 -71.5 10.5t-59.5 32.5t-38 54t-7 76l26 184q6 45 28 79t53.5 56.5t69.5 34t76 11.5q37 0 71.5 -11t59 -33.5t37 -55.5t6.5 -77q-6 -43 -24.5 -71.5t-45.5 -45.5t-61 -24t-70 -7
q-35 0 -67 4t-70 15l-10 -66q-3 -24 5.5 -41t24.5 -28.5t37 -16.5t42 -5q16 0 31.5 2t30.5 7.5t31 16t34 27.5zM125 289q32 -11 61 -15.5t63 -4.5q22 0 42.5 3t37.5 12t28.5 26t15.5 44t-3 46t-22 31t-36 17.5t-43 5.5q-23 0 -45.5 -7t-41 -20.5t-31.5 -33.5t-17 -45z" />
    <glyph glyph-name="edieresis" unicode="&#xeb;" horiz-adv-x="482" 
d="M161 625q3 21 19.5 35t37.5 14t33.5 -14t9.5 -35q-3 -20 -19.5 -34t-37.5 -14t-33.5 14t-9.5 34zM325 625q3 21 19 35t38 14q21 0 33.5 -14t9.5 -35q-3 -20 -19.5 -34t-37.5 -14q-22 0 -34 14t-9 34zM401 81q-45 -53 -95 -72t-103 -19q-37 0 -71.5 10.5t-59.5 32.5
t-38 54t-7 76l26 184q6 45 28 79t53.5 56.5t69.5 34t76 11.5q37 0 71.5 -11t59 -33.5t37 -55.5t6.5 -77q-6 -43 -24.5 -71.5t-45.5 -45.5t-61 -24t-70 -7q-35 0 -67 4t-70 15l-10 -66q-3 -24 5.5 -41t24.5 -28.5t37 -16.5t42 -5q16 0 31.5 2t30.5 7.5t31 16t34 27.5z
M125 289q32 -11 61 -15.5t63 -4.5q22 0 42.5 3t37.5 12t28.5 26t15.5 44t-3 46t-22 31t-36 17.5t-43 5.5q-23 0 -45.5 -7t-41 -20.5t-31.5 -33.5t-17 -45z" />
    <glyph glyph-name="igrave" unicode="&#xec;" horiz-adv-x="213" 
d="M142 702l65 -136h-87l-89 136h111zM105 0h-84l74 518h84z" />
    <glyph glyph-name="iacute" unicode="&#xed;" horiz-adv-x="213" 
d="M70 566l99 136h108l-121 -136h-86zM105 0h-84l74 518h84z" />
    <glyph glyph-name="icircumflex" unicode="&#xee;" horiz-adv-x="213" 
d="M302 566h-95l-49 70l-65 -70h-101l136 136h76zM105 0h-84l74 518h84z" />
    <glyph glyph-name="idieresis" unicode="&#xef;" horiz-adv-x="213" 
d="M31 623q3 23 20 38t39 15t35 -15t10 -38q-4 -22 -21 -37t-39 -15t-35 15t-9 37zM182 623q3 23 19.5 38t39.5 15q22 0 35 -15t10 -38q-4 -22 -21 -37t-39 -15q-23 0 -35.5 15t-8.5 37zM105 0h-84l74 518h84z" />
    <glyph glyph-name="eth" unicode="&#xf0;" horiz-adv-x="505" 
d="M385 695q47 -15 74 -56t18 -102l-73 -505l-65 -19q-35 -9 -72 -16t-71 -7q-36 0 -69.5 11t-58 32.5t-36.5 53.5t-5 74l23 148q7 47 29 80t52 53t66.5 29t73.5 9q31 0 60 -5t56 -17l11 79q4 29 -9.5 50t-39.5 30l-34 -75l-57 19l31 68q-16 0 -33.5 -3.5t-34.5 -11
t-32.5 -17.5t-26.5 -22l-49 53q43 42 97 63.5t115 16.5l28 61l57 -20zM376 383q-57 23 -118 23q-22 0 -43.5 -6t-39 -17t-30 -28.5t-16.5 -40.5l-25 -158q-4 -23 3.5 -40.5t22 -28.5t34.5 -16.5t42 -5.5q35 0 68 7.5t57 16.5z" />
    <glyph glyph-name="ntilde" unicode="&#xf1;" horiz-adv-x="519" 
d="M142 605q13 45 37 68t57 25q18 1 31.5 -5.5t25 -15t22 -15.5t22.5 -7q8 0 19.5 9.5t16.5 27.5l58 -21q-11 -45 -36.5 -66.5t-54.5 -23.5q-17 -2 -31 5t-26 16t-23.5 16.5t-22.5 6.5t-21.5 -10.5t-18.5 -29.5zM87 485q52 17 105.5 30t102.5 13q37 0 70.5 -10.5t58 -31.5
t36.5 -53t6 -75l-49 -358h-79l50 361q3 24 -4.5 41.5t-22.5 29t-35 17t-41 5.5q-35 0 -68.5 -7.5t-56.5 -15.5l-60 -431h-80z" />
    <glyph glyph-name="ograve" unicode="&#xf2;" horiz-adv-x="496" 
d="M283 712l65 -136h-87l-89 136h111zM55 355q6 43 28 75.5t53 54t68.5 32.5t75.5 11q37 0 71.5 -11t59.5 -32.5t37.5 -54t6.5 -75.5l-27 -192q-6 -44 -27.5 -76t-52.5 -53.5t-68.5 -32.5t-74.5 -11q-38 0 -72.5 11t-59.5 32.5t-38 53.5t-7 76zM269 454q-22 0 -44 -6.5
t-41 -19t-32 -31t-17 -42.5l-29 -196q-4 -24 4.5 -42t24 -29.5t36.5 -17t43 -5.5q21 0 43 5.5t40.5 17t31.5 29.5t17 42l29 196q4 24 -4.5 42.5t-24 31t-36 19t-41.5 6.5z" />
    <glyph glyph-name="oacute" unicode="&#xf3;" horiz-adv-x="496" 
d="M211 576l99 136h108l-121 -136h-86zM55 355q6 43 28 75.5t53 54t68.5 32.5t75.5 11q37 0 71.5 -11t59.5 -32.5t37.5 -54t6.5 -75.5l-27 -192q-6 -44 -27.5 -76t-52.5 -53.5t-68.5 -32.5t-74.5 -11q-38 0 -72.5 11t-59.5 32.5t-38 53.5t-7 76zM269 454q-22 0 -44 -6.5
t-41 -19t-32 -31t-17 -42.5l-29 -196q-4 -24 4.5 -42t24 -29.5t36.5 -17t43 -5.5q21 0 43 5.5t40.5 17t31.5 29.5t17 42l29 196q4 24 -4.5 42.5t-24 31t-36 19t-41.5 6.5z" />
    <glyph glyph-name="ocircumflex" unicode="&#xf4;" horiz-adv-x="496" 
d="M453 576h-95l-59 69l-75 -69h-101l146 136h76zM55 355q6 43 28 75.5t53 54t68.5 32.5t75.5 11q37 0 71.5 -11t59.5 -32.5t37.5 -54t6.5 -75.5l-27 -192q-6 -44 -27.5 -76t-52.5 -53.5t-68.5 -32.5t-74.5 -11q-38 0 -72.5 11t-59.5 32.5t-38 53.5t-7 76zM269 454
q-22 0 -44 -6.5t-41 -19t-32 -31t-17 -42.5l-29 -196q-4 -24 4.5 -42t24 -29.5t36.5 -17t43 -5.5q21 0 43 5.5t40.5 17t31.5 29.5t17 42l29 196q4 24 -4.5 42.5t-24 31t-36 19t-41.5 6.5z" />
    <glyph glyph-name="otilde" unicode="&#xf5;" horiz-adv-x="496" 
d="M137 605q13 45 37 68t57 25q18 1 31.5 -5.5t25 -15t22 -15.5t22.5 -7q8 0 19.5 9.5t16.5 27.5l58 -21q-11 -45 -36.5 -66.5t-54.5 -23.5q-17 -2 -31 5t-26 16t-23.5 16.5t-22.5 6.5t-21.5 -10.5t-18.5 -29.5zM55 355q6 43 28 75.5t53 54t68.5 32.5t75.5 11q37 0 71.5 -11
t59.5 -32.5t37.5 -54t6.5 -75.5l-27 -192q-6 -44 -27.5 -76t-52.5 -53.5t-68.5 -32.5t-74.5 -11q-38 0 -72.5 11t-59.5 32.5t-38 53.5t-7 76zM269 454q-22 0 -44 -6.5t-41 -19t-32 -31t-17 -42.5l-29 -196q-4 -24 4.5 -42t24 -29.5t36.5 -17t43 -5.5q21 0 43 5.5t40.5 17
t31.5 29.5t17 42l29 196q4 24 -4.5 42.5t-24 31t-36 19t-41.5 6.5z" />
    <glyph glyph-name="odieresis" unicode="&#xf6;" horiz-adv-x="496" 
d="M167 644q3 23 20 38t39 15t35 -15t10 -38q-4 -22 -21 -37t-39 -15t-35 15t-9 37zM338 644q3 23 19.5 38t39.5 15q22 0 35 -15t10 -38q-4 -22 -21 -37t-39 -15q-23 0 -35.5 15t-8.5 37zM55 355q6 43 28 75.5t53 54t68.5 32.5t75.5 11q37 0 71.5 -11t59.5 -32.5t37.5 -54
t6.5 -75.5l-27 -192q-6 -44 -27.5 -76t-52.5 -53.5t-68.5 -32.5t-74.5 -11q-38 0 -72.5 11t-59.5 32.5t-38 53.5t-7 76zM269 454q-22 0 -44 -6.5t-41 -19t-32 -31t-17 -42.5l-29 -196q-4 -24 4.5 -42t24 -29.5t36.5 -17t43 -5.5q21 0 43 5.5t40.5 17t31.5 29.5t17 42l29 196
q4 24 -4.5 42.5t-24 31t-36 19t-41.5 6.5z" />
    <glyph glyph-name="divide" unicode="&#xf7;" horiz-adv-x="526" 
d="M225 479q4 26 24 43.5t46 17.5t42 -17.5t12 -43.5t-24.5 -44t-46.5 -18t-41.5 18t-11.5 44zM479 286h-438l11 83h438zM187 176q4 26 24.5 43t46.5 18q26 0 41.5 -17.5t11.5 -43.5t-24 -44t-46 -18t-42 18t-12 44z" />
    <glyph glyph-name="oslash" unicode="&#xf8;" horiz-adv-x="495" 
d="M397 494q31 -22 47 -56.5t10 -82.5l-27 -192q-6 -44 -27.5 -76t-52.5 -53.5t-68.5 -32.5t-74.5 -11q-36 0 -71 11l-38 -71l-54 27l38 71q-29 21 -44 54.5t-8 80.5l27 192q6 43 28 75.5t53 54t68.5 32.5t75.5 11q34 0 64 -9l40 73l54 -24zM105 159q-3 -18 1 -32t13 -25
l187 347q-22 5 -38 5q-22 0 -44 -6.5t-41 -19t-32 -31t-17 -42.5zM374 355q3 20 -2 35.5t-16 27.5l-186 -347q21 -6 43 -6q21 0 43 5.5t40.5 17t31.5 29.5t17 42z" />
    <glyph glyph-name="ugrave" unicode="&#xf9;" 
d="M292 703l65 -136h-87l-89 136h111zM420 29q-38 -13 -69 -20.5t-56.5 -11.5t-46 -5.5t-36.5 -1.5q-36 0 -70 11t-58.5 32.5t-37 54t-6.5 75.5l50 355h80l-50 -357q-3 -23 4.5 -40.5t22 -30t34.5 -19t42 -6.5q68 0 124 18l61 435h80z" />
    <glyph glyph-name="uacute" unicode="&#xfa;" 
d="M220 567l99 136h108l-121 -136h-86zM420 29q-38 -13 -69 -20.5t-56.5 -11.5t-46 -5.5t-36.5 -1.5q-36 0 -70 11t-58.5 32.5t-37 54t-6.5 75.5l50 355h80l-50 -357q-3 -23 4.5 -40.5t22 -30t34.5 -19t42 -6.5q68 0 124 18l61 435h80z" />
    <glyph glyph-name="ucircumflex" unicode="&#xfb;" 
d="M462 567h-95l-59 69l-75 -69h-101l146 136h76zM420 29q-38 -13 -69 -20.5t-56.5 -11.5t-46 -5.5t-36.5 -1.5q-36 0 -70 11t-58.5 32.5t-37 54t-6.5 75.5l50 355h80l-50 -357q-3 -23 4.5 -40.5t22 -30t34.5 -19t42 -6.5q68 0 124 18l61 435h80z" />
    <glyph glyph-name="udieresis" unicode="&#xfc;" 
d="M176 635q3 23 20 38t39 15t35 -15t10 -38q-4 -22 -21 -37t-39 -15t-35 15t-9 37zM347 635q3 23 19.5 38t39.5 15q22 0 35 -15t10 -38q-4 -22 -21 -37t-39 -15q-23 0 -35.5 15t-8.5 37zM420 29q-38 -13 -69 -20.5t-56.5 -11.5t-46 -5.5t-36.5 -1.5q-36 0 -70 11
t-58.5 32.5t-37 54t-6.5 75.5l50 355h80l-50 -357q-3 -23 4.5 -40.5t22 -30t34.5 -19t42 -6.5q68 0 124 18l61 435h80z" />
    <glyph glyph-name="yacute" unicode="&#xfd;" horiz-adv-x="533" 
d="M226 566l99 136h108l-121 -136h-86zM74 -63q26 -32 59 -42t68 -10q24 0 48 6t44 18t33.5 30t16.5 43l7 40q-30 -20 -64 -26t-66 -6q-42 0 -78 11.5t-60.5 34t-36 56t-5.5 76.5l50 350h82l-51 -360q-3 -24 4.5 -42t22.5 -30t35.5 -18t43.5 -6q31 0 65 7.5t66 19.5l61 429
h80l-76 -536q-6 -45 -28 -78t-53.5 -54.5t-69 -32t-76.5 -10.5q-51 0 -99 20.5t-78 59.5z" />
    <glyph glyph-name="thorn" unicode="&#xfe;" horiz-adv-x="512" 
d="M173 514q30 6 62 10t63 4q37 0 71 -11t58.5 -32.5t37 -54t6.5 -75.5l-27 -192q-6 -42 -27.5 -74.5t-52.5 -54.5t-68.5 -33t-75.5 -11q-62 1 -117 23l-28 -199h-80l124 883h80zM115 87q26 -11 56 -16.5t62 -5.5q21 0 42.5 5.5t40 17t32 29t16.5 40.5l29 207q3 23 -4 40
t-22 28t-35.5 16.5t-42.5 5.5q-31 0 -62.5 -2t-62.5 -10z" />
    <glyph glyph-name="ydieresis" unicode="&#xff;" horiz-adv-x="533" 
d="M170 629q3 23 20 38t39 15t35 -15t10 -38q-4 -22 -21 -37t-39 -15t-35 15t-9 37zM341 629q3 23 19.5 38t39.5 15q22 0 35 -15t10 -38q-4 -22 -21 -37t-39 -15q-23 0 -35.5 15t-8.5 37zM74 -63q26 -32 59 -42t68 -10q24 0 48 6t44 18t33.5 30t16.5 43l7 40
q-30 -20 -64 -26t-66 -6q-42 0 -78 11.5t-60.5 34t-36 56t-5.5 76.5l50 350h82l-51 -360q-3 -24 4.5 -42t22.5 -30t35.5 -18t43.5 -6q31 0 65 7.5t66 19.5l61 429h80l-76 -536q-6 -45 -28 -78t-53.5 -54.5t-69 -32t-76.5 -10.5q-51 0 -99 20.5t-78 59.5z" />
    <glyph glyph-name="Amacron" unicode="&#x100;" horiz-adv-x="615" 
d="M265 853h236l-12 -74h-236zM571 0h-88l-51 227h-273l-111 -227h-89l353 708h102zM350 618q-38 -78 -74.5 -152.5t-76.5 -154.5h216z" />
    <glyph glyph-name="amacron" unicode="&#x101;" horiz-adv-x="508" 
d="M198 673h236l-12 -74h-236zM330 48q-29 -28 -66 -43t-80 -15q-34 0 -64.5 11t-53 32.5t-33 53.5t-4.5 74l28 191q7 49 30 83t55.5 54.5t72.5 29.5t81 9q50 0 93 -13.5t81 -36.5l-67 -478h-70zM382 432q-20 10 -40 16.5t-51 6.5q-27 0 -53 -6.5t-47.5 -20t-36 -33
t-18.5 -46.5l-28 -193q-7 -49 22 -71.5t76 -22.5q38 0 71.5 17t57.5 38z" />
    <glyph glyph-name="Abreve" unicode="&#x102;" horiz-adv-x="615" 
d="M370 753q-28 0 -50.5 8.5t-37.5 25.5t-21 43t-1 62h73q-5 -36 9.5 -51.5t37.5 -15.5q24 0 40.5 15.5t24.5 51.5h74q-5 -39 -20 -65.5t-35.5 -43t-45 -23.5t-48.5 -7zM571 0h-88l-51 227h-273l-111 -227h-89l353 708h102zM350 618q-38 -78 -74.5 -152.5t-76.5 -154.5h216z
" />
    <glyph glyph-name="abreve" unicode="&#x103;" horiz-adv-x="508" 
d="M303 573q-28 0 -50.5 8.5t-37.5 25.5t-21 43t-1 62h73q-5 -36 9.5 -51.5t37.5 -15.5q24 0 40.5 15.5t24.5 51.5h74q-5 -39 -20 -65.5t-35.5 -43t-45 -23.5t-48.5 -7zM330 48q-29 -28 -66 -43t-80 -15q-34 0 -64.5 11t-53 32.5t-33 53.5t-4.5 74l28 191q7 49 30 83
t55.5 54.5t72.5 29.5t81 9q50 0 93 -13.5t81 -36.5l-67 -478h-70zM382 432q-20 10 -40 16.5t-51 6.5q-27 0 -53 -6.5t-47.5 -20t-36 -33t-18.5 -46.5l-28 -193q-7 -49 22 -71.5t76 -22.5q38 0 71.5 17t57.5 38z" />
    <glyph glyph-name="Aogonek" unicode="&#x104;" horiz-adv-x="614" 
d="M600 -208q-24 -18 -52.5 -26.5t-55 -6t-47 17.5t-27.5 44q-9 38 11.5 84t77.5 95h-25l-51 227h-273l-111 -227h-89l353 708h102l157 -708q-51 -47 -69 -85t-10 -61q5 -16 17.5 -21.5t26.5 -4t28 7t23 12.5zM349 618q-38 -78 -74.5 -152.5t-76.5 -154.5h216z" />
    <glyph glyph-name="aogonek" unicode="&#x105;" horiz-adv-x="515" 
d="M327 -146q5 -16 17.5 -21.5t26.5 -4t28 7t23 12.5l14 -56q-24 -18 -52.5 -26.5t-54.5 -6t-46 17.5t-27 44q-9 38 11 83t76 95l-8 44q-35 -32 -68 -42.5t-73 -10.5q-35 0 -67.5 9.5t-56.5 30t-36 53t-5 78.5l28 191q7 49 30 83t55.5 54.5t72.5 29.5t81 9q50 0 98.5 -11.5
t83.5 -30.5l-68 -486q-51 -47 -71 -85t-12 -61zM388 436q-20 10 -45 14t-54 4q-26 0 -51.5 -4.5t-46.5 -15.5t-35.5 -29t-18.5 -45l-28 -199q-3 -24 3.5 -42t20.5 -30t33.5 -18t40.5 -6q38 0 74.5 14.5t60.5 35.5z" />
    <glyph glyph-name="Cacute" unicode="&#x106;" horiz-adv-x="594" 
d="M312 756l99 136h108l-121 -136h-86zM80 497q7 55 36 96t71 69t92.5 42t101.5 14q38 0 74.5 -8.5t67 -26.5t53.5 -44.5t35 -62.5l-80 -38q-18 48 -64.5 72t-100.5 24q-34 0 -68 -8.5t-62 -25.5t-47.5 -43t-24.5 -60l-39 -286q-5 -35 7 -60.5t35.5 -42.5t55 -25.5
t65.5 -8.5q55 0 108 23.5t84 71.5l70 -35q-23 -36 -54 -63t-67 -45t-75 -27t-77 -9q-50 0 -96 14t-79.5 41.5t-51 69t-9.5 96.5z" />
    <glyph glyph-name="cacute" unicode="&#x107;" horiz-adv-x="466" 
d="M211 576l99 136h108l-121 -136h-86zM376 401q-11 27 -41.5 40t-65.5 13q-23 0 -45 -6t-40.5 -17.5t-31 -29t-16.5 -41.5l-31 -204q-3 -23 4.5 -40t23 -28.5t36 -17t43.5 -5.5q39 0 76.5 20t55.5 62l71 -29q-16 -32 -39.5 -56t-52 -40t-59.5 -24t-61 -8q-37 0 -71.5 11
t-59.5 32.5t-37.5 54t-6.5 76.5l27 190q6 43 28 76t53.5 54.5t69 32.5t74.5 11q55 0 102 -26t69 -78l-69 -33z" />
    <glyph glyph-name="Cdotaccent" unicode="&#x10a;" horiz-adv-x="594" 
d="M334 822q4 26 24.5 44t46.5 18t41.5 -18t11.5 -44t-24 -44t-46 -18t-42 18t-12 44zM80 497q7 55 36 96t71 69t92.5 42t101.5 14q38 0 74.5 -8.5t67 -26.5t53.5 -44.5t35 -62.5l-80 -38q-18 48 -64.5 72t-100.5 24q-34 0 -68 -8.5t-62 -25.5t-47.5 -43t-24.5 -60l-39 -286
q-5 -35 7 -60.5t35.5 -42.5t55 -25.5t65.5 -8.5q55 0 108 23.5t84 71.5l70 -35q-23 -36 -54 -63t-67 -45t-75 -27t-77 -9q-50 0 -96 14t-79.5 41.5t-51 69t-9.5 96.5z" />
    <glyph glyph-name="cdotaccent" unicode="&#x10b;" horiz-adv-x="466" 
d="M233 642q4 26 24.5 44t46.5 18t41.5 -18t11.5 -44t-24 -44t-46 -18t-42 18t-12 44zM376 401q-11 27 -41.5 40t-65.5 13q-23 0 -45 -6t-40.5 -17.5t-31 -29t-16.5 -41.5l-31 -204q-3 -23 4.5 -40t23 -28.5t36 -17t43.5 -5.5q39 0 76.5 20t55.5 62l71 -29
q-16 -32 -39.5 -56t-52 -40t-59.5 -24t-61 -8q-37 0 -71.5 11t-59.5 32.5t-37.5 54t-6.5 76.5l27 190q6 43 28 76t53.5 54.5t69 32.5t74.5 11q55 0 102 -26t69 -78l-69 -33z" />
    <glyph glyph-name="Ccaron" unicode="&#x10c;" horiz-adv-x="594" 
d="M241 892h99l60 -69l74 69h101l-147 -136h-78zM80 497q7 55 36 96t71 69t92.5 42t101.5 14q38 0 74.5 -8.5t67 -26.5t53.5 -44.5t35 -62.5l-80 -38q-18 48 -64.5 72t-100.5 24q-34 0 -68 -8.5t-62 -25.5t-47.5 -43t-24.5 -60l-39 -286q-5 -35 7 -60.5t35.5 -42.5t55 -25.5
t65.5 -8.5q55 0 108 23.5t84 71.5l70 -35q-23 -36 -54 -63t-67 -45t-75 -27t-77 -9q-50 0 -96 14t-79.5 41.5t-51 69t-9.5 96.5z" />
    <glyph glyph-name="ccaron" unicode="&#x10d;" horiz-adv-x="466" 
d="M140 712h99l60 -69l74 69h101l-147 -136h-78zM376 401q-11 27 -41.5 40t-65.5 13q-23 0 -45 -6t-40.5 -17.5t-31 -29t-16.5 -41.5l-31 -204q-3 -23 4.5 -40t23 -28.5t36 -17t43.5 -5.5q39 0 76.5 20t55.5 62l71 -29q-16 -32 -39.5 -56t-52 -40t-59.5 -24t-61 -8
q-37 0 -71.5 11t-59.5 32.5t-37.5 54t-6.5 76.5l27 190q6 43 28 76t53.5 54.5t69 32.5t74.5 11q55 0 102 -26t69 -78l-69 -33z" />
    <glyph glyph-name="Dcaron" unicode="&#x10e;" horiz-adv-x="637" 
d="M203 892h99l60 -69l74 69h101l-147 -136h-78zM370 708q51 0 97.5 -12t80.5 -38t51.5 -66.5t9.5 -96.5l-40 -283q-8 -56 -36.5 -96t-70 -66t-91 -38t-100.5 -12h-240l99 708h240zM282 84q35 0 69 7t62.5 22.5t47.5 39.5t24 59l40 283q5 35 -7.5 59.5t-36.5 40t-56 22.5
t-67 7h-157l-76 -540h157z" />
    <glyph glyph-name="dcaron" unicode="&#x10f;" 
d="M410 27q-54 -17 -106 -27t-102 -10q-37 1 -71 11.5t-59 32t-37.5 53.5t-6.5 75l26 194q6 42 27.5 74t53 54t69 33t75.5 11q33 0 62 -8.5t54 -22.5l29 203h80zM589 532h-72l56 166h84zM212 65q30 0 62.5 3t63.5 12l48 350q-28 11 -58.5 17.5t-59.5 6.5q-23 0 -45 -6
t-40.5 -17.5t-31 -29t-15.5 -40.5l-26 -197q-3 -23 4.5 -41.5t21.5 -31t34 -19.5t42 -7z" />
    <glyph glyph-name="Dcroat" unicode="&#x110;" horiz-adv-x="642" 
d="M135 708h241q50 0 96.5 -12t80.5 -38t51.5 -66.5t9.5 -96.5l-40 -283q-8 -56 -36.5 -96t-69.5 -66t-91 -38t-100 -12h-241l43 311h-60l11 78h60zM288 84q34 0 68.5 7t62.5 22.5t47.5 39.5t24.5 59l40 283q5 35 -7.5 59.5t-36.5 40t-56.5 22.5t-66.5 7h-157l-33 -235h120
l-11 -78h-120l-32 -227h157z" />
    <glyph glyph-name="dcroat" unicode="&#x111;" horiz-adv-x="512" 
d="M488 587l-78 -560q-54 -17 -106 -27t-102 -10q-37 1 -71 11.5t-59 32t-37.5 53.5t-6.5 75l26 194q6 42 27.5 74t53 54t69 33t75.5 11q33 0 62 -8.5t54 -22.5l13 90h-107l7 50h107l9 63h80l-9 -63h55l-7 -50h-55zM386 430q-28 11 -58.5 17.5t-59.5 6.5q-23 0 -45 -6
t-40.5 -17.5t-31 -29t-15.5 -40.5l-26 -197q-3 -23 4.5 -41.5t21.5 -31t34 -19.5t42 -7q30 0 62.5 3t63.5 12z" />
    <glyph glyph-name="Emacron" unicode="&#x112;" horiz-adv-x="570" 
d="M259 853h236l-12 -74h-236zM170 396h341l-12 -84h-341l-32 -228h370l-11 -84h-454l99 708h454l-12 -84h-370z" />
    <glyph glyph-name="emacron" unicode="&#x113;" horiz-adv-x="482" 
d="M182 673h236l-12 -74h-236zM401 81q-45 -53 -95 -72t-103 -19q-37 0 -71.5 10.5t-59.5 32.5t-38 54t-7 76l26 184q6 45 28 79t53.5 56.5t69.5 34t76 11.5q37 0 71.5 -11t59 -33.5t37 -55.5t6.5 -77q-6 -43 -24.5 -71.5t-45.5 -45.5t-61 -24t-70 -7q-35 0 -67 4t-70 15
l-10 -66q-3 -24 5.5 -41t24.5 -28.5t37 -16.5t42 -5q16 0 31.5 2t30.5 7.5t31 16t34 27.5zM125 289q32 -11 61 -15.5t63 -4.5q22 0 42.5 3t37.5 12t28.5 26t15.5 44t-3 46t-22 31t-36 17.5t-43 5.5q-23 0 -45.5 -7t-41 -20.5t-31.5 -33.5t-17 -45z" />
    <glyph glyph-name="Edotaccent" unicode="&#x116;" horiz-adv-x="570" 
d="M310 822q4 26 24.5 44t46.5 18t41.5 -18t11.5 -44t-24 -44t-46 -18t-42 18t-12 44zM170 396h341l-12 -84h-341l-32 -228h370l-11 -84h-454l99 708h454l-12 -84h-370z" />
    <glyph glyph-name="edotaccent" unicode="&#x117;" horiz-adv-x="482" 
d="M233 642q4 26 24.5 44t46.5 18t41.5 -18t11.5 -44t-24 -44t-46 -18t-42 18t-12 44zM401 81q-45 -53 -95 -72t-103 -19q-37 0 -71.5 10.5t-59.5 32.5t-38 54t-7 76l26 184q6 45 28 79t53.5 56.5t69.5 34t76 11.5q37 0 71.5 -11t59 -33.5t37 -55.5t6.5 -77
q-6 -43 -24.5 -71.5t-45.5 -45.5t-61 -24t-70 -7q-35 0 -67 4t-70 15l-10 -66q-3 -24 5.5 -41t24.5 -28.5t37 -16.5t42 -5q16 0 31.5 2t30.5 7.5t31 16t34 27.5zM125 289q32 -11 61 -15.5t63 -4.5q22 0 42.5 3t37.5 12t28.5 26t15.5 44t-3 46t-22 31t-36 17.5t-43 5.5
q-23 0 -45.5 -7t-41 -20.5t-31.5 -33.5t-17 -45z" />
    <glyph glyph-name="Eogonek" unicode="&#x118;" horiz-adv-x="569" 
d="M510 396l-12 -84h-341l-32 -228h370l-11 -84h-1q-51 -47 -71 -85t-12 -61q5 -16 17.5 -21.5t26.5 -4t28 7t23 12.5l14 -56q-24 -18 -52.5 -26.5t-54.5 -6t-46 17.5t-27 44q-9 39 14.5 88t77.5 91h-391l99 708h454l-12 -84h-370l-32 -228h341z" />
    <glyph glyph-name="eogonek" unicode="&#x119;" horiz-adv-x="482" 
d="M125 289q32 -11 61 -15.5t63 -4.5q22 0 42.5 3t37.5 12t28.5 26t15.5 44t-3 46t-22 31t-36 17.5t-43 5.5q-23 0 -45.5 -7t-41 -20.5t-31.5 -33.5t-17 -45zM398 86q-14 -20 -31.5 -35t-36.5 -26q-36 -30 -57.5 -56t-32.5 -48t-13 -39t2 -28q5 -16 17.5 -21.5t26.5 -4t28 7
t23 12.5l14 -56q-24 -18 -52.5 -26.5t-54.5 -6t-46 17.5t-27 44q-8 33 6.5 78.5t61.5 91.5q-6 0 -12 -0.5t-11 -0.5q-37 0 -71.5 10.5t-59.5 32.5t-38 54t-7 76l26 184q6 45 28 79t53.5 56.5t69.5 34t76 11.5q37 0 71.5 -11t59 -33.5t37 -55.5t6.5 -77q-6 -43 -24.5 -71.5
t-45.5 -45.5t-61 -24t-70 -7q-35 0 -67 4t-70 15l-10 -66q-3 -24 5.5 -41t24.5 -28.5t37 -16.5t42 -5q33 0 63 12t61 46z" />
    <glyph glyph-name="Ecaron" unicode="&#x11a;" horiz-adv-x="570" 
d="M217 892h99l60 -69l74 69h101l-147 -136h-78zM170 396h341l-12 -84h-341l-32 -228h370l-11 -84h-454l99 708h454l-12 -84h-370z" />
    <glyph glyph-name="ecaron" unicode="&#x11b;" horiz-adv-x="482" 
d="M145 715h97l59 -65l73 65h99l-143 -131h-77zM401 81q-45 -53 -95 -72t-103 -19q-37 0 -71.5 10.5t-59.5 32.5t-38 54t-7 76l26 184q6 45 28 79t53.5 56.5t69.5 34t76 11.5q37 0 71.5 -11t59 -33.5t37 -55.5t6.5 -77q-6 -43 -24.5 -71.5t-45.5 -45.5t-61 -24t-70 -7
q-35 0 -67 4t-70 15l-10 -66q-3 -24 5.5 -41t24.5 -28.5t37 -16.5t42 -5q16 0 31.5 2t30.5 7.5t31 16t34 27.5zM125 289q32 -11 61 -15.5t63 -4.5q22 0 42.5 3t37.5 12t28.5 26t15.5 44t-3 46t-22 31t-36 17.5t-43 5.5q-23 0 -45.5 -7t-41 -20.5t-31.5 -33.5t-17 -45z" />
    <glyph glyph-name="Gbreve" unicode="&#x11e;" horiz-adv-x="630" 
d="M385 758q-28 0 -50.5 8.5t-37.5 25.5t-21 43t-1 62h73q-5 -36 9.5 -51.5t37.5 -15.5q24 0 40.5 15.5t24.5 51.5h74q-5 -39 -20 -65.5t-35.5 -43t-45 -23.5t-48.5 -7zM80 497q8 55 37 96t70.5 69t91.5 42t100 14q38 0 74 -9t66.5 -27t53.5 -45t35 -63l-81 -36
q-17 48 -62.5 72t-99.5 24q-34 0 -68 -8.5t-62 -25.5t-47.5 -43t-24.5 -60l-40 -284q-5 -35 7.5 -61.5t36 -43.5t55 -25.5t66.5 -8.5q34 0 69 8.5t63.5 25.5t48.5 43.5t25 61.5l10 72h-209l11 83h292l-21 -154q-8 -56 -37 -98t-71 -70t-92 -42t-101 -14t-97 14t-79.5 42
t-50.5 70t-9 98z" />
    <glyph glyph-name="gbreve" unicode="&#x11f;" horiz-adv-x="506" 
d="M294 573q-28 0 -50.5 8.5t-37.5 25.5t-21 43t-1 62h73q-5 -36 9.5 -51.5t37.5 -15.5q24 0 40.5 15.5t24.5 51.5h74q-5 -39 -20 -65.5t-35.5 -43t-45 -23.5t-48.5 -7zM65 -69q14 -21 47.5 -35.5t67.5 -14.5q23 0 46 5.5t42 16.5t32.5 28.5t16.5 41.5l7 44
q-28 -17 -59.5 -22t-61.5 -5q-38 0 -72.5 11t-59 33t-37 54.5t-6.5 74.5l28 195q6 42 27 74t51.5 53.5t67 32t73.5 10.5q65 0 112.5 -12t82.5 -29l-74 -514q-6 -44 -27.5 -75t-51.5 -51.5t-66.5 -30t-73.5 -9.5q-51 0 -97 19t-75 57zM383 438q-20 9 -47 14.5t-55 5.5
q-26 0 -50.5 -5t-44.5 -17t-33.5 -31t-17.5 -47l-30 -198q-3 -23 3.5 -41t20.5 -30.5t34.5 -19.5t44.5 -7q59 0 123 23z" />
    <glyph glyph-name="Gdotaccent" unicode="&#x120;" horiz-adv-x="630" 
d="M331 827q4 26 24.5 44t46.5 18t41.5 -18t11.5 -44t-24 -44t-46 -18t-42 18t-12 44zM80 497q8 55 37 96t70.5 69t91.5 42t100 14q38 0 74 -9t66.5 -27t53.5 -45t35 -63l-81 -36q-17 48 -62.5 72t-99.5 24q-34 0 -68 -8.5t-62 -25.5t-47.5 -43t-24.5 -60l-40 -284
q-5 -35 7.5 -61.5t36 -43.5t55 -25.5t66.5 -8.5q34 0 69 8.5t63.5 25.5t48.5 43.5t25 61.5l10 72h-209l11 83h292l-21 -154q-8 -56 -37 -98t-71 -70t-92 -42t-101 -14t-97 14t-79.5 42t-50.5 70t-9 98z" />
    <glyph glyph-name="gdotaccent" unicode="&#x121;" horiz-adv-x="506" 
d="M240 642q4 26 24.5 44t46.5 18t41.5 -18t11.5 -44t-24 -44t-46 -18t-42 18t-12 44zM65 -69q14 -21 47.5 -35.5t67.5 -14.5q23 0 46 5.5t42 16.5t32.5 28.5t16.5 41.5l7 44q-28 -17 -59.5 -22t-61.5 -5q-38 0 -72.5 11t-59 33t-37 54.5t-6.5 74.5l28 195q6 42 27 74
t51.5 53.5t67 32t73.5 10.5q65 0 112.5 -12t82.5 -29l-74 -514q-6 -44 -27.5 -75t-51.5 -51.5t-66.5 -30t-73.5 -9.5q-51 0 -97 19t-75 57zM383 438q-20 9 -47 14.5t-55 5.5q-26 0 -50.5 -5t-44.5 -17t-33.5 -31t-17.5 -47l-30 -198q-3 -23 3.5 -41t20.5 -30.5t34.5 -19.5
t44.5 -7q59 0 123 23z" />
    <glyph glyph-name="Gcommaaccent" unicode="&#x122;" horiz-adv-x="630" 
d="M80 497q8 55 37 96t70.5 69t91.5 42t100 14q38 0 74 -9t66.5 -27t53.5 -45t35 -63l-81 -36q-17 48 -62.5 72t-99.5 24q-34 0 -68 -8.5t-62 -25.5t-47.5 -43t-24.5 -60l-40 -284q-5 -35 7.5 -61.5t36 -43.5t55 -25.5t66.5 -8.5q34 0 69 8.5t63.5 25.5t48.5 43.5t25 61.5
l10 72h-209l11 83h292l-21 -154q-8 -56 -37 -98t-71 -70t-92 -42t-101 -14t-97 14t-79.5 42t-50.5 70t-9 98zM252 -242h-79l66 160h91z" />
    <glyph glyph-name="gcommaaccent" unicode="&#x123;" horiz-adv-x="506" 
d="M311 718h89l-53 -130h-102zM65 -69q14 -21 47.5 -35.5t67.5 -14.5q23 0 46 5.5t42 16.5t32.5 28.5t16.5 41.5l7 44q-28 -17 -59.5 -22t-61.5 -5q-38 0 -72.5 11t-59 33t-37 54.5t-6.5 74.5l28 195q6 42 27 74t51.5 53.5t67 32t73.5 10.5q65 0 112.5 -12t82.5 -29
l-74 -514q-6 -44 -27.5 -75t-51.5 -51.5t-66.5 -30t-73.5 -9.5q-51 0 -97 19t-75 57zM383 438q-20 9 -47 14.5t-55 5.5q-26 0 -50.5 -5t-44.5 -17t-33.5 -31t-17.5 -47l-30 -198q-3 -23 3.5 -41t20.5 -30.5t34.5 -19.5t44.5 -7q59 0 123 23z" />
    <glyph glyph-name="Hbar" unicode="&#x126;" horiz-adv-x="700" 
d="M576 0h-84l43 312h-370l-43 -312h-84l74 528h-68l9 65h68l16 115h84l-16 -115h370l16 115h84l-16 -115h68l-9 -65h-68zM177 395h370l19 133h-370z" />
    <glyph glyph-name="hbar" unicode="&#x127;" 
d="M293 528q38 0 72 -11t59 -33t37.5 -54t6.5 -74l-49 -356h-79l50 364q3 23 -5 40t-23 28t-35.5 16.5t-42.5 5.5q-31 0 -61 -4.5t-62 -16.5l-60 -433h-80l82 585h-56l7 50h56l9 63h80l-9 -63h106l-7 -50h-106l-13 -87q27 14 60 22t63 8z" />
    <glyph glyph-name="Imacron" unicode="&#x12a;" horiz-adv-x="231" 
d="M76 853h236l-12 -74h-236zM114 0h-83l99 708h83z" />
    <glyph glyph-name="imacron" unicode="&#x12b;" horiz-adv-x="213" 
d="M35 665h228l-10 -70h-228zM105 0h-84l74 518h84z" />
    <glyph glyph-name="Iogonek" unicode="&#x12e;" horiz-adv-x="231" 
d="M42 -146q5 -16 17 -21.5t26.5 -4t28 7t22.5 12.5l14 -56q-24 -18 -52.5 -26.5t-54.5 -6t-46 17.5t-27 44q-9 39 9 84.5t71 94.5h-19l99 708h83l-99 -708q-51 -47 -65.5 -85t-6.5 -61z" />
    <glyph glyph-name="iogonek" unicode="&#x12f;" horiz-adv-x="212" 
d="M160 718q24 0 38 -16t10 -40q-3 -24 -21.5 -40t-41.5 -16q-24 0 -38.5 16t-10.5 40q3 24 21.5 40t42.5 16zM20 -146q5 -16 17.5 -21.5t26.5 -4t28 7t23 12.5l14 -56q-24 -18 -52.5 -26.5t-54.5 -6t-46 17.5t-27 44q-9 38 12 88t72 91h-12l73 518h84l-73 -518
q-55 -43 -74 -83t-11 -63z" />
    <glyph glyph-name="Idotaccent" unicode="&#x130;" horiz-adv-x="231" 
d="M127 822q4 26 24.5 44t46.5 18t41.5 -18t11.5 -44t-24 -44t-46 -18t-42 18t-12 44zM114 0h-83l99 708h83z" />
    <glyph glyph-name="dotlessi" unicode="&#x131;" horiz-adv-x="212" 
d="M104 0h-84l74 518h84z" />
    <glyph glyph-name="IJ" unicode="&#x132;" horiz-adv-x="823" 
d="M114 0h-83l99 708h83zM811 708l-70 -498q-8 -54 -36 -95.5t-68.5 -69t-89 -41.5t-96.5 -14q-43 0 -82.5 12t-70.5 36t-50.5 60.5t-22.5 84.5l85 14q1 -31 14.5 -54t35 -38.5t49 -23t56.5 -7.5q32 0 64.5 8t59 25t45 42.5t23.5 60.5l58 414h-227l12 84h311z" />
    <glyph glyph-name="ij" unicode="&#x133;" horiz-adv-x="416" 
d="M99 662q3 24 22 40t42 16q24 0 37.5 -16t10.5 -40q-4 -23 -22 -39.5t-42 -16.5q-23 0 -37.5 16.5t-10.5 39.5zM173 518l-72 -518h-80l72 518h80zM308 661q3 24 22 40t42 16q24 0 37.5 -16t10.5 -40q-3 -23 -21.5 -39.5t-42.5 -16.5q-23 0 -37 16.5t-11 39.5zM121 -98
q24 -4 43 1.5t32 18t21 30.5t11 39l74 528h80l-74 -528q-6 -40 -22 -72.5t-41.5 -55.5t-59.5 -34t-76 -7z" />
    <glyph glyph-name="Kcommaaccent" unicode="&#x136;" horiz-adv-x="629" 
d="M164 352q103 88 206 178t206 178h111l-389 -341q33 -42 69.5 -89.5t74 -95.5t73.5 -94.5t69 -87.5h-109l-245 307l-82 -72l-33 -235h-84l99 708h84zM254 -242h-79l66 160h91z" />
    <glyph glyph-name="kcommaaccent" unicode="&#x137;" horiz-adv-x="497" 
d="M413 518h104l-267 -236l190 -282h-101l-153 225l-61 -54l-24 -171h-80l98 698h80l-59 -420zM197 -241h-79l66 160h91z" />
    <glyph glyph-name="Lacute" unicode="&#x139;" horiz-adv-x="509" 
d="M103 756l99 136h108l-121 -136h-86zM130 708h84l-88 -624h340l-11 -84h-424z" />
    <glyph glyph-name="lacute" unicode="&#x13a;" horiz-adv-x="241" 
d="M85 747l99 136h108l-121 -136h-86zM192 -10q-85 0 -124 44.5t-28 124.5l74 540h80l-74 -540q-6 -43 13.5 -66t69.5 -23z" />
    <glyph glyph-name="Lcommaaccent" unicode="&#x13b;" horiz-adv-x="509" 
d="M130 708h84l-88 -624h340l-11 -84h-424zM219 -242h-79l66 160h91z" />
    <glyph glyph-name="lcommaaccent" unicode="&#x13c;" horiz-adv-x="241" 
d="M192 -10q-85 0 -124 44.5t-28 124.5l74 540h80l-74 -540q-6 -43 13.5 -66t69.5 -23zM57 -242h-79l66 160h91z" />
    <glyph glyph-name="Lcaron" unicode="&#x13d;" horiz-adv-x="510" 
d="M130 708h84l-88 -624h340l-11 -84h-424zM418 542h-82l69 166h94z" />
    <glyph glyph-name="lcaron" unicode="&#x13e;" horiz-adv-x="252" 
d="M192 -10q-85 0 -124 44.5t-28 124.5l74 540h80l-74 -540q-6 -43 13.5 -66t69.5 -23zM278 553h-62l47 145h80z" />
    <glyph glyph-name="Ldot" unicode="&#x13f;" horiz-adv-x="511" 
d="M130 708h84l-88 -624h340l-11 -84h-424zM258 367q3 25 22 42t45 17q25 0 39 -17t11 -42q-4 -25 -23 -42t-44 -17q-26 0 -40 17t-10 42z" />
    <glyph glyph-name="ldot" unicode="&#x140;" horiz-adv-x="288" 
d="M192 -10q-85 0 -124 44.5t-28 124.5l74 540h80l-74 -540q-6 -43 13.5 -66t69.5 -23zM190 315q3 25 22 42t45 17q25 0 39 -17t11 -42q-4 -25 -23 -42t-44 -17q-26 0 -40 17t-10 42z" />
    <glyph glyph-name="Lslash" unicode="&#x141;" horiz-adv-x="519" 
d="M451 0h-408l40 288l-60 -26l-22 54l92 39l49 353h85l-44 -315l110 47l21 -54l-141 -60l-34 -241h323z" />
    <glyph glyph-name="lslash" unicode="&#x142;" horiz-adv-x="280" 
d="M149 165q-6 -43 14 -66t70 -23l-11 -80q-85 0 -124 44.5t-28 124.5l23 164l-60 -23l-18 64l88 34l43 301h79l-38 -270l78 30l20 -63l-108 -41z" />
    <glyph glyph-name="Nacute" unicode="&#x143;" horiz-adv-x="686" 
d="M330 756l99 136h108l-121 -136h-86zM584 708h84l-99 -708h-101l-274 568l-79 -568h-84l99 708h90l282 -593z" />
    <glyph glyph-name="nacute" unicode="&#x144;" horiz-adv-x="519" 
d="M216 576l99 136h108l-121 -136h-86zM87 485q52 17 105.5 30t102.5 13q37 0 70.5 -10.5t58 -31.5t36.5 -53t6 -75l-49 -358h-79l50 361q3 24 -4.5 41.5t-22.5 29t-35 17t-41 5.5q-35 0 -68.5 -7.5t-56.5 -15.5l-60 -431h-80z" />
    <glyph glyph-name="Ncommaaccent" unicode="&#x145;" horiz-adv-x="686" 
d="M584 708h84l-99 -708h-101l-274 568l-79 -568h-84l99 708h90l282 -593zM276 -242h-79l66 160h91z" />
    <glyph glyph-name="ncommaaccent" unicode="&#x146;" horiz-adv-x="519" 
d="M87 485q52 17 105.5 30t102.5 13q37 0 70.5 -10.5t58 -31.5t36.5 -53t6 -75l-49 -358h-79l50 361q3 24 -4.5 41.5t-22.5 29t-35 17t-41 5.5q-35 0 -68.5 -7.5t-56.5 -15.5l-60 -431h-80zM195 -242h-79l66 160h91z" />
    <glyph glyph-name="Ncaron" unicode="&#x147;" horiz-adv-x="686" 
d="M259 892h99l60 -69l74 69h101l-147 -136h-78zM584 708h84l-99 -708h-101l-274 568l-79 -568h-84l99 708h90l282 -593z" />
    <glyph glyph-name="ncaron" unicode="&#x148;" horiz-adv-x="519" 
d="M145 712h99l60 -69l74 69h101l-147 -136h-78zM87 485q52 17 105.5 30t102.5 13q37 0 70.5 -10.5t58 -31.5t36.5 -53t6 -75l-49 -358h-79l50 361q3 24 -4.5 41.5t-22.5 29t-35 17t-41 5.5q-35 0 -68.5 -7.5t-56.5 -15.5l-60 -431h-80z" />
    <glyph glyph-name="Eng" unicode="&#x14a;" horiz-adv-x="684" 
d="M567 -9q-18 -79 -66 -124t-133 -45l12 80q49 0 75 23t32 66l1 9h-26l-270 561l-78 -561h-84l99 708h90l282 -585l82 585h84z" />
    <glyph glyph-name="eng" unicode="&#x14b;" horiz-adv-x="517" 
d="M293 528q37 -1 70.5 -11.5t58 -31.5t36.5 -52.5t6 -74.5l-50 -367q-11 -81 -62.5 -125t-136.5 -44l12 80q49 0 75 23t32 66l52 370q3 24 -4.5 41.5t-22.5 29t-35 17t-41 5.5q-35 0 -68.5 -7.5t-56.5 -15.5l-60 -431h-80l67 485q52 17 105.5 30t102.5 13z" />
    <glyph glyph-name="Omacron" unicode="&#x14c;" horiz-adv-x="671" 
d="M294 863h236l-12 -74h-236zM78 496q7 55 37.5 97t74 69.5t96.5 41.5t106 14t101.5 -14t84.5 -41.5t54.5 -69.5t11.5 -97l-38 -283q-8 -56 -38 -97.5t-73.5 -69.5t-96.5 -42t-106 -14t-102 14t-85 42t-54.5 69.5t-10.5 97.5zM123 213q-5 -35 9 -61t39.5 -43.5t60 -26.5
t72.5 -9q37 0 74.5 9t68 26.5t51 43.5t25.5 61l38 283q5 37 -8.5 63t-39.5 42.5t-61 24.5t-72 8q-38 0 -75 -8.5t-67.5 -25t-51 -42.5t-25.5 -62z" />
    <glyph glyph-name="omacron" unicode="&#x14d;" horiz-adv-x="496" 
d="M182 673h236l-12 -74h-236zM55 355q6 43 28 75.5t53 54t68.5 32.5t75.5 11q37 0 71.5 -11t59.5 -32.5t37.5 -54t6.5 -75.5l-27 -192q-6 -44 -27.5 -76t-52.5 -53.5t-68.5 -32.5t-74.5 -11q-38 0 -72.5 11t-59.5 32.5t-38 53.5t-7 76zM269 454q-22 0 -44 -6.5t-41 -19
t-32 -31t-17 -42.5l-29 -196q-4 -24 4.5 -42t24 -29.5t36.5 -17t43 -5.5q21 0 43 5.5t40.5 17t31.5 29.5t17 42l29 196q4 24 -4.5 42.5t-24 31t-36 19t-41.5 6.5z" />
    <glyph glyph-name="Ohungarumlaut" unicode="&#x150;" horiz-adv-x="671" 
d="M329 769h-75l80 130h108zM488 769h-75l79 130h108zM78 496q7 55 37.5 97t74 69.5t96.5 41.5t106 14t101.5 -14t84.5 -41.5t54.5 -69.5t11.5 -97l-38 -283q-8 -56 -38 -97.5t-73.5 -69.5t-96.5 -42t-106 -14t-102 14t-85 42t-54.5 69.5t-10.5 97.5zM123 213q-5 -35 9 -61
t39.5 -43.5t60 -26.5t72.5 -9q37 0 74.5 9t68 26.5t51 43.5t25.5 61l38 283q5 37 -8.5 63t-39.5 42.5t-61 24.5t-72 8q-38 0 -75 -8.5t-67.5 -25t-51 -42.5t-25.5 -62z" />
    <glyph glyph-name="ohungarumlaut" unicode="&#x151;" horiz-adv-x="496" 
d="M255 586h-75l66 122h101zM404 586h-75l65 122h101zM55 355q6 43 28 75.5t53 54t68.5 32.5t75.5 11q37 0 71.5 -11t59.5 -32.5t37.5 -54t6.5 -75.5l-27 -192q-6 -44 -27.5 -76t-52.5 -53.5t-68.5 -32.5t-74.5 -11q-38 0 -72.5 11t-59.5 32.5t-38 53.5t-7 76zM269 454
q-22 0 -44 -6.5t-41 -19t-32 -31t-17 -42.5l-29 -196q-4 -24 4.5 -42t24 -29.5t36.5 -17t43 -5.5q21 0 43 5.5t40.5 17t31.5 29.5t17 42l29 196q4 24 -4.5 42.5t-24 31t-36 19t-41.5 6.5z" />
    <glyph glyph-name="OE" unicode="&#x152;" horiz-adv-x="890" 
d="M549 394h281l-12 -83h-281l-32 -227h311l-12 -84h-394l6 34q-20 -26 -58 -35.5t-73 -8.5q-53 1 -100.5 15.5t-82 42t-52.5 69t-10 96.5l39 282q7 55 37 97t73.5 69.5t95.5 42t105 14.5q16 0 33.5 -3t34 -8t29.5 -13t19 -17l4 31h394l-12 -84h-311zM302 74q32 0 63.5 6
t59.5 18l72 515q-24 11 -54.5 16t-62.5 5q-38 0 -74.5 -8t-67 -25t-51 -43.5t-25.5 -62.5l-39 -282q-5 -35 8.5 -61.5t39 -43.5t60 -25.5t71.5 -8.5z" />
    <glyph glyph-name="oe" unicode="&#x153;" horiz-adv-x="803" 
d="M720 89q-36 -50 -89.5 -74t-106.5 -24q-23 0 -45.5 5t-42.5 14.5t-36 23.5t-25 33q-32 -42 -78.5 -59t-91.5 -18q-38 0 -72.5 11t-59.5 32.5t-38 53.5t-7 76l28 195q6 43 28 75.5t53 54t68.5 32.5t75.5 11q49 -1 88 -17.5t62 -60.5q15 20 35 34.5t42.5 23.5t46 13t46.5 4
q37 0 71.5 -10.5t59.5 -32.5t37 -55t6 -78q-6 -44 -27 -75.5t-51 -51.5t-66.5 -29t-73.5 -9q-32 0 -63.5 6.5t-57.5 19.5l-8 -50q-3 -24 5.5 -41.5t24 -29t36 -17t41.5 -5.5q34 0 64.5 11t61.5 46zM270 451q-22 0 -44.5 -5.5t-41 -16.5t-32 -29t-16.5 -42l-28 -195
q-3 -24 5 -42t24 -29.5t36.5 -17t42.5 -5.5q21 0 43 5.5t40.5 17t32 29.5t16.5 42l28 195q3 24 -5 42t-23.5 29t-36 16.5t-41.5 5.5zM445 281q47 -25 109 -25q24 0 47 3.5t42 14.5t32 29.5t18 48.5q3 25 -4 43.5t-22 31t-35 18.5t-42 6q-23 0 -45.5 -6.5t-41 -19t-32 -32
t-16.5 -44.5z" />
    <glyph glyph-name="Racute" unicode="&#x154;" horiz-adv-x="616" 
d="M293 756l99 136h108l-121 -136h-86zM264 289h-109l-40 -289h-84l99 708h270q51 0 93 -12t70.5 -37.5t42 -65.5t6.5 -97q-8 -53 -29.5 -91t-54 -62.5t-73.5 -37.5t-87 -15l188 -290h-103zM353 367q72 0 118.5 28t56.5 101q5 37 -3 61.5t-27 39.5t-47 21.5t-62 5.5h-187
l-36 -257h187z" />
    <glyph glyph-name="racute" unicode="&#x155;" horiz-adv-x="312" 
d="M172 571l99 136h108l-121 -136h-86zM318 450q-11 2 -22 3t-22 1q-48 0 -84 -23.5t-43 -71.5l-49 -359h-80l50 360q6 48 28 80t52.5 51.5t65.5 28t68 8.5q24 0 47 -5z" />
    <glyph glyph-name="Rcommaaccent" unicode="&#x156;" horiz-adv-x="616" 
d="M264 289h-109l-40 -289h-84l99 708h270q51 0 93 -12t70.5 -37.5t42 -65.5t6.5 -97q-8 -53 -29.5 -91t-54 -62.5t-73.5 -37.5t-87 -15l188 -290h-103zM353 367q72 0 118.5 28t56.5 101q5 37 -3 61.5t-27 39.5t-47 21.5t-62 5.5h-187l-36 -257h187zM255 -242h-79l66 160h91
z" />
    <glyph glyph-name="rcommaaccent" unicode="&#x157;" horiz-adv-x="312" 
d="M318 450q-11 2 -22 3t-22 1q-48 0 -84 -23.5t-43 -71.5l-49 -359h-80l50 360q6 48 28 80t52.5 51.5t65.5 28t68 8.5q24 0 47 -5zM14 -254h-82l69 166h94z" />
    <glyph glyph-name="Rcaron" unicode="&#x158;" horiz-adv-x="616" 
d="M222 892h99l60 -69l74 69h101l-147 -136h-78zM264 289h-109l-40 -289h-84l99 708h270q51 0 93 -12t70.5 -37.5t42 -65.5t6.5 -97q-8 -53 -29.5 -91t-54 -62.5t-73.5 -37.5t-87 -15l188 -290h-103zM353 367q72 0 118.5 28t56.5 101q5 37 -3 61.5t-27 39.5t-47 21.5
t-62 5.5h-187l-36 -257h187z" />
    <glyph glyph-name="rcaron" unicode="&#x159;" horiz-adv-x="312" 
d="M98 702h99l60 -69l74 69h101l-147 -136h-78zM318 450q-11 2 -22 3t-22 1q-48 0 -84 -23.5t-43 -71.5l-49 -359h-80l50 360q6 48 28 80t52.5 51.5t65.5 28t68 8.5q24 0 47 -5z" />
    <glyph glyph-name="Sacute" unicode="&#x15a;" horiz-adv-x="589" 
d="M282 756l99 136h108l-121 -136h-86zM158 528q-7 -32 4 -52t33.5 -33t53.5 -20.5t65 -14.5q45 -9 89 -21t77 -35.5t48.5 -63.5t2.5 -105q-9 -49 -37 -85t-67 -60t-86 -36t-94 -12q-40 0 -78.5 9.5t-71 28t-57 47t-35.5 66.5l82 35q8 -26 25 -45t40.5 -31.5t51 -19
t56.5 -6.5q31 0 62.5 7t57 21t44 35t24.5 50q9 38 -2.5 62.5t-35.5 39.5t-57.5 23.5t-69.5 16.5q-42 9 -82.5 21.5t-70.5 35t-46 57.5t-9 88q9 46 36.5 81.5t65.5 58.5t83 35t91 12q39 0 77 -8.5t70.5 -26.5t56 -45.5t34.5 -64.5l-81 -34q-7 25 -24 43t-39.5 29.5t-50 17
t-55.5 5.5q-31 0 -61 -6t-54.5 -19t-42 -33t-23.5 -48z" />
    <glyph glyph-name="sacute" unicode="&#x15b;" horiz-adv-x="445" 
d="M198 576l99 136h108l-121 -136h-86zM65 137q21 -39 59.5 -55.5t78.5 -16.5q18 0 35.5 4.5t32.5 14t25.5 24t13.5 34.5q3 21 -4.5 35t-21 23t-31.5 14.5t-35 8.5q-31 6 -62 15t-54.5 26.5t-36.5 44.5t-7 69q6 41 27.5 69.5t51 46.5t64 26t66.5 8q41 0 80 -15t68 -47
l-59 -57q-20 25 -45.5 35t-52.5 10q-17 0 -36.5 -2.5t-37 -10t-30 -21t-15.5 -35.5q-2 -20 8 -34.5t26 -25t35 -16.5t36 -9q30 -6 58 -17t49 -29.5t32 -46.5t6 -67q-6 -39 -24.5 -67t-45.5 -46.5t-60 -27.5t-66 -9q-62 0 -113 24t-80 84z" />
    <glyph glyph-name="Scedilla" unicode="&#x15e;" horiz-adv-x="589" 
d="M314 408q45 -9 89 -21t77 -35.5t48.5 -63.5t2.5 -105q-9 -44 -32.5 -77.5t-57 -57.5t-74 -38t-82.5 -18l-28 -53q37 0 59 -22.5t17 -60.5q-3 -26 -16.5 -44t-32.5 -29.5t-41 -17t-43 -5.5q-22 0 -43.5 7t-43.5 18l31 54q20 -11 33 -14t30 -3q23 0 36 10.5t16 23.5
t-5 23.5t-26 10.5q-8 0 -17.5 -1.5t-18.5 -6.5l-13 15l49 94q-38 2 -73.5 12t-65 29t-52 46t-32.5 63l82 35q8 -26 25 -45t40.5 -31.5t51 -19t56.5 -6.5q31 0 62.5 7t57 21t44 35t24.5 50q9 38 -2.5 62.5t-35.5 39.5t-57.5 23.5t-69.5 16.5q-42 9 -82.5 21.5t-70.5 35
t-46 57.5t-9 88q9 46 36.5 81.5t65.5 58.5t83 35t91 12q39 0 77 -8.5t70.5 -26.5t56 -45.5t34.5 -64.5l-81 -34q-7 25 -24 43t-39.5 29.5t-50 17t-55.5 5.5q-31 0 -61 -6t-54.5 -19t-42 -33t-23.5 -48q-7 -32 4 -52t33.5 -33t53.5 -20.5t65 -14.5z" />
    <glyph glyph-name="scedilla" unicode="&#x15f;" horiz-adv-x="445" 
d="M244 300q30 -6 58 -17t49 -29.5t32 -46.5t6 -67q-5 -35 -21.5 -62t-40 -45.5t-52.5 -28.5t-60 -13l-27 -52q37 0 59 -22.5t17 -60.5q-3 -26 -16.5 -44t-32.5 -29.5t-41 -17t-43 -5.5q-22 0 -43.5 7t-43.5 18l31 54q20 -11 33 -14t30 -3q23 0 36 10.5t16 23.5t-5 23.5
t-26 10.5q-8 0 -17.5 -1.5t-18.5 -6.5l-13 15l50 95q-51 5 -92.5 29.5t-67.5 76.5l65 39q21 -39 59.5 -55.5t78.5 -16.5q18 0 35.5 4.5t32.5 14t25.5 24t13.5 34.5q3 21 -4.5 35t-21 23t-31.5 14.5t-35 8.5q-31 6 -62 15t-54.5 26.5t-36.5 44.5t-7 69q6 41 27.5 69.5
t51 46.5t64 26t66.5 8q41 0 80 -15t68 -47l-59 -57q-20 25 -45.5 35t-52.5 10q-17 0 -36.5 -2.5t-37 -10t-30 -21t-15.5 -35.5q-2 -20 8 -34.5t26 -25t35 -16.5t36 -9z" />
    <glyph glyph-name="Scaron" unicode="&#x160;" horiz-adv-x="589" 
d="M211 892h99l60 -69l74 69h101l-147 -136h-78zM158 528q-7 -32 4 -52t33.5 -33t53.5 -20.5t65 -14.5q45 -9 89 -21t77 -35.5t48.5 -63.5t2.5 -105q-9 -49 -37 -85t-67 -60t-86 -36t-94 -12q-40 0 -78.5 9.5t-71 28t-57 47t-35.5 66.5l82 35q8 -26 25 -45t40.5 -31.5
t51 -19t56.5 -6.5q31 0 62.5 7t57 21t44 35t24.5 50q9 38 -2.5 62.5t-35.5 39.5t-57.5 23.5t-69.5 16.5q-42 9 -82.5 21.5t-70.5 35t-46 57.5t-9 88q9 46 36.5 81.5t65.5 58.5t83 35t91 12q39 0 77 -8.5t70.5 -26.5t56 -45.5t34.5 -64.5l-81 -34q-7 25 -24 43t-39.5 29.5
t-50 17t-55.5 5.5q-31 0 -61 -6t-54.5 -19t-42 -33t-23.5 -48z" />
    <glyph glyph-name="scaron" unicode="&#x161;" horiz-adv-x="445" 
d="M127 712h99l60 -69l74 69h101l-147 -136h-78zM65 137q21 -39 59.5 -55.5t78.5 -16.5q18 0 35.5 4.5t32.5 14t25.5 24t13.5 34.5q3 21 -4.5 35t-21 23t-31.5 14.5t-35 8.5q-31 6 -62 15t-54.5 26.5t-36.5 44.5t-7 69q6 41 27.5 69.5t51 46.5t64 26t66.5 8q41 0 80 -15
t68 -47l-59 -57q-20 25 -45.5 35t-52.5 10q-17 0 -36.5 -2.5t-37 -10t-30 -21t-15.5 -35.5q-2 -20 8 -34.5t26 -25t35 -16.5t36 -9q30 -6 58 -17t49 -29.5t32 -46.5t6 -67q-6 -39 -24.5 -67t-45.5 -46.5t-60 -27.5t-66 -9q-62 0 -113 24t-80 84z" />
    <glyph glyph-name="Tcommaaccent" unicode="&#x162;" horiz-adv-x="563" 
d="M57 0zM368 624l-87 -624h-84l87 624h-227l12 84h538l-12 -84h-227zM215 -242h-79l66 160h91z" />
    <glyph glyph-name="tcommaaccent" unicode="&#x163;" horiz-adv-x="284" 
d="M13 0zM187 645l-18 -127h106l-11 -75h-106l-39 -285q-3 -22 3.5 -42.5t21.5 -35t38.5 -21t55.5 -0.5l-9 -69q-47 -6 -84.5 3t-62.5 31.5t-36.5 56t-5.5 77.5l68 487h79zM90 -240h-77l65 156h88z" />
    <glyph glyph-name="Tcaron" unicode="&#x164;" horiz-adv-x="563" 
d="M198 892h99l60 -69l74 69h101l-147 -136h-78zM368 624l-87 -624h-84l87 624h-227l12 84h538l-12 -84h-227z" />
    <glyph glyph-name="tcaron" unicode="&#x165;" horiz-adv-x="284" 
d="M187 645l-18 -127h106l-11 -75h-106l-39 -285q-3 -22 3.5 -42.5t21.5 -35t38.5 -21t55.5 -0.5l-9 -69q-47 -6 -84.5 3t-62.5 31.5t-36.5 56t-5.5 77.5l68 487h79zM295 555h-67l41 122h79z" />
    <glyph glyph-name="Tbar" unicode="&#x166;" horiz-adv-x="567" 
d="M340 407h102l-11 -72h-101l-47 -335h-84l47 335h-102l11 72h101l30 217h-227l12 84h538l-12 -84h-227z" />
    <glyph glyph-name="tbar" unicode="&#x167;" horiz-adv-x="293" 
d="M196 645l-18 -127h106l-11 -75h-106l-16 -115h81l-10 -66h-80l-14 -104q-3 -22 3.5 -42.5t21.5 -35t38.5 -21t55.5 -0.5l-9 -69q-47 -6 -84.5 3t-62.5 31.5t-36.5 56t-5.5 77.5l15 104h-58l10 66h57l44 317h79z" />
    <glyph glyph-name="Umacron" unicode="&#x16a;" horiz-adv-x="675" 
d="M296 853h236l-12 -74h-236zM141 216q-5 -36 7 -62.5t35.5 -44.5t55.5 -26.5t67 -8.5q34 0 69 8.5t63.5 26.5t48 44.5t24.5 62.5l67 492h84l-67 -492q-8 -56 -36.5 -98.5t-70.5 -71t-92.5 -42.5t-100.5 -14q-51 0 -97 14t-80 42.5t-51.5 71t-9.5 98.5l67 492h84z" />
    <glyph glyph-name="umacron" unicode="&#x16b;" 
d="M191 664h236l-12 -74h-236zM420 29q-38 -13 -69 -20.5t-56.5 -11.5t-46 -5.5t-36.5 -1.5q-36 0 -70 11t-58.5 32.5t-37 54t-6.5 75.5l50 355h80l-50 -357q-3 -23 4.5 -40.5t22 -30t34.5 -19t42 -6.5q68 0 124 18l61 435h80z" />
    <glyph glyph-name="Uring" unicode="&#x16e;" horiz-adv-x="675" 
d="M310 859q3 21 13.5 39.5t26.5 33t36 22.5t41 8t38.5 -8.5t28.5 -23t16.5 -33.5t2.5 -39t-13.5 -38.5t-26 -32.5t-35 -22.5t-40.5 -8.5t-38.5 8t-29.5 22.5t-17.5 33t-2.5 39.5zM454 859q3 18 -7.5 31t-28.5 13t-32 -13.5t-16 -31.5q-3 -18 8 -30.5t28 -12.5q18 0 31.5 13
t16.5 31zM141 216q-5 -36 7 -62.5t35.5 -44.5t55.5 -26.5t67 -8.5q34 0 69 8.5t63.5 26.5t48 44.5t24.5 62.5l67 492h84l-67 -492q-8 -56 -36.5 -98.5t-70.5 -71t-92.5 -42.5t-100.5 -14q-51 0 -97 14t-80 42.5t-51.5 71t-9.5 98.5l67 492h84z" />
    <glyph glyph-name="uring" unicode="&#x16f;" 
d="M321 765q34 0 54.5 -14t28.5 -35.5t4.5 -46.5t-18 -46.5t-39 -35.5t-58.5 -14t-55 14t-29 35.5t-4.5 46.5t18 46.5t39.5 35.5t59 14zM314 715q-24 0 -38 -14t-17 -31t7 -31t34 -14t38 14t17 31t-7 31t-34 14zM420 29q-38 -13 -69 -20.5t-56.5 -11.5t-46 -5.5t-36.5 -1.5
q-36 0 -70 11t-58.5 32.5t-37 54t-6.5 75.5l50 355h80l-50 -357q-3 -23 4.5 -40.5t22 -30t34.5 -19t42 -6.5q68 0 124 18l61 435h80z" />
    <glyph glyph-name="Uhungarumlaut" unicode="&#x170;" horiz-adv-x="675" 
d="M347 766h-75l80 130h108zM506 766h-75l79 130h108zM141 216q-5 -36 7 -62.5t35.5 -44.5t55.5 -26.5t67 -8.5q34 0 69 8.5t63.5 26.5t48 44.5t24.5 62.5l67 492h84l-67 -492q-8 -56 -36.5 -98.5t-70.5 -71t-92.5 -42.5t-100.5 -14q-51 0 -97 14t-80 42.5t-51.5 71
t-9.5 98.5l67 492h84z" />
    <glyph glyph-name="uhungarumlaut" unicode="&#x171;" 
d="M242 577h-75l80 130h108zM401 577h-75l79 130h108zM420 29q-38 -13 -69 -20.5t-56.5 -11.5t-46 -5.5t-36.5 -1.5q-36 0 -70 11t-58.5 32.5t-37 54t-6.5 75.5l50 355h80l-50 -357q-3 -23 4.5 -40.5t22 -30t34.5 -19t42 -6.5q68 0 124 18l61 435h80z" />
    <glyph glyph-name="Uogonek" unicode="&#x172;" horiz-adv-x="675" 
d="M595 216q-8 -55 -35 -96t-67 -70q-39 -34 -64 -64.5t-38.5 -56t-17.5 -45t0 -30.5q5 -16 17.5 -21.5t26.5 -4t28 7t23 12.5l14 -56q-24 -18 -52.5 -26.5t-54.5 -6t-46 17.5t-27 44q-8 31 7.5 78t64.5 100q-39 -9 -79 -9q-51 0 -97 14t-80 42.5t-51.5 71t-9.5 98.5l67 492
h84l-67 -492q-5 -36 7 -62.5t35.5 -44.5t55.5 -26.5t67 -8.5q34 0 69 8.5t63.5 26.5t48 44.5t24.5 62.5l67 492h84z" />
    <glyph glyph-name="uogonek" unicode="&#x173;" 
d="M321 -146q5 -16 17.5 -21.5t26.5 -4t28 7t23 12.5l14 -56q-24 -18 -52.5 -26.5t-54.5 -6t-46 17.5t-27 44q-8 35 9 83t70 99q-38 -8 -66.5 -10.5t-50.5 -2.5q-36 0 -70 11t-58.5 32.5t-37 54t-6.5 75.5l50 355h80l-50 -357q-3 -23 4.5 -40.5t22 -30t34.5 -19t42 -6.5
q68 0 124 18l61 435h80l-68 -489q-34 -31 -55 -58t-32 -49t-13.5 -39.5t1.5 -28.5z" />
    <glyph glyph-name="Wcircumflex" unicode="&#x174;" horiz-adv-x="931" 
d="M688 709h-95l-59 69l-75 -69h-101l146 136h76zM978 708l-304 -708h-102l-83 471q-54 -117 -108.5 -236t-107.5 -235h-102l-106 708h87l85 -608l235 519h74l90 -518l256 607h86z" />
    <glyph glyph-name="wcircumflex" unicode="&#x175;" horiz-adv-x="714" 
d="M559 566h-95l-59 69l-75 -69h-101l146 136h76zM417 507l51 -428h2l54 146l125 293h80l-227 -518h-89l-28 227l-14 170l-60 -174l-87 -223h-97l-84 518h78l46 -293l19 -146h2l160 428h69z" />
    <glyph glyph-name="Ycircumflex" unicode="&#x176;" horiz-adv-x="576" 
d="M518 756h-95l-59 69l-75 -69h-101l146 136h76zM203 0l38 276q-45 104 -92.5 216.5t-92.5 215.5h97l144 -343q59 85 119 171.5t119 171.5h98l-308 -432l-38 -276h-84z" />
    <glyph glyph-name="ycircumflex" unicode="&#x177;" horiz-adv-x="533" 
d="M468 566h-95l-59 69l-75 -69h-101l146 136h76zM74 -63q26 -32 59 -42t68 -10q24 0 48 6t44 18t33.5 30t16.5 43l7 40q-30 -20 -64 -26t-66 -6q-42 0 -78 11.5t-60.5 34t-36 56t-5.5 76.5l50 350h82l-51 -360q-3 -24 4.5 -42t22.5 -30t35.5 -18t43.5 -6q31 0 65 7.5
t66 19.5l61 429h80l-76 -536q-6 -45 -28 -78t-53.5 -54.5t-69 -32t-76.5 -10.5q-51 0 -99 20.5t-78 59.5z" />
    <glyph glyph-name="Ydieresis" unicode="&#x178;" horiz-adv-x="576" 
d="M232 824q3 23 20 38t39 15t35 -15t10 -38q-4 -22 -21 -37t-39 -15t-35 15t-9 37zM403 824q3 23 19.5 38t39.5 15q22 0 35 -15t10 -38q-4 -22 -21 -37t-39 -15q-23 0 -35.5 15t-8.5 37zM203 0l38 276q-45 104 -92.5 216.5t-92.5 215.5h97l144 -343q59 85 119 171.5
t119 171.5h98l-308 -432l-38 -276h-84z" />
    <glyph glyph-name="Zacute" unicode="&#x179;" horiz-adv-x="580" 
d="M272 756l99 136h108l-121 -136h-86zM586 708l19 -58l-494 -566h402l-11 -84h-500l-16 59l493 565h-395l12 84h490z" />
    <glyph glyph-name="zacute" unicode="&#x17a;" horiz-adv-x="467" 
d="M179 566l99 136h108l-121 -136h-86zM424 518l35 -52l-363 -392h303l-10 -74h-368l-36 51l364 403h-281l4 64h352z" />
    <glyph glyph-name="Zdotaccent" unicode="&#x17b;" horiz-adv-x="580" 
d="M294 822q4 26 24.5 44t46.5 18t41.5 -18t11.5 -44t-24 -44t-46 -18t-42 18t-12 44zM586 708l19 -58l-494 -566h402l-11 -84h-500l-16 59l493 565h-395l12 84h490z" />
    <glyph glyph-name="zdotaccent" unicode="&#x17c;" horiz-adv-x="467" 
d="M201 632q4 26 24.5 44t46.5 18t41.5 -18t11.5 -44t-24 -44t-46 -18t-42 18t-12 44zM424 518l35 -52l-363 -392h303l-10 -74h-368l-36 51l364 403h-281l4 64h352z" />
    <glyph glyph-name="Zcaron" unicode="&#x17d;" horiz-adv-x="580" 
d="M201 892h99l60 -69l74 69h101l-147 -136h-78zM586 708l19 -58l-494 -566h402l-11 -84h-500l-16 59l493 565h-395l12 84h490z" />
    <glyph glyph-name="zcaron" unicode="&#x17e;" horiz-adv-x="467" 
d="M108 702h99l60 -69l74 69h101l-147 -136h-78zM424 518l35 -52l-363 -392h303l-10 -74h-368l-36 51l364 403h-281l4 64h352z" />
    <glyph glyph-name="florin" unicode="&#x192;" horiz-adv-x="405" 
d="M173 -9q-11 -60 -46 -94t-103 -34q-23 0 -46.5 7.5t-46.5 26.5l44 67q14 -12 28 -17.5t25 -5.5q31 0 46 24t23 70v1l58 311h-100v77h113q7 35 13.5 68t12.5 67q5 27 15 54t27.5 48.5t43.5 35t63 13.5q25 0 51.5 -10.5t51.5 -28.5l-45 -65q-15 11 -30 18.5t-28 7.5
q-30 0 -45 -22t-21 -53v1q-6 -37 -12.5 -67t-12.5 -67h100v-77h-113z" />
    <glyph glyph-name="Scommaaccent" unicode="&#x218;" horiz-adv-x="589" 
d="M158 528q-7 -32 4 -52t33.5 -33t53.5 -20.5t65 -14.5q45 -9 89 -21t77 -35.5t48.5 -63.5t2.5 -105q-9 -49 -37 -85t-67 -60t-86 -36t-94 -12q-40 0 -78.5 9.5t-71 28t-57 47t-35.5 66.5l82 35q8 -26 25 -45t40.5 -31.5t51 -19t56.5 -6.5q31 0 62.5 7t57 21t44 35t24.5 50
q9 38 -2.5 62.5t-35.5 39.5t-57.5 23.5t-69.5 16.5q-42 9 -82.5 21.5t-70.5 35t-46 57.5t-9 88q9 46 36.5 81.5t65.5 58.5t83 35t91 12q39 0 77 -8.5t70.5 -26.5t56 -45.5t34.5 -64.5l-81 -34q-7 25 -24 43t-39.5 29.5t-50 17t-55.5 5.5q-31 0 -61 -6t-54.5 -19t-42 -33
t-23.5 -48zM223 -242h-79l66 160h91z" />
    <glyph glyph-name="scommaaccent" unicode="&#x219;" horiz-adv-x="445" 
d="M65 137q21 -39 59.5 -55.5t78.5 -16.5q18 0 35.5 4.5t32.5 14t25.5 24t13.5 34.5q3 21 -4.5 35t-21 23t-31.5 14.5t-35 8.5q-31 6 -62 15t-54.5 26.5t-36.5 44.5t-7 69q6 41 27.5 69.5t51 46.5t64 26t66.5 8q41 0 80 -15t68 -47l-59 -57q-20 25 -45.5 35t-52.5 10
q-17 0 -36.5 -2.5t-37 -10t-30 -21t-15.5 -35.5q-2 -20 8 -34.5t26 -25t35 -16.5t36 -9q30 -6 58 -17t49 -29.5t32 -46.5t6 -67q-6 -39 -24.5 -67t-45.5 -46.5t-60 -27.5t-66 -9q-62 0 -113 24t-80 84zM141 -241h-79l66 160h91z" />
    <glyph glyph-name="uni021A" unicode="&#x21a;" horiz-adv-x="563" 
d="M368 624l-87 -624h-84l87 624h-227l12 84h538l-12 -84h-227zM215 -242h-79l66 160h91z" />
    <glyph glyph-name="uni021B" unicode="&#x21b;" horiz-adv-x="284" 
d="M187 645l-18 -127h106l-11 -75h-106l-39 -285q-3 -22 3.5 -42.5t21.5 -35t38.5 -21t55.5 -0.5l-9 -69q-47 -6 -84.5 3t-62.5 31.5t-36.5 56t-5.5 77.5l68 487h79zM90 -240h-77l65 156h88z" />
    <glyph glyph-name="circumflex" unicode="&#x2c6;" horiz-adv-x="262" 
d="M308 756h-95l-59 69l-75 -69h-101l146 136h76z" />
    <glyph glyph-name="caron" unicode="&#x2c7;" horiz-adv-x="257" 
d="M3 892h99l60 -69l74 69h101l-147 -136h-78z" />
    <glyph glyph-name="uni02C9" unicode="&#x2c9;" horiz-adv-x="240" 
d="M72 675h277l-10 -77h-277z" />
    <glyph glyph-name="breve" unicode="&#x2d8;" horiz-adv-x="240" 
d="M157 753q-28 0 -50.5 8.5t-37.5 25.5t-21 43t-1 62h73q-5 -36 9.5 -51.5t37.5 -15.5q24 0 40.5 15.5t24.5 51.5h74q-5 -39 -20 -65.5t-35.5 -43t-45 -23.5t-48.5 -7z" />
    <glyph glyph-name="dotaccent" unicode="&#x2d9;" horiz-adv-x="240" 
d="M64 822q4 26 24.5 44t46.5 18t41.5 -18t11.5 -44t-24 -44t-46 -18t-42 18t-12 44z" />
    <glyph glyph-name="ring" unicode="&#x2da;" horiz-adv-x="240" 
d="M219 954q34 0 54.5 -14t28.5 -35.5t4.5 -46.5t-18 -46.5t-39 -35.5t-58.5 -14t-55 14t-29 35.5t-4.5 46.5t18 46.5t39.5 35.5t59 14zM212 904q-24 0 -38 -14t-17 -31t7 -31t34 -14t38 14t17 31t-7 31t-34 14z" />
    <glyph glyph-name="ogonek" unicode="&#x2db;" horiz-adv-x="240" 
d="M212 3q-51 -47 -69 -86.5t-10 -62.5q5 -16 17.5 -21.5t26.5 -4t28 7t23 12.5l14 -56q-24 -18 -52.5 -26.5t-54.5 -6t-46 17.5t-27 44q-5 19 -1.5 42.5t14.5 47.5t29.5 47.5t45.5 44.5h62z" />
    <glyph glyph-name="tilde" unicode="&#x2dc;" horiz-adv-x="271" 
d="M102 785q13 45 37 68t57 25q18 1 31.5 -5.5t25 -15t22 -15.5t22.5 -7q8 0 19.5 9.5t16.5 27.5l58 -21q-11 -45 -36.5 -66.5t-54.5 -23.5q-17 -2 -31 5t-26 16t-23.5 16.5t-22.5 6.5t-21.5 -10.5t-18.5 -29.5z" />
    <glyph glyph-name="hungarumlaut" unicode="&#x2dd;" horiz-adv-x="273" 
d="M146 766h-75l80 130h108zM305 766h-75l79 130h108z" />
    <glyph glyph-name="uni0326" unicode="&#x326;" horiz-adv-x="0" 
d="M135 -242h-79l66 160h91z" />
    <glyph glyph-name="uni03A9" unicode="&#x3a9;" horiz-adv-x="772" 
d="M149 79q-23 25 -42 56.5t-31.5 69t-16.5 80.5t3 92q11 78 46.5 141t87.5 107.5t117 68.5t136 24q73 0 130 -26.5t93.5 -72.5t52 -107.5t5.5 -130.5q-7 -50 -23 -94t-38.5 -82t-49.5 -70t-56 -56h137l-11 -79h-285l8 57q43 22 82 55t70 74.5t52.5 90.5t29.5 104
q6 46 -4 91t-36.5 81t-69 58.5t-100.5 22.5q-55 0 -104 -19t-87.5 -53.5t-64 -82t-33.5 -104.5q-7 -51 1 -97t28.5 -86.5t51 -74.5t67.5 -60l-8 -57h-289l11 79h140z" />
    <glyph glyph-name="uni03BC" unicode="&#x3bc;" horiz-adv-x="532" 
d="M352 65q-27 -35 -67 -55t-85 -20q-58 0 -93 32l-34 -238h-83l104 734h84l-46 -324q-3 -24 -2.5 -47.5t8.5 -41.5t25.5 -29t47.5 -11q28 0 54.5 10.5t48.5 31t37 52t21 73.5l41 286h84l-72 -520h-81z" />
    <glyph glyph-name="pi" unicode="&#x3c0;" horiz-adv-x="559" 
d="M463 -2q-39 2 -63 13t-37 30t-15.5 45.5t2.5 58.5l40 297h-171l-60 -442h-79l60 442q-35 -1 -57.5 -6t-40.5 -11l-8 61q23 14 57.5 23t85.5 9h386l-19 -76h-73l-39 -291q-5 -40 2.5 -58t38.5 -16z" />
    <glyph glyph-name="uni0401" unicode="&#x401;" horiz-adv-x="570" 
d="M230 811q3 23 20 38t39 15t35 -15t10 -38q-4 -22 -21 -37t-39 -15t-35 15t-9 37zM401 811q3 23 19.5 38t39.5 15q22 0 35 -15t10 -38q-4 -22 -21 -37t-39 -15q-23 0 -35.5 15t-8.5 37zM170 396h341l-12 -84h-341l-32 -228h370l-12 -84h-454l100 708h454l-12 -84h-370z
" />
    <glyph glyph-name="uni0410" unicode="&#x410;" horiz-adv-x="615" 
d="M571 0h-88l-51 227h-273l-111 -227h-89l353 708h102zM350 618q-38 -78 -74.5 -152.5t-76.5 -154.5h216z" />
    <glyph glyph-name="uni0411" unicode="&#x411;" horiz-adv-x="618" 
d="M588 708l-12 -84h-374l-28 -203h182q58 0 102.5 -11t73 -36.5t40 -66t3.5 -99.5q-8 -57 -32.5 -96.5t-60.5 -64.5t-82.5 -36t-98.5 -11h-271l100 708h458zM163 343l-37 -259h191q34 0 63.5 5t52 19t37.5 38.5t21 63.5q9 66 -23 99.5t-121 33.5h-184z" />
    <glyph glyph-name="uni0412" unicode="&#x412;" horiz-adv-x="625" 
d="M584 522q-6 -42 -25 -79.5t-54 -63.5q48 -26 62 -71.5t5 -104.5q-9 -56 -33 -95t-60 -63t-81 -34.5t-96 -10.5h-271l99 708h272q43 0 79 -11.5t61 -35t36.5 -58.5t5.5 -81zM361 417q27 0 51 5.5t42.5 18t31 32.5t16.5 49q4 28 -3 47.5t-23 31.5t-38 17.5t-48 5.5h-188
l-29 -207h188zM314 84q34 0 63.5 5t52.5 18.5t38 37t20 59.5t-2.5 61t-26 40t-46.5 21.5t-64 6.5h-188l-35 -249h188z" />
    <glyph glyph-name="uni0413" unicode="&#x413;" horiz-adv-x="523" 
d="M114 0h-84l100 708h435l-12 -83h-351z" />
    <glyph glyph-name="uni0414" unicode="&#x414;" horiz-adv-x="690" 
d="M-19 83h20q35 4 60 22t45.5 59t39 110t40.5 176l52 258h408l-88 -625h69l-29 -208h-84l17 125h-478l-17 -125h-84zM474 83l76 542h-237l-46 -225q-22 -106 -48.5 -186t-66.5 -131h322z" />
    <glyph glyph-name="uni0415" unicode="&#x415;" horiz-adv-x="570" 
d="M170 396h341l-12 -84h-341l-32 -228h370l-12 -84h-454l100 708h454l-12 -84h-370z" />
    <glyph glyph-name="uni0416" unicode="&#x416;" horiz-adv-x="934" 
d="M67 0h-109l346 372l-246 336h110l264 -358l50 358h84l-50 -358l364 358h110l-340 -336l240 -372h-109l-204 319l-76 -71l-35 -248h-84l35 248l-56 71z" />
    <glyph glyph-name="uni0417" unicode="&#x417;" horiz-adv-x="548" 
d="M327 718q52 0 89 -15t59.5 -41t30.5 -62t2 -78q-13 -94 -90 -143q48 -26 66.5 -71.5t10.5 -104.5q-9 -56 -34 -96.5t-61.5 -66.5t-82 -38t-96.5 -12q-81 0 -141.5 30.5t-89.5 101.5l83 39q23 -45 63.5 -66t99.5 -21q34 0 64 7t53 22t38.5 40t20.5 61q10 73 -28.5 102.5
t-110.5 29.5h-97l11 78h97q27 0 51 6t42.5 18.5t31 33t16.5 49.5q7 56 -25 84.5t-90 28.5q-54 0 -91.5 -16t-72.5 -51l-66 37q51 62 111.5 88t135.5 26z" />
    <glyph glyph-name="uni0418" unicode="&#x418;" horiz-adv-x="689" 
d="M30 0l100 708h84l-82 -586l443 586h97l-100 -708h-84l80 564l-434 -564h-104z" />
    <glyph glyph-name="uni0419" unicode="&#x419;" horiz-adv-x="689" 
d="M414 771q-31 0 -58 9.5t-47.5 28t-31.5 46.5t-10 66h83q3 -35 20 -54t55 -19t59.5 19t35.5 54h83q-9 -38 -28.5 -66t-45 -46.5t-55 -28t-60.5 -9.5zM134 0l434 564l-80 -564h84l100 708h-97l-443 -586l82 586h-84l-100 -708h104z" />
    <glyph glyph-name="uni041A" unicode="&#x41a;" horiz-adv-x="629" 
d="M576 708h111l-389 -341l285 -367h-109l-244 307l-82 -72l-34 -235h-84l100 708h84l-50 -356z" />
    <glyph glyph-name="uni041B" unicode="&#x41b;" horiz-adv-x="677" 
d="M269 400q-19 -95 -35.5 -170.5t-46.5 -127.5t-81 -78.5t-139 -23.5l12 83q54 -3 86.5 18.5t53.5 67.5t36 116t35 165l52 258h418l-100 -708h-84l88 625h-250z" />
    <glyph glyph-name="uni041C" unicode="&#x41c;" horiz-adv-x="796" 
d="M115 0h-84l99 708h105l150 -494l288 494h105l-99 -708h-84l77 551l-268 -458h-71l-141 457z" />
    <glyph glyph-name="uni041D" unicode="&#x41d;" horiz-adv-x="686" 
d="M115 0h-84l99 708h84l-44 -313h370l44 313h84l-99 -708h-84l43 312h-370z" />
    <glyph glyph-name="uni041E" unicode="&#x41e;" horiz-adv-x="671" 
d="M78 496q7 55 37.5 97t74 69.5t96.5 41.5t106 14t101.5 -14t84.5 -41.5t54.5 -69.5t11.5 -97l-38 -283q-8 -56 -38 -97.5t-73.5 -69.5t-96.5 -42t-106 -14t-102 14t-85 42t-54.5 69.5t-10.5 97.5zM123 213q-5 -35 9 -61t39.5 -43.5t60 -26.5t72.5 -9q37 0 74.5 9t68 26.5
t51 43.5t25.5 61l38 283q5 37 -8.5 63t-39.5 42.5t-61 24.5t-72 8q-38 0 -75 -8.5t-67.5 -25t-51 -42.5t-25.5 -62z" />
    <glyph glyph-name="uni041F" unicode="&#x41f;" horiz-adv-x="677" 
d="M114 0h-84l100 708h530l-100 -708h-84l88 625h-362z" />
    <glyph glyph-name="uni0420" unicode="&#x420;" horiz-adv-x="612" 
d="M130 708h270q60 0 102 -20t67.5 -53t34.5 -76t3 -89q-6 -43 -26.5 -82t-55 -68.5t-82 -47t-106.5 -17.5h-188l-35 -255h-83zM348 339q39 0 69.5 12t52.5 32t34.5 45.5t16.5 52.5t-2 53t-22 46t-43 32.5t-66 11.5h-187l-40 -285h187z" />
    <glyph glyph-name="uni0421" unicode="&#x421;" horiz-adv-x="598" 
d="M80 497q7 55 36 96t71 69t92.5 42t101.5 14q38 0 74.5 -8.5t67 -26.5t53.5 -44.5t35 -62.5l-80 -38q-18 48 -64.5 72t-100.5 24q-34 0 -68 -8.5t-62 -25.5t-47.5 -43t-24.5 -60l-39 -286q-5 -35 7 -60.5t35.5 -42.5t55 -25.5t65.5 -8.5q55 0 108 23.5t84 71.5l70 -35
q-23 -36 -54 -63t-67 -45t-75 -27t-77 -9q-50 0 -96 14t-79.5 41.5t-51 69t-9.5 96.5z" />
    <glyph glyph-name="uni0422" unicode="&#x422;" horiz-adv-x="563" 
d="M368 624l-87 -624h-84l87 624h-227l12 84h538l-12 -84h-227z" />
    <glyph glyph-name="uni0423" unicode="&#x423;" 
d="M206 225l-167 483h97l125 -389l231 389h88l-419 -708h-89z" />
    <glyph glyph-name="uni0424" unicode="&#x424;" horiz-adv-x="730" 
d="M290 66q-53 0 -102.5 9.5t-86.5 32.5t-56 60t-11 93l26 187q8 55 37.5 92.5t73 60.5t95.5 32.5t105 9.5l9 65h84l-9 -65q53 0 102.5 -9.5t86 -32.5t55.5 -60.5t11 -92.5l-26 -187q-8 -56 -37.5 -93t-72.5 -60t-95 -32.5t-105 -9.5l-10 -66h-84zM361 567q-38 0 -74.5 -5
t-66.5 -18.5t-51 -36.5t-26 -60l-26 -186q-5 -37 8.5 -60t40 -36t61.5 -18t73 -5zM627 447q5 37 -9 60t-40.5 36.5t-62 18.5t-72.5 5l-59 -425q37 0 74 5t67 18t50.5 36t25.5 60z" />
    <glyph glyph-name="uni0425" unicode="&#x425;" horiz-adv-x="593" 
d="M444 0l-151 284l-231 -284h-102l293 353l-191 355h100l152 -280l230 280h101l-292 -355l193 -353h-102z" />
    <glyph glyph-name="uni0426" unicode="&#x426;" horiz-adv-x="690" 
d="M213 708l-88 -625h349l88 625h84l-88 -625h69l-29 -208h-84l17 125h-502l100 708h84z" />
    <glyph glyph-name="uni0427" unicode="&#x427;" horiz-adv-x="607" 
d="M447 290q-38 -29 -82 -48t-96 -19q-51 0 -93 13.5t-70.5 41t-41 69t-4.5 97.5l37 264h84l-37 -264q-5 -36 2.5 -62t26 -42.5t46 -24.5t62.5 -8q33 0 59.5 5.5t48 14t38.5 19.5t31 23l48 339h84l-100 -708h-84z" />
    <glyph glyph-name="uni0428" unicode="&#x428;" horiz-adv-x="885" 
d="M541 708l-88 -625h243l88 625h84l-100 -708h-738l100 708h84l-88 -625h243l88 625h84z" />
    <glyph glyph-name="uni0429" unicode="&#x429;" horiz-adv-x="911" 
d="M213 708l-88 -625h243l88 625h84l-88 -625h243l88 625h84l-88 -625h69l-29 -208h-84l17 125h-723l100 708h84z" />
    <glyph glyph-name="uni042A" unicode="&#x42a;" horiz-adv-x="673" 
d="M68 708h205l-38 -268h178q58 0 102.5 -12.5t73 -39.5t39.5 -70t3 -104q-8 -57 -32.5 -97.5t-61 -66.5t-83 -38t-98.5 -12h-267l89 629h-121zM224 362l-39 -278h187q34 0 63.5 6t52.5 21t38 40.5t21 64.5q10 70 -22.5 108t-120.5 38h-180z" />
    <glyph glyph-name="uni042B" unicode="&#x42b;" horiz-adv-x="836" 
d="M30 0l100 708h84l-38 -268h178q58 0 102.5 -12.5t73 -39.5t39.5 -70t3 -104q-8 -57 -32.5 -97.5t-61 -66.5t-83 -38t-98.5 -12h-267zM819 708h-83l-100 -708h83zM165 362l-39 -278h187q34 0 63.5 6t52.5 21t38 40.5t21 64.5q10 70 -22.5 108t-120.5 38h-180z" />
    <glyph glyph-name="uni042C" unicode="&#x42c;" horiz-adv-x="614" 
d="M30 0l100 708h84l-38 -268h178q58 0 102.5 -12.5t73 -39.5t39.5 -70t3 -104q-8 -57 -32.5 -97.5t-61 -66.5t-83 -38t-98.5 -12h-267zM165 362l-39 -278h187q34 0 63.5 6t52.5 21t38 40.5t21 64.5q10 70 -22.5 108t-120.5 38h-180z" />
    <glyph glyph-name="uni042D" unicode="&#x42d;" horiz-adv-x="600" 
d="M334 718q51 0 97.5 -14.5t80.5 -43t51 -70t10 -96.5l-39 -280q-8 -55 -37 -96.5t-70 -69t-91 -41.5t-100 -14q-38 0 -75 9t-68 27t-54.5 45t-35.5 63l80 35q9 -24 25 -41.5t38 -29.5t48 -18t53 -6q34 0 68 8.5t62.5 25.5t48 42.5t24.5 60.5l13 98h-314l12 82h314l14 100
q5 34 -7 60.5t-35.5 44t-55 26.5t-65.5 9q-27 0 -54.5 -6t-53 -18t-47 -30t-37.5 -42l-70 38q22 36 52.5 62.5t66 44.5t74.5 26.5t77 8.5z" />
    <glyph glyph-name="uni042E" unicode="&#x42e;" horiz-adv-x="921" 
d="M113 0h-84l100 708h84l-43 -309h146l13 97q8 55 38 97t73.5 69.5t96.5 41.5t106 14t102 -14t85 -41.5t54.5 -69.5t10.5 -97l-40 -283q-8 -56 -38 -97.5t-73.5 -69.5t-96.5 -42t-106 -14t-102 14t-85 42t-54.5 69.5t-10.5 97.5l15 107h-146zM372 213q-5 -35 8.5 -61
t39 -43.5t60.5 -26.5t73 -9q37 0 74.5 9t68 26.5t51 43.5t25.5 61l40 282q5 37 -8.5 63.5t-39.5 43.5t-61 25t-72 8q-38 0 -74.5 -8.5t-67 -26t-51.5 -43.5t-26 -62z" />
    <glyph glyph-name="uni042F" unicode="&#x42f;" horiz-adv-x="624" 
d="M253 290q-45 2 -83 15t-63.5 37.5t-37.5 62.5t-4 91q8 57 32.5 97t60.5 65.5t82 37.5t97 12h270l-100 -708h-84l41 289h-103l-284 -289h-112zM511 625h-187q-34 1 -63.5 -5.5t-52.5 -21.5t-38.5 -40t-20.5 -62q-10 -71 28.5 -100t110.5 -29h187z" />
    <glyph glyph-name="uni0430" unicode="&#x430;" horiz-adv-x="508" 
d="M23 0zM330 48q-29 -28 -66 -43t-80 -15q-34 0 -64.5 11t-53 32.5t-33 53.5t-4.5 74l28 191q7 49 30 83t55.5 54.5t72.5 29.5t81 9q50 0 93 -13.5t81 -36.5l-67 -478h-70zM382 432q-20 10 -40 16.5t-51 6.5q-27 0 -53 -6.5t-47.5 -20t-36 -33t-18.5 -46.5l-28 -193
q-7 -49 22 -71.5t76 -22.5q38 0 71.5 17t57.5 38z" />
    <glyph glyph-name="uni0431" unicode="&#x431;" horiz-adv-x="510" 
d="M92 532q6 43 27 72.5t51 48.5t67 28.5t75 12.5q51 5 85.5 14.5t63.5 23.5l18 -65q-35 -23 -80 -33.5t-93 -15.5q-24 -3 -46.5 -7t-40.5 -13t-30.5 -24.5t-16.5 -42.5l-12 -85q27 19 62.5 31.5t78.5 12.5q40 0 73 -10t54.5 -31t30.5 -53t3 -76l-22 -157q-6 -44 -27.5 -76
t-52.5 -54t-68.5 -32.5t-74.5 -10.5q-38 0 -72.5 10.5t-59.5 32.5t-38 54t-7 76zM120 163q-3 -24 5 -42t24 -29.5t36.5 -17t42.5 -5.5q21 0 43 5.5t40.5 17t32 29.5t16.5 42l22 157q4 27 -2.5 45t-20.5 29t-34 15.5t-43 4.5q-68 0 -132 -39z" />
    <glyph glyph-name="uni0432" unicode="&#x432;" horiz-adv-x="511" 
d="M83 476q53 23 108.5 37.5t118.5 14.5q31 0 61 -8.5t52.5 -25t34.5 -41.5t7 -59q-5 -36 -23.5 -67.5t-44.5 -51.5q34 -20 46.5 -52.5t5.5 -74.5q-8 -47 -27 -77.5t-49.5 -48.5t-71 -25t-90.5 -7q-58 0 -100.5 14.5t-88.5 37.5zM279 297q38 0 68 22t35 64q3 20 -3 34
t-18 22.5t-29 12t-35 3.5q-52 0 -82 -6t-58 -18l-19 -134h141zM242 63q24 0 45.5 3t38.5 12.5t28.5 27t15.5 46.5q3 25 -3 41.5t-19.5 26t-33.5 13.5t-45 4h-139l-21 -150q24 -12 52.5 -18t80.5 -6z" />
    <glyph glyph-name="uni0433" unicode="&#x433;" horiz-adv-x="444" 
d="M90 146q-7 -47 17 -65.5t72 -18.5q51 0 90 14.5t72 45.5l42 -48q-45 -45 -97.5 -64.5t-115.5 -19.5q-36 0 -68 9t-54.5 27.5t-33 46.5t-5.5 66q5 36 20.5 61.5t40 43.5t58 30.5t75.5 23.5q20 5 40.5 10.5t38.5 14.5t30.5 24t15.5 39q5 34 -18 49t-63 15q-35 0 -68 -10.5
t-62 -34.5l-45 52q41 35 88.5 53t93.5 18q28 0 58 -7t53 -23t35.5 -43.5t6.5 -67.5q-6 -42 -25 -68.5t-46 -42.5t-59 -25.5t-63 -17.5q-23 -6 -44.5 -12.5t-38 -16t-27.5 -23.5t-14 -35z" />
    <glyph glyph-name="uni0434" unicode="&#x434;" horiz-adv-x="505" 
d="M426 167q-6 -44 -27 -77t-51.5 -55t-67.5 -33.5t-74 -11.5q-38 0 -72.5 10t-59.5 31t-38 53t-7 76l24 170q6 42 27.5 74.5t52.5 54t68 32.5t75 11q30 0 60.5 -5t53.5 -22l11 79q3 24 -5 41t-24 28t-37.5 16t-44.5 5q-34 0 -65 -7t-58 -24l-41 54q46 33 88.5 42t92.5 9
q37 0 71 -9.5t58.5 -29t37 -51t6.5 -74.5zM380 404q-29 11 -57.5 16.5t-58.5 6.5q-23 -1 -45 -7.5t-40 -18.5t-30.5 -29.5t-15.5 -39.5l-24 -172q-3 -24 5 -41.5t24 -28.5t36.5 -16t42.5 -5q21 0 42.5 5.5t39.5 17.5t31 30t17 42z" />
    <glyph glyph-name="uni0435" unicode="&#x435;" horiz-adv-x="483" 
d="M22 0zM402 81q-45 -53 -95 -72t-103 -19q-37 0 -71.5 10.5t-59.5 32.5t-38 54t-7 76l26 184q6 45 28 79t53.5 56.5t69.5 34t76 11.5q37 0 71.5 -11t59 -33.5t37 -55.5t6.5 -77q-6 -43 -24.5 -71.5t-45.5 -45.5t-61 -24t-70 -7q-35 0 -67 4t-70 15l-10 -66q-3 -24 5.5 -41
t24.5 -28.5t37 -16.5t42 -5q16 0 31.5 2t30.5 7.5t31 16t34 27.5zM126 289q32 -11 61 -15.5t63 -4.5q22 0 42.5 3t37.5 12t28.5 26t15.5 44t-3 46t-22 31t-36 17.5t-43 5.5q-23 0 -45.5 -7t-41 -20.5t-31.5 -33.5t-17 -45z" />
    <glyph glyph-name="uni0436" unicode="&#x436;" horiz-adv-x="753" 
d="M294 0l29 203l-29 34l-220 -237h-101l268 286l-200 232h104l191 -225l31 225h79l-31 -225l253 225h104l-264 -232l186 -286h-101l-152 237l-39 -34l-29 -203h-79z" />
    <glyph glyph-name="uni0437" unicode="&#x437;" horiz-adv-x="446" 
d="M249 528q38 0 67.5 -11t49 -30t28 -45t4.5 -57q-5 -35 -27 -63.5t-50 -42.5q35 -14 53 -51.5t12 -80.5q-6 -41 -27 -71t-50.5 -49t-65 -28t-72.5 -9q-60 0 -106.5 22.5t-69.5 74.5l71 33q15 -29 42 -43t70 -14q25 0 47 3.5t38.5 12.5t27.5 25.5t15 43.5q7 54 -21 74.5
t-81 20.5h-71l8 60h71q40 0 69.5 19.5t34.5 61.5q6 39 -18 55t-67 16q-41 0 -68.5 -11t-52.5 -37l-53 31q38 47 87.5 68.5t104.5 21.5z" />
    <glyph glyph-name="uni0438" unicode="&#x438;" 
d="M420 28q-38 -13 -69 -20.5t-56 -11.5t-45.5 -5t-36.5 -1q-37 0 -70.5 11t-58 32.5t-37 53.5t-6.5 75l50 356h80l-50 -358q-3 -23 4.5 -40.5t22 -29.5t34.5 -18.5t42 -6.5q35 0 65.5 4t58.5 13l61 436h80z" />
    <glyph glyph-name="uni0439" unicode="&#x439;" 
d="M291 569q-23 0 -43.5 8t-36.5 23.5t-25 39t-8 54.5h73q2 -26 17 -38.5t34 -12.5t37 12.5t28 38.5h73q-8 -31 -24 -54.5t-36 -39t-43.5 -23.5t-45.5 -8zM489 518h-80l-61 -436q-28 -9 -58.5 -13t-65.5 -4q-22 0 -42 6.5t-34.5 18.5t-22 29.5t-4.5 40.5l50 358h-80
l-50 -356q-6 -43 6.5 -75t37 -53.5t58 -32.5t70.5 -11q16 0 36.5 1t45.5 5t56 11.5t69 20.5z" />
    <glyph glyph-name="uni043A" unicode="&#x43a;" horiz-adv-x="500" 
d="M142 278q69 60 136.5 120t136.5 120h104l-267 -236l189 -282h-101l-152 225l-61 -54l-25 -171h-80l73 518h80z" />
    <glyph glyph-name="uni043B" unicode="&#x43b;" horiz-adv-x="535" 
d="M239 441l-37 -176q-14 -63 -25.5 -112t-34 -83t-61.5 -52t-108 -18l11 78q41 0 63.5 8t36 32t23.5 68t25 117l45 215h324l-73 -518h-80l62 441h-171z" />
    <glyph glyph-name="uni043C" unicode="&#x43c;" horiz-adv-x="641" 
d="M102 0h-80l73 518h99l110 -335l204 335h99l-73 -518h-80l54 383l-193 -315h-54l-105 315z" />
    <glyph glyph-name="uni043D" unicode="&#x43d;" horiz-adv-x="528" 
d="M146 309h239l29 209h80l-73 -518h-80l33 232h-239l-33 -232h-80l73 518h80z" />
    <glyph glyph-name="uni043E" unicode="&#x43e;" horiz-adv-x="496" 
d="M55 355q6 43 28 75.5t53 54t68.5 32.5t75.5 11q37 0 71.5 -11t59.5 -32.5t37.5 -54t6.5 -75.5l-27 -192q-6 -44 -27.5 -76t-52.5 -53.5t-68.5 -32.5t-74.5 -11q-38 0 -72.5 11t-59.5 32.5t-38 53.5t-7 76zM269 448q-22 0 -44.5 -5.5t-41 -16.5t-32 -29t-16.5 -42
l-27 -192q-3 -24 5 -42t24 -29.5t36.5 -17t42.5 -5.5q21 0 43 5.5t40.5 17t32 29.5t16.5 42l27 192q3 24 -5 42t-23.5 29t-36 16.5t-41.5 5.5z" />
    <glyph glyph-name="uni043F" unicode="&#x43f;" horiz-adv-x="520" 
d="M87 475q52 17 105.5 30t102.5 13q37 -1 70.5 -11.5t58 -31.5t36.5 -52.5t6 -74.5l-49 -348h-79l49 348q3 24 -4.5 41.5t-22.5 29t-35 17t-41 5.5q-35 0 -68.5 -7.5t-56.5 -15.5l-59 -418h-80z" />
    <glyph glyph-name="uni0440" unicode="&#x440;" horiz-adv-x="512" 
d="M89 490q54 17 106.5 27t102.5 10q37 0 71 -11t58.5 -32t37 -53.5t6.5 -75.5l-26 -191q-6 -42 -28 -74.5t-53.5 -54.5t-69 -33t-75.5 -11q-32 0 -61 5t-55 23l-28 -200h-80zM114 93q27 -11 56.5 -17t60.5 -6q22 0 44.5 6t41.5 18t31.5 29.5t15.5 40.5l27 193
q3 22 -4.5 39.5t-22 29.5t-35 18.5t-42.5 6.5q-31 0 -63 -2t-62 -10z" />
    <glyph glyph-name="uni0441" unicode="&#x441;" horiz-adv-x="469" 
d="M376 401q-11 27 -41.5 40t-65.5 13q-23 0 -45 -6t-40.5 -17.5t-31 -29t-16.5 -41.5l-31 -204q-3 -23 4.5 -40t23 -28.5t36 -17t43.5 -5.5q39 0 76.5 20t55.5 62l71 -29q-16 -32 -39.5 -56t-52 -40t-59.5 -24t-61 -8q-37 0 -71.5 11t-59.5 32.5t-37.5 54t-6.5 76.5l27 190
q6 43 28 76t53.5 54.5t69 32.5t74.5 11q55 0 102 -26t69 -78l-69 -33z" />
    <glyph glyph-name="uni0442" unicode="&#x442;" horiz-adv-x="795" 
d="M87 483q39 20 87.5 32.5t95.5 12.5q43 0 82.5 -13t65.5 -44q33 30 73 43.5t77 13.5q40 0 74.5 -10t58.5 -31t35.5 -53t5.5 -77l-51 -358h-80l53 364q4 27 -3 45t-21.5 28.5t-34.5 14t-42 3.5q-18 0 -37.5 -4.5t-36 -13.5t-28 -22.5t-14.5 -31.5l-56 -383h-78l53 372
q3 20 -4.5 35.5t-22 26t-34.5 16t-41 5.5q-29 0 -57 -7t-47 -19l-61 -429h-80z" />
    <glyph glyph-name="uni0443" unicode="&#x443;" horiz-adv-x="533" 
d="M19 0zM74 -63q26 -32 59 -42t68 -10q24 0 48 6t44 18t33.5 30t16.5 43l7 40q-30 -20 -64 -26t-66 -6q-42 0 -78 11.5t-60.5 34t-36 56t-5.5 76.5l50 350h82l-51 -360q-3 -24 4.5 -42t22.5 -30t35.5 -18t43.5 -6q31 0 65 7.5t66 19.5l61 429h80l-76 -536q-6 -45 -28 -78
t-53.5 -54.5t-69 -32t-76.5 -10.5q-51 0 -99 20.5t-78 59.5z" />
    <glyph glyph-name="uni0444" unicode="&#x444;" horiz-adv-x="699" 
d="M419 514q5 3 15 5.5t22 4.5t24 3t21 1q29 0 59.5 -10.5t54 -32.5t36 -54.5t6.5 -75.5l-27 -192q-6 -44 -28 -76t-51.5 -54t-63 -32.5t-62.5 -10.5q-9 0 -20.5 1t-23 3t-21 4.5t-13.5 5.5l-26 -185h-80l26 185q-5 -3 -15 -5.5t-22 -4.5t-24 -3t-21 -1q-29 0 -59.5 10.5
t-54 32.5t-36.5 54t-7 76l27 192q6 43 28 75.5t52 54.5t63.5 32.5t62.5 10.5q9 0 20.5 -1t23 -3t20.5 -4.5t14 -5.5l27 194h80zM328 441q-11 5 -28 7.5t-30 2.5q-20 0 -42.5 -6t-41.5 -18t-33 -30t-18 -42l-27 -192q-3 -24 5.5 -42t24.5 -30t37 -18t41 -6q13 0 31 2.5
t30 7.5zM357 77q11 -5 28.5 -7.5t30.5 -2.5q20 0 42.5 6t41.5 18t33 30t17 42l27 192q4 24 -5 42t-24.5 30t-36.5 18t-41 6q-13 0 -31.5 -2.5t-30.5 -7.5z" />
    <glyph glyph-name="uni0445" unicode="&#x445;" horiz-adv-x="483" 
d="M425 0h-98l-101 195l-156 -195h-98l215 259l-143 259h98l102 -196l155 196h98l-214 -259z" />
    <glyph glyph-name="uni0446" unicode="&#x446;" horiz-adv-x="544" 
d="M215 -10q-37 0 -71 11t-59 32.5t-38 53.5t-7 75l50 356h80l-50 -358q-3 -23 4.5 -40.5t22 -29.5t34.5 -18.5t42 -6.5q35 0 63 2t55 10l62 441h80l-59 -423h63q-9 -66 -22 -118.5t-28 -94.5h-65l23 140q-37 -15 -86 -23.5t-94 -8.5z" />
    <glyph glyph-name="uni0447" unicode="&#x447;" horiz-adv-x="489" 
d="M120 328q-4 -27 2 -45.5t19 -30.5t31.5 -17.5t41.5 -5.5q31 0 62.5 6t61.5 20l37 263h80l-73 -518h-80l26 185q-30 -18 -61 -26.5t-63 -8.5q-38 0 -71 11t-56 33t-33.5 54.5t-4.5 74.5l27 195h80z" />
    <glyph glyph-name="uni0448" unicode="&#x448;" horiz-adv-x="785" 
d="M686 37q-39 -20 -88.5 -33.5t-93.5 -13.5q-43 0 -80.5 15t-63.5 46q-34 -30 -73.5 -45.5t-81.5 -15.5q-40 0 -73 10.5t-55.5 31.5t-32 53.5t-3.5 77.5l49 355h80l-49 -353q-4 -27 1.5 -46t18 -30t31 -15.5t40.5 -4.5q18 0 38 5t37.5 15t30 24t15.5 32l52 373h78l-52 -373
q-3 -21 4.5 -36t22.5 -25t35 -14.5t42 -4.5q27 0 54 6t44 17l60 430h80z" />
    <glyph glyph-name="uni0449" unicode="&#x449;" horiz-adv-x="815" 
d="M758 96q-9 -66 -22 -118.5t-28 -94.5h-65l23 139q-37 -14 -80 -23t-81 -9q-43 0 -80.5 15t-63.5 46q-34 -30 -73.5 -45.5t-81.5 -15.5q-40 0 -73 10.5t-55.5 31.5t-32.5 53.5t-4 77.5l50 355h80l-49 -353q-4 -27 1.5 -46t18 -30t31 -15.5t40.5 -4.5q18 0 38 5t37.5 15
t30 24t15.5 32l52 373h78l-52 -373q-3 -21 4.5 -36t22.5 -25t35 -14.5t42 -4.5q27 0 53.5 3.5t43.5 11.5l61 438h80l-59 -422h63z" />
    <glyph glyph-name="uni044A" unicode="&#x44a;" horiz-adv-x="529" 
d="M42 518h172l-29 -208q13 7 31 13.5t37.5 11.5t39.5 8t38 3q45 0 76.5 -13.5t50.5 -38t25.5 -58t0.5 -73.5q-6 -44 -27.5 -76t-52.5 -53.5t-68.5 -32.5t-74.5 -11q-38 0 -72 11t-59.5 32.5t-38 53.5t-6.5 76l40 282h-93zM164 163q-3 -24 5 -42t24 -29.5t36.5 -17
t42.5 -5.5q21 0 43 5.5t40.5 17t32 29.5t16.5 42q8 58 -19 84t-77 26q-32 0 -69 -10t-63 -21z" />
    <glyph glyph-name="uni044B" unicode="&#x44b;" horiz-adv-x="692" 
d="M286 346q45 0 76.5 -13.5t50.5 -38t25.5 -58t0.5 -73.5q-6 -44 -27.5 -76t-52.5 -53.5t-68.5 -32.5t-74.5 -11q-38 0 -72 11t-59.5 32.5t-38 53.5t-6.5 76l49 355h80l-29 -208q13 7 31 13.5t37.5 11.5t39.5 8t38 3zM579 518h80l-73 -518h-80zM119 163q-3 -24 5 -42
t24 -29.5t36.5 -17t42.5 -5.5q21 0 43 5.5t40.5 17t32 29.5t16.5 42q8 58 -19 84t-77 26q-32 0 -69 -10t-63 -21z" />
    <glyph glyph-name="uni044C" unicode="&#x44c;" horiz-adv-x="484" 
d="M286 346q45 0 76.5 -13.5t50.5 -38t25.5 -58t0.5 -73.5q-6 -44 -27.5 -76t-52.5 -53.5t-68.5 -32.5t-74.5 -11q-38 0 -72 11t-59.5 32.5t-38 53.5t-6.5 76l49 355h80l-29 -208q13 7 31 13.5t37.5 11.5t39.5 8t38 3zM119 163q-3 -24 5 -42t24 -29.5t36.5 -17t42.5 -5.5
q21 0 43 5.5t40.5 17t32 29.5t16.5 42q8 58 -19 84t-77 26q-32 0 -69 -10t-63 -21z" />
    <glyph glyph-name="uni044D" unicode="&#x44d;" horiz-adv-x="470" 
d="M349 354q3 24 -4.5 41.5t-23 29t-36.5 17t-43 5.5q-35 0 -69 -12.5t-52 -39.5l-8 -10l-60 39q37 52 91.5 77.5t109.5 25.5q37 0 71.5 -10.5t59.5 -32.5t37.5 -54.5t6.5 -75.5l-26 -189q-6 -44 -28 -76t-53.5 -54t-69 -32.5t-74.5 -10.5q-30 0 -58.5 7.5t-52.5 23.5
t-41 40t-24 56l78 35q6 -42 38.5 -62t71.5 -20q22 0 44.5 5.5t41 17t31 28.5t15.5 40l9 64h-198l10 70h198z" />
    <glyph glyph-name="uni044E" unicode="&#x44e;" horiz-adv-x="722" 
d="M99 0h-80l73 518h80l-29 -209h132l6 46q6 43 28 75.5t53.5 54t69 32.5t75.5 11q37 0 71.5 -11t59 -32.5t37 -54t6.5 -75.5l-27 -192q-6 -44 -27.5 -76t-52.5 -53.5t-68.5 -32.5t-74.5 -11q-38 0 -72.5 11t-59.5 32.5t-38 53.5t-7 76l11 72h-132zM495 448q-22 0 -44 -5.5
t-41 -16.5t-32 -29t-17 -42l-27 -192q-3 -24 5 -42t24 -29.5t36.5 -17t42.5 -5.5q21 0 43 5.5t40.5 17t32 29.5t16.5 42l27 192q4 24 -4.5 42t-24 29t-36 16.5t-41.5 5.5z" />
    <glyph glyph-name="uni044F" unicode="&#x44f;" horiz-adv-x="500" 
d="M171 212q-29 2 -53.5 12.5t-41 29.5t-23.5 46.5t-2 62.5q6 42 23.5 71t44 48t60 27.5t71.5 8.5h216l-73 -518h-80l30 212h-77l-198 -212h-98zM376 445h-135q-47 0 -75 -19t-35 -64q-7 -51 18 -70.5t79 -19.5h124z" />
    <glyph glyph-name="uni0451" unicode="&#x451;" horiz-adv-x="483" 
d="M153 634q3 23 20.5 39t40.5 16t36.5 -16t10.5 -39q-4 -23 -22 -38.5t-41 -15.5t-36 15.5t-9 38.5zM331 634q3 23 20.5 39t40.5 16t36.5 -16t10.5 -39q-4 -23 -22 -38.5t-41 -15.5t-36.5 15.5t-8.5 38.5zM402 81q-45 -53 -95 -72t-103 -19q-37 0 -71.5 10.5t-59.5 32.5
t-38 54t-7 76l26 184q6 45 28 79t53.5 56.5t69.5 34t76 11.5q37 0 71.5 -11t59 -33.5t37 -55.5t6.5 -77q-6 -43 -24.5 -71.5t-45.5 -45.5t-61 -24t-70 -7q-35 0 -67 4t-70 15l-10 -66q-3 -24 5.5 -41t24.5 -28.5t37 -16.5t42 -5q16 0 31.5 2t30.5 7.5t31 16t34 27.5z
M126 289q32 -11 61 -15.5t63 -4.5q22 0 42.5 3t37.5 12t28.5 26t15.5 44t-3 46t-22 31t-36 17.5t-43 5.5q-23 0 -45.5 -7t-41 -20.5t-31.5 -33.5t-17 -45z" />
    <glyph glyph-name="Wgrave" unicode="&#x1e80;" horiz-adv-x="931" 
d="M518 845l65 -136h-87l-89 136h111zM978 708l-304 -708h-102l-83 471q-54 -117 -108.5 -236t-107.5 -235h-102l-106 708h87l85 -608l235 519h74l90 -518l256 607h86z" />
    <glyph glyph-name="wgrave" unicode="&#x1e81;" horiz-adv-x="714" 
d="M389 702l65 -136h-87l-89 136h111zM43 518h83l52 -324l8 -115h2l30 115l124 324h88l35 -324l5 -115h2l33 115l142 324h82l-227 -518h-96l-39 376l-144 -376h-96z" />
    <glyph glyph-name="Wacute" unicode="&#x1e82;" horiz-adv-x="931" 
d="M446 709l99 136h108l-121 -136h-86zM978 708l-304 -708h-102l-83 471q-54 -117 -108.5 -236t-107.5 -235h-102l-106 708h87l85 -608l235 519h74l90 -518l256 607h86z" />
    <glyph glyph-name="wacute" unicode="&#x1e83;" horiz-adv-x="714" 
d="M317 566l99 136h108l-121 -136h-86zM43 518h83l52 -324l8 -115h2l30 115l124 324h88l35 -324l5 -115h2l33 115l142 324h82l-227 -518h-96l-39 376l-144 -376h-96z" />
    <glyph glyph-name="Wdieresis" unicode="&#x1e84;" horiz-adv-x="931" 
d="M409 814q3 23 20 38t39 15t35 -15t10 -38q-4 -22 -21 -37t-39 -15t-35 15t-9 37zM580 814q3 23 19.5 38t39.5 15q22 0 35 -15t10 -38q-4 -22 -21 -37t-39 -15q-23 0 -35.5 15t-8.5 37zM978 708l-304 -708h-102l-83 471q-54 -117 -108.5 -236t-107.5 -235h-102l-106 708
h87l85 -608l235 519h74l90 -518l256 607h86z" />
    <glyph glyph-name="wdieresis" unicode="&#x1e85;" horiz-adv-x="714" 
d="M273 634q3 23 20 38t39 15t35 -15t10 -38q-4 -22 -21 -37t-39 -15t-35 15t-9 37zM444 634q3 23 19.5 38t39.5 15q22 0 35 -15t10 -38q-4 -22 -21 -37t-39 -15q-23 0 -35.5 15t-8.5 37zM43 518h83l52 -324l8 -115h2l30 115l124 324h88l35 -324l5 -115h2l33 115l142 324h82
l-227 -518h-96l-39 376l-144 -376h-96z" />
    <glyph glyph-name="Ygrave" unicode="&#x1ef2;" horiz-adv-x="576" 
d="M348 892l65 -136h-87l-89 136h111zM203 0l38 276q-45 104 -92.5 216.5t-92.5 215.5h97l144 -343q59 85 119 171.5t119 171.5h98l-308 -432l-38 -276h-84z" />
    <glyph glyph-name="ygrave" unicode="&#x1ef3;" horiz-adv-x="533" 
d="M298 702l65 -136h-87l-89 136h111zM74 -63q26 -32 59 -42t68 -10q24 0 48 6t44 18t33.5 30t16.5 43l7 40q-30 -20 -64 -26t-66 -6q-42 0 -78 11.5t-60.5 34t-36 56t-5.5 76.5l50 350h82l-51 -360q-3 -24 4.5 -42t22.5 -30t35.5 -18t43.5 -6q31 0 65 7.5t66 19.5l61 429
h80l-76 -536q-6 -45 -28 -78t-53.5 -54.5t-69 -32t-76.5 -10.5q-51 0 -99 20.5t-78 59.5z" />
    <glyph glyph-name="endash" unicode="&#x2013;" horiz-adv-x="583" 
d="M518 257h-467l11 81h467z" />
    <glyph glyph-name="emdash" unicode="&#x2014;" horiz-adv-x="993" 
d="M927 257h-877l11 81h877z" />
    <glyph glyph-name="quoteleft" unicode="&#x2018;" horiz-adv-x="241" 
d="M178 698h84l-104 -243h-96z" />
    <glyph glyph-name="quoteright" unicode="&#x2019;" horiz-adv-x="239" 
d="M146 455h-83l103 243h97z" />
    <glyph glyph-name="quotesinglbase" unicode="&#x201a;" horiz-adv-x="226" 
d="M29 -131h-82l99 229h98z" />
    <glyph glyph-name="quotedblleft" unicode="&#x201c;" horiz-adv-x="401" 
d="M179 698h82l-102 -243h-97zM339 698h82l-102 -243h-97z" />
    <glyph glyph-name="quotedblright" unicode="&#x201d;" horiz-adv-x="393" 
d="M145 455h-82l102 243h97zM301 455h-83l102 243h97z" />
    <glyph glyph-name="quotedblbase" unicode="&#x201e;" horiz-adv-x="382" 
d="M29 -131h-82l99 225h98zM185 -131h-83l100 225h97z" />
    <glyph glyph-name="dagger" unicode="&#x2020;" horiz-adv-x="500" 
d="M55 514h182l26 184h83l-26 -184h182l-11 -77h-182l-78 -557h-83l78 557h-182z" />
    <glyph glyph-name="daggerdbl" unicode="&#x2021;" horiz-adv-x="551" 
d="M30 141h182l42 296h-182l11 76h182l26 185h83l-26 -185h182l-11 -76h-182l-42 -296h182l-10 -75h-182l-26 -186h-83l26 186h-182z" />
    <glyph glyph-name="bullet" unicode="&#x2022;" horiz-adv-x="421" 
d="M66 349q4 31 19.5 59t39 48t52.5 32t61 12q31 0 56.5 -12t43 -32t25.5 -48t4 -59q-5 -31 -20.5 -58.5t-39 -48t-52.5 -32.5t-60 -12q-32 0 -57.5 12t-43 32.5t-25.5 48t-3 58.5z" />
    <glyph glyph-name="ellipsis" unicode="&#x2026;" horiz-adv-x="607" 
d="M13 53q4 25 23 42t44 17t40 -17t11 -42t-23 -42t-44 -17t-40 17t-11 42zM211 53q4 25 23 42t44 17t40 -17t11 -42t-23 -42t-44 -17t-40 17t-11 42zM409 53q4 25 22.5 42t43.5 17q26 0 40.5 -17t10.5 -42t-22.5 -42t-44.5 -17q-25 0 -39.5 17t-10.5 42z" />
    <glyph glyph-name="perthousand" unicode="&#x2030;" horiz-adv-x="1109" 
d="M649 743l62 -43l-595 -771l-63 43zM363 508q-6 -45 -22.5 -81t-40.5 -61t-54 -38.5t-63 -13.5q-74 0 -107.5 50t-19.5 146q6 44 22.5 79.5t40.5 60.5t54 38.5t64 13.5q72 0 105.5 -50.5t20.5 -143.5zM282 508q8 60 -7.5 87t-49.5 27q-36 0 -57.5 -26.5t-29.5 -85.5
q-8 -61 5.5 -87.5t50.5 -26.5q35 0 57.5 27t30.5 85zM723 190q-6 -45 -22.5 -81t-40.5 -61t-54 -38t-63 -13q-75 0 -107.5 49.5t-19.5 145.5q6 45 22.5 80.5t40.5 60t54 38t64 13.5q72 0 106 -50t20 -144zM1066 190q-6 -45 -22.5 -81t-40.5 -61t-53.5 -38t-62.5 -13
q-75 0 -107.5 49.5t-19.5 145.5q13 90 62.5 141t118.5 51q71 0 105 -50t20 -144zM641 190q8 59 -7.5 87t-49.5 28q-36 0 -57 -27t-29 -86q-8 -61 5 -87.5t51 -26.5q35 0 57 27t30 85zM985 190q8 59 -7.5 87t-49.5 28q-36 0 -57.5 -27t-29.5 -86q-8 -61 5.5 -87.5t51.5 -26.5
q35 0 57 27t30 85z" />
    <glyph glyph-name="guilsinglleft" unicode="&#x2039;" horiz-adv-x="286" 
d="M264 462l-139 -169q22 -41 46.5 -84.5t45.5 -84.5l-75 -41l-112 210l171 211z" />
    <glyph glyph-name="guilsinglright" unicode="&#x203a;" horiz-adv-x="286" 
d="M17 123l140 170q-23 41 -47 84.5t-46 84.5l76 42l112 -211l-171 -210z" />
    <glyph glyph-name="fraction" unicode="&#x2044;" horiz-adv-x="520" 
d="M21 -37l-59 40l548 732l60 -40z" />
    <glyph glyph-name="Euro" unicode="&#x20ac;" horiz-adv-x="609" 
d="M123 498q9 54 36 95.5t65 69t83 41.5t91 14q35 0 68 -9t61.5 -27t50 -44.5t33.5 -61.5l-80 -38q-9 24 -24 42t-34.5 30t-41.5 18t-45 6q-31 0 -61 -8.5t-55 -26t-42.5 -43t-23.5 -58.5l-10 -59h260l-23 -69h-246l-7 -43h262l-23 -68h-248l-7 -50q-5 -34 5 -59.5
t30.5 -42.5t48.5 -25.5t58 -8.5q48 0 95 23.5t78 71.5l70 -36q-22 -36 -51.5 -62.5t-63 -44t-69.5 -26.5t-71 -9q-46 0 -87.5 13.5t-71.5 41t-45 68.5t-7 96l7 50h-67l24 68h52l7 43h-63l23 69h49z" />
    <glyph glyph-name="uni2113" unicode="&#x2113;" horiz-adv-x="451" 
d="M406 123q-41 -62 -90 -96t-106 -34q-40 0 -67 14t-42.5 38.5t-21 57.5t-2.5 71l-49 -35l-22 57q30 24 48 40.5t36 32.5l37 258q10 69 29 115t43.5 73.5t52 38.5t53.5 11q30 0 51 -12.5t33 -34.5t15 -52t-2 -64q-13 -94 -77 -185t-161 -179l-3 -22q-6 -41 -2.5 -69t13 -45
t24.5 -24t33 -7q34 0 67.5 29t56.5 70zM179 346q58 62 97.5 124.5t49.5 129.5q2 17 2.5 32.5t-3.5 27.5t-12 19.5t-22 7.5q-11 0 -23.5 -7.5t-24 -25t-22 -47.5t-16.5 -75z" />
    <glyph glyph-name="trademark" unicode="&#x2122;" horiz-adv-x="834" 
d="M197 634h-123l10 73h322l-10 -73h-123l-46 -323h-76zM444 707h79l78 -244q35 60 73 122t73 122h79l-56 -396h-76l37 240l-117 -196h-59l-60 191l-31 -235h-76z" />
    <glyph glyph-name="Omega" unicode="&#x2126;" horiz-adv-x="780" 
d="M153 79q-23 25 -42 56.5t-31.5 69t-16.5 80.5t3 92q11 78 46.5 141t87.5 107.5t117 68.5t136 24q73 0 130 -26.5t93.5 -72.5t52 -107.5t5.5 -130.5q-7 -50 -23 -94t-38.5 -82t-49.5 -70t-56 -56h137l-11 -79h-285l8 57q43 22 82 55t70 74.5t52.5 90.5t29.5 104
q6 46 -4 91t-36.5 81t-69 58.5t-100.5 22.5q-55 0 -104 -19t-87.5 -53.5t-64 -82t-33.5 -104.5q-7 -51 1 -97t28.5 -86.5t51 -74.5t67.5 -60l-8 -57h-289l11 79h140z" />
    <glyph glyph-name="estimated" unicode="&#x212e;" horiz-adv-x="872" 
d="M219 146q0 -4 4 -12q44 -42 103 -70.5t124 -28.5q72 0 134 31.5t108 83.5h92q-31 -36 -69 -65.5t-81 -50.5t-90 -32.5t-95 -11.5q-83 0 -155.5 28t-126.5 77t-85.5 114t-31.5 140t31.5 140.5t85.5 114.5t126.5 77.5t155.5 28.5t155.5 -28.5t126.5 -77.5t85.5 -114.5
t31.5 -140.5v-23h-629v-180zM680 371v183q0 8 -5 13q-45 43 -102 69t-123 26q-64 0 -123 -27.5t-102 -69.5q-6 -6 -6 -15v-179h461z" />
    <glyph glyph-name="partialdiff" unicode="&#x2202;" horiz-adv-x="508" 
d="M121 683q31 22 73.5 40t97.5 18q44 0 83 -21t66 -64.5t37.5 -110.5t-2.5 -160q-12 -86 -37.5 -158t-63 -125t-87 -82.5t-109.5 -29.5q-45 0 -76.5 19t-50 50t-24.5 71t0 83q8 57 31.5 102.5t56.5 78t72.5 49.5t78.5 17q49 0 81 -19.5t50 -41.5q7 55 2.5 103.5t-20.5 84.5
t-42.5 57t-61.5 21q-38 0 -72 -15.5t-59 -33.5zM374 295q-3 15 -12.5 30.5t-24.5 28.5t-34.5 21.5t-43.5 8.5q-25 0 -49.5 -13.5t-45 -36.5t-34.5 -53.5t-19 -65.5q-9 -65 12 -103t67 -38q30 0 59.5 18t54.5 48t43.5 70t26.5 85z" />
    <glyph glyph-name="Delta" unicode="&#x2206;" horiz-adv-x="596" 
d="M398 714l138 -657l-8 -57h-543l7 56l324 658h82zM93 80h344l-101 513z" />
    <glyph glyph-name="product" unicode="&#x220f;" horiz-adv-x="650" 
d="M389 -66l97 686h-238l-97 -686h-81l97 686h-97l11 79h596l-11 -79h-99l-97 -686h-81z" />
    <glyph glyph-name="summation" unicode="&#x2211;" horiz-adv-x="541" 
d="M279 305l-192 334l8 58h452l-10 -77h-339l177 -312l-282 -317h370l-10 -74h-479l8 56z" />
    <glyph glyph-name="minus" unicode="&#x2212;" horiz-adv-x="629" 
d="M563 265h-510l11 78h510z" />
    <glyph glyph-name="uni2215" unicode="&#x2215;" horiz-adv-x="517" 
d="M20 -37l-59 40l548 732l60 -40z" />
    <glyph glyph-name="uni2219" unicode="&#x2219;" horiz-adv-x="225" 
d="M55 315q3 25 22 42t45 17q25 0 39 -17t11 -42q-4 -25 -23 -42t-44 -17q-26 0 -40 17t-10 42z" />
    <glyph glyph-name="radical" unicode="&#x221a;" horiz-adv-x="524" 
d="M93 291q-16 -5 -35.5 -12.5t-33.5 -11.5l-17 72l152 55l63 -381l279 808h84l-340 -967h-72z" />
    <glyph glyph-name="infinity" unicode="&#x221e;" horiz-adv-x="720" 
d="M676 290q-5 -36 -22 -65t-41 -49.5t-53.5 -31.5t-59.5 -11q-44 0 -78 24.5t-72 72.5q-20 -19 -40.5 -36.5t-43 -31t-47 -21.5t-52.5 -8q-32 0 -57.5 12t-43 32.5t-25.5 48.5t-3 61q5 34 20.5 63.5t39.5 50.5t54.5 33t64.5 12q26 0 47.5 -8t40 -22t34.5 -32t30 -37
q20 19 41 37t43 31.5t46.5 22t51.5 8.5q66 -1 100.5 -43.5t24.5 -111.5v-1zM184 209q16 0 32 7t32 18t31 24.5t29 26.5l3 3q-22 31 -47.5 56.5t-63.5 25.5q-35 0 -56.5 -25t-26.5 -58q-5 -32 13 -55t53 -23h1zM536 370q-15 0 -31 -7t-32 -18t-30.5 -23.5t-27.5 -24.5l-7 -7
q32 -39 55 -60t51 -21q18 0 32.5 7t25 18t17.5 25t9 28q5 41 -12.5 62t-49.5 21z" />
    <glyph glyph-name="integral" unicode="&#x222b;" horiz-adv-x="336" 
d="M371 749q-17 13 -30.5 18t-22.5 5q-23 0 -40 -23.5t-22 -63.5l-31 -251q-7 -59 -14.5 -121.5t-14.5 -120.5t-13.5 -108t-10.5 -84q-6 -38 -20.5 -66t-35.5 -46.5t-46 -27.5t-51 -9q-32 0 -73 19l28 67q29 -13 47 -13q28 0 47.5 21t24.5 56q4 29 9 68t10.5 85t11.5 96
t12 101q6 50 12 99.5t11 93.5t10 82t9 65q5 39 19.5 68t35 48.5t44.5 29.5t48 10q36 0 74 -26z" />
    <glyph glyph-name="approxequal" unicode="&#x2248;" horiz-adv-x="532" 
d="M489 366q-27 -34 -59.5 -56.5t-71.5 -22.5q-29 0 -54.5 12t-52.5 29q-17 11 -35 19.5t-35 8.5q-18 0 -37.5 -15t-38.5 -37l-49 45q32 39 68 60.5t73 21.5q31 0 53 -11t38 -22v1l12 -7q2 -2 7.5 -5t0.5 -1q2 -2 5 -3q15 -9 28.5 -15t30.5 -6q30 0 71 51zM471 229
q-29 -35 -61.5 -57t-70.5 -22q-30 0 -52.5 10.5t-56.5 30.5q-17 11 -34 19.5t-35 8.5t-37 -14.5t-37 -37.5l-51 46q32 40 68 61t74 21q29 0 50.5 -10t38.5 -20l5 -4l-3 3l11 -8l5 -2q17 -11 33 -19t35 -8q28 0 67 44z" />
    <glyph glyph-name="notequal" unicode="&#x2260;" horiz-adv-x="544" 
d="M498 331h-165l-14 -24.5t-12 -20.5t-12.5 -21.5t-15.5 -26.5h206l-11 -77h-240q-7 -12 -13.5 -23t-13.5 -23l-40 -67l-61 34l48 79h-125l11 77h159q8 13 14 24t11.5 21t12 21.5t15.5 26.5h-199l11 77h235l25 45l40 65l61 -30l-48 -80h132z" />
    <glyph glyph-name="lessequal" unicode="&#x2264;" horiz-adv-x="484" 
d="M411 242l-13 -90l-332 203l9 58l388 206l-12 -91l-280 -145zM406 120l-10 -77h-386l10 77h386z" />
    <glyph glyph-name="greaterequal" unicode="&#x2265;" horiz-adv-x="481" 
d="M432 352l-389 -203l13 90l279 141l-239 145l13 91l331 -206zM412 120l-10 -77h-386l10 77h386z" />
    <glyph glyph-name="lozenge" unicode="&#x25ca;" horiz-adv-x="542" 
d="M257 -30h-72l-156 380l267 381h71l158 -380zM317 612q0 -2 -1.5 2t-2.5 6l-8 -11l-180 -257l112 -268l2 -4q1 2 2.5 4.5t3.5 4.5l184 261z" />
    <glyph glyph-name="i.loclTRK" horiz-adv-x="212" 
d="M91 632q4 26 24.5 44t46.5 18t41.5 -18t11.5 -44t-24 -44t-46 -18t-42 18t-12 44zM104 0h-84l74 518h84z" />
    <glyph glyph-name="uni0414.loclBGR" horiz-adv-x="675" 
d="M444 708l123 -627h65l-29 -206h-84l17 125h-484l-17 -125h-84l29 206h65l295 627h104zM133 81h345l-99 537z" />
    <glyph glyph-name="uni041B.loclBGR" horiz-adv-x="600" 
d="M-40 0l346 708h102l147 -708h-88l-121 618l-289 -618h-97z" />
    <glyph glyph-name="uni0432.loclBGR" horiz-adv-x="505" 
d="M440 163q-6 -44 -27.5 -76t-52.5 -54t-68.5 -32.5t-74.5 -10.5q-38 0 -72.5 10.5t-59.5 32.5t-38 54t-7 76l54 383q11 76 70.5 123.5t153.5 47.5q34 0 65.5 -8.5t54.5 -27t34.5 -49t5.5 -74.5q-4 -27 -16 -51.5t-27.5 -45t-33 -35.5t-32.5 -24q19 -1 36 -11t30 -27.5
t19 -39.5t2 -47zM274 424q55 16 86 49.5t37 80.5q7 44 -16.5 65.5t-74.5 21.5q-55 0 -90 -25.5t-43 -78.5l-21 -149zM376 277q3 23 -4 39.5t-22 26.5t-37 12.5t-48 -2.5q-30 -6 -61 -15.5t-62 -18.5l-22 -156q-3 -24 5 -42t24 -29.5t36.5 -17t42.5 -5.5q21 0 43 5.5t40.5 17
t32 29.5t16.5 42z" />
    <glyph glyph-name="uni0433.loclBGR" horiz-adv-x="445" 
d="M91 146q-7 -47 17 -65.5t72 -18.5q51 0 90 14.5t72 45.5l42 -48q-45 -45 -97.5 -64.5t-115.5 -19.5q-36 0 -68 9t-54.5 27.5t-33 46.5t-5.5 66q5 36 20.5 61.5t40 43.5t58 30.5t75.5 23.5q20 5 40.5 10.5t38.5 14.5t30.5 24t15.5 39q5 34 -18 49t-63 15q-35 0 -68 -10.5
t-62 -34.5l-45 52q41 35 88.5 53t93.5 18q28 0 58 -7t53 -23t35.5 -43.5t6.5 -67.5q-6 -42 -25 -68.5t-46 -42.5t-59 -25.5t-63 -17.5q-23 -6 -44.5 -12.5t-38 -16t-27.5 -23.5t-14 -35z" />
    <glyph glyph-name="uni0434.loclBGR" horiz-adv-x="506" 
d="M5 0zM65 -69q14 -21 47.5 -35.5t67.5 -14.5q23 0 46 5.5t42 16.5t32.5 28.5t16.5 41.5l7 44q-28 -17 -59.5 -22t-61.5 -5q-38 0 -72.5 11t-59 33t-37 54.5t-6.5 74.5l28 195q6 42 27 74t51.5 53.5t67 32t73.5 10.5q65 0 112.5 -12t82.5 -29l-74 -514q-6 -44 -27.5 -75
t-51.5 -51.5t-66.5 -30t-73.5 -9.5q-51 0 -97 19t-75 57zM383 438q-20 9 -47 14.5t-55 5.5q-26 0 -50.5 -5t-44.5 -17t-33.5 -31t-17.5 -47l-30 -198q-3 -23 3.5 -41t20.5 -30.5t34.5 -19.5t44.5 -7q59 0 123 23z" />
    <glyph glyph-name="uni0436.loclBGR" horiz-adv-x="751" 
d="M414 293l253 225h104l-262 -232l184 -286h-101l-147 232l-45 -36l-28 -196h-79l28 196l-33 36l-215 -232h-101l268 286l-200 232h104l191 -225l58 415h79z" />
    <glyph glyph-name="uni0438.loclBGR" horiz-adv-x="520" 
d="M419 28q-38 -13 -69 -20.5t-56 -11.5t-45.5 -5t-36.5 -1q-37 0 -70.5 11t-58 32.5t-37 53.5t-6.5 75l50 356h80l-50 -358q-3 -23 4.5 -40.5t22 -29.5t34.5 -18.5t42 -6.5q35 0 65.5 4t58.5 13l61 436h80z" />
    <glyph glyph-name="uni0439.loclBGR" horiz-adv-x="520" 
d="M300 569q-23 0 -43.5 8t-36.5 23.5t-25 39t-8 54.5h73q2 -26 17 -38.5t34 -12.5t37 12.5t28 38.5h73q-8 -31 -24 -54.5t-36 -39t-43.5 -23.5t-45.5 -8zM488 518h-80l-61 -436q-28 -9 -58.5 -13t-65.5 -4q-22 0 -42 6.5t-34.5 18.5t-22 29.5t-4.5 40.5l50 358h-80
l-50 -356q-6 -43 6.5 -75t37 -53.5t58 -32.5t70.5 -11q16 0 36.5 1t45.5 5t56 11.5t69 20.5z" />
    <glyph glyph-name="uni043A.loclBGR" horiz-adv-x="498" 
d="M141 278q69 60 136.5 120t136.5 120h104l-267 -236l189 -282h-101l-152 225l-61 -54l-25 -171h-80l100 708h80z" />
    <glyph glyph-name="uni043B.loclBGR" horiz-adv-x="459" 
d="M52 0h-85l245 518h103l89 -518h-85l-56 344l-12 103h-2l-40 -104z" />
    <glyph glyph-name="uni043F.loclBGR" horiz-adv-x="519" 
d="M87 485q52 17 105.5 30t102.5 13q37 0 70.5 -10.5t58 -31.5t36.5 -53t6 -75l-49 -358h-79l50 361q3 24 -4.5 41.5t-22.5 29t-35 17t-41 5.5q-35 0 -68.5 -7.5t-56.5 -15.5l-60 -431h-80z" />
    <glyph glyph-name="uni0442.loclBGR" horiz-adv-x="795" 
d="M87 483q39 20 87.5 32.5t95.5 12.5q43 0 82.5 -13t65.5 -44q33 30 73 43.5t77 13.5q40 0 74.5 -10t58.5 -31t35.5 -53t5.5 -77l-51 -358h-80l53 364q4 27 -3 45t-21.5 28.5t-34.5 14t-42 3.5q-18 0 -37.5 -4.5t-36 -13.5t-28 -22.5t-14.5 -31.5l-56 -383h-78l53 372
q3 20 -4.5 35.5t-22 26t-34.5 16t-41 5.5q-29 0 -57 -7t-47 -19l-61 -429h-80z" />
    <glyph glyph-name="uni0446.loclBGR" horiz-adv-x="544" 
d="M215 -9q-37 0 -71 11t-59 32.5t-38 53.5t-7 75l50 356h80l-50 -358q-3 -23 4.5 -40.5t22 -29.5t34.5 -18.5t42 -6.5q35 0 63 2t55 10l62 441h80l-59 -423h65q-9 -66 -23 -118.5t-29 -94.5h-65l23 140q-37 -15 -86 -23.5t-94 -8.5z" />
    <glyph glyph-name="uni0448.loclBGR" horiz-adv-x="786" 
d="M687 37q-39 -20 -88.5 -33.5t-93.5 -13.5q-43 0 -80.5 15t-63.5 46q-34 -30 -73.5 -45.5t-81.5 -15.5q-40 0 -73 10.5t-55.5 31.5t-32.5 53.5t-4 77.5l50 355h80l-49 -353q-4 -27 1.5 -46t18 -30t31 -15.5t40.5 -4.5q18 0 38 5t37.5 15t30 24t15.5 32l52 373h78l-52 -373
q-3 -21 4.5 -36t22.5 -25t35 -14.5t42 -4.5q27 0 54 6t44 17l60 430h80z" />
    <glyph glyph-name="uni0449.loclBGR" horiz-adv-x="815" 
d="M758 96q-9 -66 -22 -118.5t-28 -94.5h-65l23 139q-37 -14 -80 -23t-81 -9q-43 0 -80.5 15t-63.5 46q-34 -30 -73.5 -45.5t-81.5 -15.5q-40 0 -73 10.5t-55.5 31.5t-32.5 53.5t-4 77.5l50 355h80l-49 -353q-4 -27 1.5 -46t18 -30t31 -15.5t40.5 -4.5q18 0 38 5t37.5 15
t30 24t15.5 32l52 373h78l-52 -373q-3 -21 4.5 -36t22.5 -25t35 -14.5t42 -4.5q27 0 53.5 3.5t43.5 11.5l61 438h80l-59 -422h63z" />
    <glyph glyph-name="uni044E.loclBGR" horiz-adv-x="723" 
d="M100 0h-80l100 708h80l-56 -399h132l6 46q6 43 28 75.5t53.5 54t69 32.5t75.5 11q37 0 71.5 -11t59 -32.5t37 -54t6.5 -75.5l-27 -192q-6 -44 -27.5 -76t-52.5 -53.5t-68.5 -32.5t-74.5 -11q-38 0 -72.5 11t-59.5 32.5t-38 53.5t-7 76l11 72h-132zM496 448
q-22 0 -44 -5.5t-41 -16.5t-32 -29t-17 -42l-27 -192q-3 -24 5 -42t24 -29.5t36.5 -17t42.5 -5.5q21 0 43 5.5t40.5 17t32 29.5t16.5 42l27 192q4 24 -4.5 42t-24 29t-36 16.5t-41.5 5.5z" />
    <glyph glyph-name="f_i" horiz-adv-x="489" 
d="M-35 -119q26 17 37 41t14 46l81 574q6 43 25.5 75.5t48.5 54t66 32.5t78 11l-11 -81q-49 0 -84 -23.5t-41 -68.5l-5 -38h105l-10 -74h-105l-66 -462q-7 -48 -33 -84.5t-64 -61.5zM383 662q3 24 22 40t42 16q24 0 37.5 -16t10.5 -40q-4 -23 -22 -39.5t-42 -16.5
q-23 0 -37.5 16.5t-10.5 39.5zM457 518l-72 -518h-80l72 518h80z" />
    <glyph glyph-name=".ttfautohint" horiz-adv-x="489" 
d="M0 0z" />
    </font>
</defs>
</svg>
