<?xml version="1.0" standalone="no"?>
<!DOCTYPE svg PUBLIC "-//W3C//DTD SVG 1.1//EN" "http://www.w3.org/Graphics/SVG/1.1/DTD/svg11.dtd" >
<svg xmlns="http://www.w3.org/2000/svg" xmlns:xlink="http://www.w3.org/1999/xlink" version="1.1">
<metadata>
Created by FontForge 20170731 at Fri May 16 13:45:23 2014
 By Aleksey,,,
Copyright (c) 2014 by (c) 2009 Designed by Svetoslav Simov (c) Fontfabric, Inc. All rights reserved.
</metadata>
<defs>
<font id="UniSansRegular" horiz-adv-x="488" >
  <font-face 
    font-family="Uni Sans Regular"
    font-weight="400"
    font-stretch="normal"
    units-per-em="1000"
    panose-1="0 0 5 0 0 0 0 0 0 0"
    ascent="756"
    descent="-244"
    x-height="518"
    cap-height="708"
    bbox="-51 -254 1084 926"
    underline-thickness="50"
    underline-position="-150"
    unicode-range="U+0020-FB02"
  />
<missing-glyph horiz-adv-x="500" 
d="M499 0h-508v700h508v-700zM107 625q36 -54 68.5 -102t69.5 -104l139 206h-277zM200 350q-19 29 -35 52.5t-31.5 46t-32 46.5t-35.5 54v-399zM424 549q-34 -51 -66.5 -99t-67.5 -100l134 -199v398zM384 75q-36 54 -69 102t-70 104q-36 -54 -68.5 -102t-69.5 -104h277z" />
    <glyph glyph-name="fi" unicode="fi" horiz-adv-x="491" 
d="M257 635q-54 0 -83.5 -25t-29.5 -70v-96h106v-80h-106v-364h-80v540q0 43 15 75.5t41 54t61 32.5t76 11v-78zM329 649q0 24 16.5 40t39.5 16q24 0 40 -16t16 -40q0 -23 -16 -39.5t-40 -16.5q-23 0 -39.5 16.5t-16.5 39.5zM347 0v521h80v-521h-80z" />
    <glyph glyph-name="fl" unicode="fl" horiz-adv-x="523" 
d="M256 635q-54 0 -83.5 -25t-29.5 -70v-96h106v-80h-106v-364h-80v540q0 43 15 75.5t41 54t61 32.5t76 11v-78zM516 -10q-85 0 -130.5 44.5t-45.5 124.5v540h80v-540q0 -43 23 -66t73 -23v-80z" />
    <glyph glyph-name=".notdef" horiz-adv-x="500" 
d="M499 0h-508v700h508v-700zM107 625q36 -54 68.5 -102t69.5 -104l139 206h-277zM200 350q-19 29 -35 52.5t-31.5 46t-32 46.5t-35.5 54v-399zM424 549q-34 -51 -66.5 -99t-67.5 -100l134 -199v398zM384 75q-36 54 -69 102t-70 104q-36 -54 -68.5 -102t-69.5 -104h277z" />
    <glyph glyph-name=".null" horiz-adv-x="0" 
 />
    <glyph glyph-name="nonmarkingreturn" horiz-adv-x="333" 
 />
    <glyph glyph-name="space" unicode=" " horiz-adv-x="210" 
 />
    <glyph glyph-name="exclam" unicode="!" horiz-adv-x="216" 
d="M67 694h82v-522h-82v522zM49 49q0 25 17 42t42 17t42 -17t17 -42t-17 -42t-42 -17t-42 17t-17 42z" />
    <glyph glyph-name="quotedbl" unicode="&#x22;" horiz-adv-x="326" 
d="M127 455h-67v243h85zM257 455h-66v243h85z" />
    <glyph glyph-name="numbersign" unicode="#" horiz-adv-x="602" 
d="M515 211h-108q-15 -53 -31.5 -107t-30.5 -105h-86l62 212h-126q-14 -53 -30.5 -107t-30.5 -105h-87l62 212h-80l17 79h87q10 34 19 61.5t19 63.5h-103l17 80h110l59 202h87l-60 -202h125l60 202h87l-61 -202h82l-22 -80h-84l-36 -125h101zM257 415q-10 -34 -18.5 -61.5
t-18.5 -63.5h124q11 34 19.5 61.5t18.5 63.5h-125z" />
    <glyph glyph-name="dollar" unicode="$" horiz-adv-x="578" 
d="M323 397q42 -9 83 -21.5t72 -36.5t48.5 -62t14.5 -98q-3 -43 -21.5 -76.5t-48 -57.5t-68 -38t-80.5 -17v-98h-73v98q-35 4 -68.5 15t-63 29.5t-53 44.5t-37.5 60l76 34q19 -44 58.5 -68.5t87.5 -31.5v256q-41 9 -79.5 21t-67.5 33.5t-46 55.5t-14 87v-1q1 42 18.5 75
t45.5 56t65 36.5t78 18.5v97h73v-97q35 -3 68.5 -14t62.5 -29.5t52.5 -44t37.5 -58.5l-75 -34q-20 44 -59 68.5t-87 29.5v-232zM125 521q-2 -26 7 -44t26 -30.5t41 -20.5t51 -14v216q-50 -7 -86 -33.5t-39 -73.5zM323 73q25 3 48.5 12t42 23t30.5 32.5t15 42.5q1 30 -9.5 51
t-29 36.5t-43.5 25.5t-54 17v-240z" />
    <glyph glyph-name="percent" unicode="%" horiz-adv-x="780" 
d="M591 743l67 -43l-488 -771l-66 43zM335 525q0 -45 -11.5 -81.5t-32 -61.5t-49 -38.5t-61.5 -13.5q-73 0 -113 49.5t-40 145.5q0 44 11.5 80t31.5 61t48.5 38.5t61.5 13.5q72 0 113 -50t41 -143zM253 525q0 60 -19 86.5t-54 26.5t-52.5 -27t-17.5 -86q0 -61 17.5 -87
t53.5 -26q72 0 72 113zM751 184q0 -91 -43 -142.5t-110 -51.5q-74 0 -113.5 49t-39.5 145q0 90 42.5 141.5t110.5 51.5q72 0 112.5 -49.5t40.5 -143.5zM670 184q0 59 -19.5 86.5t-53.5 27.5q-36 0 -53.5 -27.5t-17.5 -86.5q0 -61 17.5 -87t54.5 -26q72 0 72 113z" />
    <glyph glyph-name="ampersand" unicode="&#x26;" horiz-adv-x="630" 
d="M445 226q12 21 26 44t25 42l70 -35l-64 -107l117 -135h-107l-58 64q-20 -25 -42 -45t-46.5 -34.5t-53.5 -22t-63 -7.5q-45 0 -84 14t-68 40.5t-45.5 63.5t-16.5 84q0 38 12 70t32 58t45.5 47t53.5 38q-28 32 -50.5 69.5t-22.5 82.5q0 38 15 68t39.5 50.5t57 31.5t67.5 11
q32 0 61.5 -11t52 -31t36 -47.5t13.5 -61.5q0 -36 -12 -62.5t-31.5 -47.5t-44.5 -37t-52 -30zM281 643q-38 0 -65 -23.5t-27 -61.5q0 -15 6 -30.5t15.5 -30.5t20.5 -29t22 -26q19 9 38.5 20.5t35.5 26.5t26.5 33t10.5 41q0 35 -23.5 57.5t-59.5 22.5zM230 351
q-20 -12 -39.5 -29t-36 -37t-26.5 -43.5t-10 -47.5q0 -29 11 -52t30 -39t44.5 -24.5t54.5 -8.5q47 0 82 25.5t61 60.5z" />
    <glyph glyph-name="quotesingle" unicode="'" horiz-adv-x="197" 
d="M131 455h-71v243h84z" />
    <glyph glyph-name="parenleft" unicode="(" horiz-adv-x="276" 
d="M252 731q-33 -42 -57 -90.5t-39.5 -100t-23.5 -103.5t-8 -100q0 -109 34.5 -205t94.5 -192l-65 -42q-36 49 -63 103.5t-45.5 111t-28 113.5t-9.5 111q0 115 37 229.5t105 209.5z" />
    <glyph glyph-name="parenright" unicode=")" horiz-adv-x="278" 
d="M23 -87q33 41 57 90t40.5 100.5t24.5 103.5t8 100q0 110 -33.5 214t-94.5 201l65 43q36 -50 63 -107t46 -117t28.5 -119.5t9.5 -114.5q0 -114 -37.5 -229t-105.5 -210z" />
    <glyph glyph-name="asterisk" unicode="*" horiz-adv-x="448" 
d="M414 532l-131 -41l83 -113l-56 -43l-85 115l-83 -116l-60 43l85 115l-134 43l20 69l137 -44v138h71v-139l132 43z" />
    <glyph glyph-name="plus" unicode="+" horiz-adv-x="583" 
d="M256 591h81v-213h210v-82h-210v-215h-81v215h-219v82h219v213z" />
    <glyph glyph-name="comma" unicode="," horiz-adv-x="220" 
d="M85 -131h-82l70 219h94z" />
    <glyph glyph-name="hyphen" unicode="-" horiz-adv-x="377" 
d="M319 257h-261v82h261v-82z" />
    <glyph glyph-name="period" unicode="." horiz-adv-x="214" 
d="M48 53q0 25 17 42t42 17t42 -17t17 -42t-17 -42t-42 -17t-42 17t-17 42z" />
    <glyph glyph-name="slash" unicode="/" horiz-adv-x="415" 
d="M97 -38l-75 27l298 747l74 -26z" />
    <glyph glyph-name="zero" unicode="0" horiz-adv-x="621" 
d="M311 -10q-45 0 -91 12.5t-82.5 38t-59.5 64.5t-23 93v312q0 54 23 93t59.5 64.5t82.5 38t91 12.5t90.5 -12.5t82 -38t59.5 -64.5t23 -93v-312q0 -54 -23 -93t-59.5 -64.5t-82 -38t-90.5 -12.5zM138 196q0 -35 16 -59t41 -39t55.5 -21.5t60.5 -6.5t60.5 6.5t55.5 21.5
t41 39t16 59v314q0 36 -16 60t-41 38.5t-55.5 21t-60.5 6.5t-60.5 -6.5t-55.5 -21t-41 -38.5t-16 -60v-314z" />
    <glyph glyph-name="one" unicode="1" horiz-adv-x="319" 
d="M170 0v589l-100 -107l-62 50l167 176h76v-708h-81z" />
    <glyph glyph-name="two" unicode="2" horiz-adv-x="570" 
d="M288 636q-60 0 -106.5 -26.5t-68.5 -74.5l-74 31q32 75 100 113.5t151 38.5q53 0 96 -16.5t74 -44t47.5 -64t16.5 -76.5q0 -42 -23 -90t-64 -90l-257 -254h344v-82h-462l-26 60l341 333q33 32 48.5 63.5t15.5 60.5q0 24 -11 45.5t-31 37.5t-48 25.5t-63 9.5z" />
    <glyph glyph-name="three" unicode="3" horiz-adv-x="581" 
d="M104 170q12 -24 31 -42.5t43 -31t51 -19.5t55 -7q33 0 64 8.5t55 25.5t39 41.5t15 57.5q0 72 -41 106t-113 33h-69v72h69q54 0 88.5 28t34.5 84q0 29 -12 50t-32 35t-45.5 20.5t-52.5 6.5q-48 0 -90.5 -21t-65.5 -63l-71 37q15 31 40 55t55 40t64 24t68 8q43 0 83 -12
t71 -36t50 -60t19 -84q0 -21 -4.5 -42.5t-14 -40.5t-25 -35t-37.5 -26q59 -20 86 -70.5t27 -109.5q-1 -53 -23 -93t-57.5 -66.5t-81 -39.5t-93.5 -13q-38 0 -76 9t-72 27t-62 45t-45 63z" />
    <glyph glyph-name="four" unicode="4" horiz-adv-x="565" 
d="M526 177h-56v-175h-82v175h-322l-54 73l372 458h86v-455h56v-76zM388 253l2 339l-272 -339h270z" />
    <glyph glyph-name="five" unicode="5" horiz-adv-x="581" 
d="M114 167q23 -46 71.5 -69.5t101.5 -23.5q33 0 64 9.5t56 28t40 45.5t15 61v32q0 34 -14 59.5t-37.5 42.5t-54.5 25.5t-64 8.5q-51 0 -91.5 -10t-87.5 -32l-46 -2v366h442v-84h-360v-181q35 14 70 21t73 6q46 0 91 -14t80.5 -41t57.5 -68t23 -96v-33q0 -54 -22.5 -96.5
t-59 -72t-83 -44.5t-94.5 -15q-37 0 -73.5 9t-69 27t-59.5 44.5t-44 61.5z" />
    <glyph glyph-name="six" unicode="6" horiz-adv-x="617" 
d="M318 636q-35 0 -67 -8t-57.5 -24t-40.5 -40t-15 -56v-139q17 22 39 37t46 24.5t48.5 13.5t46.5 4q49 0 95.5 -13.5t82.5 -40t58 -65.5t22 -91v-41q0 -52 -22 -90.5t-58 -64t-82.5 -38t-95.5 -12.5q-50 0 -97 13t-84 39t-59.5 65.5t-22.5 91.5v308q0 52 22.5 91.5t59.5 66
t84 39t97 12.5q38 0 74.5 -9t69 -26t59 -43t43.5 -60l-75 -37q-25 52 -70 72.5t-101 20.5zM493 237q0 32 -14.5 56t-39 40t-56 24t-65.5 8q-35 0 -67 -8t-57.5 -24t-40.5 -40t-15 -56v-35q0 -32 15 -56t40.5 -40t57.5 -24t67 -8q34 0 65.5 8t56 24t39 40t14.5 56v35z" />
    <glyph glyph-name="seven" unicode="7" horiz-adv-x="513" 
d="M476 708l27 -55l-349 -653h-91l330 626h-365v82h448z" />
    <glyph glyph-name="eight" unicode="8" horiz-adv-x="613" 
d="M297 -10q-48 0 -93.5 13.5t-81 40t-57.5 66.5t-23 93q0 55 27.5 103t86.5 74q-21 7 -36.5 22t-26 33.5t-15.5 39t-5 39.5q0 49 19.5 85.5t50.5 60.5t71.5 36t82.5 12h18q42 0 82.5 -12t72 -36t50.5 -60.5t19 -85.5q0 -20 -5 -40.5t-14.5 -38.5t-23.5 -32.5t-33 -23.5
q27 -9 47 -27.5t33.5 -42t20.5 -51t7 -55.5q-1 -53 -23 -92t-58 -65t-81.5 -39.5t-93.5 -16.5h-18zM297 628q-27 0 -53 -6.5t-46 -20.5t-32 -35.5t-12 -51.5q0 -32 12.5 -52t32.5 -31t46 -14.5t52 -3.5h18q26 0 51.5 3.5t46 14.5t33 31t12.5 52q0 30 -12 51.5t-32 35.5
t-46 20.5t-53 6.5h-18zM315 72q30 0 60.5 7.5t56 23t41.5 40.5t16 61q0 41 -14.5 68t-38.5 42.5t-55.5 21.5t-65.5 6h-18q-34 0 -65.5 -6t-55.5 -21.5t-38.5 -42.5t-14.5 -68q0 -36 16 -61t41.5 -40.5t56 -23t60.5 -7.5h18z" />
    <glyph glyph-name="nine" unicode="9" horiz-adv-x="617" 
d="M129 167q22 -48 69 -71t102 -23q34 0 66.5 8t58 24t40.5 40t15 56v131q-15 -23 -36.5 -38t-45.5 -23.5t-49 -11.5t-49 -3q-49 0 -95.5 13.5t-83 39.5t-58.5 64.5t-22 90.5v45q0 52 22 91t58.5 65.5t83 39.5t95.5 13t96 -12.5t83.5 -39t59 -66t23.5 -91.5v-309
q0 -52 -22.5 -91t-59.5 -65.5t-84 -39.5t-96 -13q-38 0 -75 9t-69.5 26t-58.5 43t-43 60zM124 465q0 -32 14.5 -56t39 -40t56.5 -24t66 -8t66.5 8t58 24t40.5 40t15 56v43q0 33 -15 57t-40.5 39.5t-58 23.5t-66.5 8t-66 -8t-56.5 -24t-39 -40t-14.5 -56v-43z" />
    <glyph glyph-name="colon" unicode=":" horiz-adv-x="234" 
d="M58 426q0 25 17 42t42 17t42 -17t17 -42t-17 -42t-42 -17t-42 17t-17 42zM58 67q0 26 17 42.5t42 16.5t42 -16.5t17 -42.5q0 -25 -17 -41.5t-42 -16.5t-42 16.5t-17 41.5z" />
    <glyph glyph-name="semicolon" unicode=";" horiz-adv-x="254" 
d="M63 412q0 25 16.5 42t42.5 17q25 0 41.5 -17t16.5 -42t-16.5 -42t-41.5 -17q-26 0 -42.5 17t-16.5 42zM111 -131h-82l61 243h103z" />
    <glyph glyph-name="less" unicode="&#x3c;" horiz-adv-x="442" 
d="M130 301q65 -38 130.5 -75t128.5 -74v-93l-360 211v61l360 215v-94z" />
    <glyph glyph-name="equal" unicode="=" horiz-adv-x="533" 
d="M473 333h-413v78h413v-78zM473 181h-413v79h413v-79z" />
    <glyph glyph-name="greater" unicode="&#x3e;" horiz-adv-x="443" 
d="M414 270l-361 -211v93l259 149q-66 38 -129.5 75.5t-129.5 75.5v94l361 -215v-61z" />
    <glyph glyph-name="question" unicode="?" horiz-adv-x="486" 
d="M32 630q35 44 87 66t109 22q43 0 84.5 -13t73 -39t50.5 -65t19 -90q0 -50 -16.5 -87t-43.5 -63t-62.5 -42t-74.5 -23q-2 -38 -3.5 -70.5t-3.5 -69.5h-71l-6 209q38 0 74.5 10t64.5 29t45 46t16 62q-1 31 -13.5 54.5t-33.5 39.5t-47 23.5t-54 7.5q-38 0 -75.5 -17
t-64.5 -50l-63 49zM162 44q0 23 15.5 38.5t38.5 15.5t38.5 -15.5t15.5 -38.5t-15.5 -38.5t-38.5 -15.5t-38.5 15.5t-15.5 38.5z" />
    <glyph glyph-name="at" unicode="@" horiz-adv-x="760" 
d="M612 548q-35 44 -91 67t-119 23q-61 0 -112.5 -23.5t-89.5 -63t-59.5 -91.5t-21.5 -109q0 -64 17.5 -117t52.5 -91.5t87.5 -59.5t122.5 -21q23 0 48 4.5t55 16.5l34 -64q-39 -15 -72 -21.5t-65 -6.5q-92 0 -159.5 28t-111 77t-64.5 114.5t-21 140.5t27.5 140.5t76 114
t113.5 76.5t140 28q71 0 131.5 -22.5t105 -62t69.5 -93t25 -115.5q0 -61 -20 -113.5t-53 -91.5t-74 -61t-83 -22q-23 0 -42.5 13.5t-21.5 48.5q-19 -30 -51 -44t-64 -14q-29 0 -54 13t-43 34t-28.5 47.5t-10.5 53.5q0 51 15.5 101.5t44.5 90.5t72 65t97 25q14 0 29.5 -4.5
t29.5 -13t24 -21t13 -29.5l13 35l79 -3l-87 -269q-3 -8 -5.5 -17.5t-3.5 -17t2.5 -12.5t12.5 -5q22 0 45.5 19t43 49.5t32 68t12.5 74.5q0 76 -41 128zM262 283q0 -33 18.5 -54t49.5 -21q30 0 56 20t45.5 49.5t30.5 63.5t11 63q0 38 -15 61t-47 23q-38 1 -66 -19.5
t-46.5 -51t-27.5 -67t-9 -67.5z" />
    <glyph glyph-name="A" unicode="A" horiz-adv-x="619" 
d="M616 0h-88l-82 227h-273q-20 -56 -40.5 -113.5t-39.5 -113.5h-89l254 708h102zM417 311q-15 41 -28 78t-25.5 74t-26 75t-28.5 80q-27 -78 -53 -152.5t-55 -154.5h216z" />
    <glyph glyph-name="B" unicode="B" horiz-adv-x="626" 
d="M554 522q0 -42 -13.5 -79.5t-45.5 -63.5q51 -26 71.5 -71.5t20.5 -104.5q-1 -56 -20 -95t-51 -63t-76 -34.5t-95 -10.5h-271v708h272q43 0 80.5 -11.5t66 -34.5t45 -58t16.5 -82zM346 417q54 0 90 23.5t36 81.5q0 29 -10 48.5t-27 31.5t-40 17t-49 5h-188v-207h188z
M346 84q34 -1 63 4.5t50 19t32.5 37t11.5 59.5t-11 61t-31.5 40t-49.5 21.5t-65 6.5h-188v-249h188z" />
    <glyph glyph-name="C" unicode="C" horiz-adv-x="596" 
d="M53 494q0 55 23 96.5t61 70t86.5 43t99.5 14.5q38 0 75.5 -8.5t70.5 -26.5t60 -44.5t44 -62.5l-75 -36q-25 48 -74.5 72t-103.5 24q-34 0 -67 -9t-58.5 -26.5t-41.5 -44t-16 -60.5v-285q0 -35 16 -60.5t41.5 -42.5t58.5 -25.5t67 -8.5q55 0 104.5 24t73.5 71l75 -35
q-17 -36 -44.5 -63t-61 -45t-71.5 -27t-76 -9q-50 0 -98 14t-85.5 41.5t-60.5 69t-23 96.5v283z" />
    <glyph glyph-name="D" unicode="D" horiz-adv-x="638" 
d="M314 708q51 0 99 -12t86 -38t61 -66.5t23 -96.5v-283q0 -56 -23 -96t-61 -66t-86 -38t-99 -12h-240v708h240zM314 84q35 0 68 7t59 22.5t42 39.5t16 59v283q0 35 -16 59.5t-42 40t-59 22.5t-68 7h-156v-540h156z" />
    <glyph glyph-name="E" unicode="E" horiz-adv-x="571" 
d="M158 396h341v-84h-341v-228h370v-84h-454v708h454v-84h-370v-228z" />
    <glyph glyph-name="F" unicode="F" horiz-adv-x="558" 
d="M158 376h324v-84h-324v-292h-84v708h453v-84h-369v-248z" />
    <glyph glyph-name="G" unicode="G" horiz-adv-x="632" 
d="M53 497q0 55 23 96t60.5 69t86 42t98.5 14q38 0 75.5 -9t70.5 -27t60 -45t44 -63l-76 -34q-12 24 -31 42t-42 30t-49.5 18t-53.5 6q-34 0 -67 -8.5t-58.5 -25.5t-41.5 -43t-16 -60v-285q0 -35 16 -61.5t42 -44t59 -26t68 -8.5q34 0 67.5 8.5t60 26t42.5 44t16 61.5v71
h-209v83h292v-154q0 -56 -23 -98t-61 -70t-86 -42t-99 -14t-99 14t-85.5 42t-60.5 70t-23 98v283z" />
    <glyph glyph-name="H" unicode="H" horiz-adv-x="686" 
d="M158 0h-84v708h84v-313h370v313h84v-708h-84v312h-370v-312z" />
    <glyph glyph-name="I" unicode="I" horiz-adv-x="231" 
d="M157 0h-83v708h83v-708z" />
    <glyph glyph-name="J" unicode="J" horiz-adv-x="595" 
d="M526 708v-498q0 -54 -22 -95.5t-58 -69t-82.5 -41.5t-94.5 -14q-43 0 -84.5 12t-76.5 36t-60 60.5t-34 84.5l83 17q6 -31 22.5 -54.5t40 -39.5t52 -24t57.5 -8q32 0 63 8.5t55.5 26t39.5 43.5t15 61v411h-227v84h311z" />
    <glyph glyph-name="K" unicode="K" horiz-adv-x="630" 
d="M520 708h111l-341 -341q39 -42 82 -89.5t87 -95.5t87 -94.5t81 -87.5h-109l-288 307l-72 -72v-235h-84v708h84v-356z" />
    <glyph glyph-name="L" unicode="L" horiz-adv-x="512" 
d="M74 708h84v-624h340v-84h-424v708z" />
    <glyph glyph-name="M" unicode="M" horiz-adv-x="796" 
d="M158 0h-84v708h105l219 -494l219 494h105v-708h-84v551l-204 -458h-71l-205 457v-550z" />
    <glyph glyph-name="N" unicode="N" horiz-adv-x="686" 
d="M528 708h84v-708h-106l-348 561v-561h-84v708h90l364 -585v585z" />
    <glyph glyph-name="O" unicode="O" horiz-adv-x="673" 
d="M53 496q0 55 24 97t64 69.5t91 41.5t104 14t104 -14t90.5 -41.5t64 -69.5t24.5 -97v-283q0 -56 -24.5 -97.5t-64 -69.5t-90.5 -42t-104 -14t-104 14t-91 42t-64 69.5t-24 97.5v283zM136 214q0 -35 17 -61t45 -43.5t64 -26.5t74 -9q37 0 73 9t64.5 26.5t45.5 43.5t17 61
v282q0 37 -17.5 63.5t-45.5 43.5t-64.5 25t-73.5 8q-38 0 -73.5 -8.5t-63.5 -26t-45 -43.5t-17 -62v-282z" />
    <glyph glyph-name="P" unicode="P" horiz-adv-x="611" 
d="M74 708h270q60 0 104.5 -19.5t74.5 -51.5t45 -73t15 -83q0 -43 -15 -83.5t-45 -72t-74.5 -51t-103.5 -19.5h-188v-255h-83v708zM344 339q39 0 68.5 12t49 32t29 45.5t9.5 52.5t-10 52.5t-29.5 46t-48.5 32.5t-68 12h-187v-285h187z" />
    <glyph glyph-name="Q" unicode="Q" horiz-adv-x="673" 
d="M619 213q0 -42 -14 -75.5t-38 -59.5l55 -70l-58 -41l-53 66q-38 -21 -83 -32t-92 -11q-53 0 -104 14t-91 42t-64 69.5t-24 97.5v283q0 55 24 97t64 69.5t91 41.5t104 14t104 -14t90.5 -41.5t64 -69.5t24.5 -97v-283zM517 140q19 30 19 73v283q0 37 -17.5 63.5t-45.5 43.5
t-64.5 25t-73.5 8q-38 0 -73.5 -8.5t-63.5 -25.5t-45 -43.5t-17 -62.5v-283q0 -35 17 -61t45 -43.5t64 -26t74 -8.5q34 0 66.5 4t59.5 16l-59 74l58 43z" />
    <glyph glyph-name="R" unicode="R" horiz-adv-x="619" 
d="M267 289h-109v-289h-84v708h270q51 0 95 -12t76 -37.5t51 -65.5t20 -97q0 -53 -16.5 -91t-45.5 -62.5t-68.5 -37.5t-84.5 -15l228 -290h-103zM345 367q36 0 65 6.5t49.5 21.5t31.5 40t11 61q0 37 -11.5 61.5t-32.5 39.5t-50 21t-63 6h-187v-257h187z" />
    <glyph glyph-name="S" unicode="S" horiz-adv-x="593" 
d="M129 525q-2 -32 11.5 -51.5t38 -32t56.5 -19.5t67 -14q46 -9 92 -20.5t82 -35t57 -63.5t18 -105q-3 -49 -25.5 -85.5t-58.5 -60.5t-81 -36t-92 -12q-40 0 -80 9.5t-75 28.5t-63.5 47.5t-44.5 66.5l77 35q11 -26 31 -45t45.5 -32.5t54 -20t57.5 -6.5q31 0 61 7t54 21.5
t39 36t17 50.5q3 38 -11 62t-40.5 39t-61.5 23.5t-72 16.5q-43 9 -85 21t-75.5 34t-54.5 56.5t-21 87.5q3 46 25 81.5t56.5 59.5t78 36.5t89.5 12.5q39 0 78.5 -9t74 -27.5t62.5 -46.5t44 -65l-76 -34q-11 25 -30.5 43.5t-44 31.5t-52.5 19.5t-56 6.5q-31 0 -60 -7t-52 -21
t-37.5 -35t-16.5 -49z" />
    <glyph glyph-name="T" unicode="T" horiz-adv-x="566" 
d="M325 624v-624h-84v624h-227v84h538v-84h-227z" />
    <glyph glyph-name="U" unicode="U" horiz-adv-x="676" 
d="M153 216q0 -36 16 -62.5t42 -44.5t59 -26.5t68 -8.5q34 0 67.5 8.5t59.5 26.5t42 44.5t16 62.5v492h84v-492q0 -56 -23 -98.5t-61 -71t-86.5 -42.5t-98.5 -14q-51 0 -99 14t-86 42.5t-61 71t-23 98.5v492h84v-492z" />
    <glyph glyph-name="V" unicode="V" horiz-adv-x="617" 
d="M91 708l218 -613l217 613h88l-254 -708h-103l-255 708h89z" />
    <glyph glyph-name="W" unicode="W" horiz-adv-x="933" 
d="M923 708l-205 -708h-102l-149 471l-150 -471h-102l-205 708h87l170 -608l163 519h74l162 -518l171 607h86z" />
    <glyph glyph-name="X" unicode="X" horiz-adv-x="595" 
d="M488 0l-191 284l-191 -284h-102l243 353l-241 355h100l191 -280l191 280h101l-242 -355l243 -353h-102z" />
    <glyph glyph-name="Y" unicode="Y" horiz-adv-x="579" 
d="M247 0v276l-246 432h97l192 -343l190 343h98l-247 -432v-276h-84z" />
    <glyph glyph-name="Z" unicode="Z" horiz-adv-x="583" 
d="M531 708l27 -58l-414 -566h402v-84h-500l-24 59l414 565h-395v84h490z" />
    <glyph glyph-name="bracketleft" unicode="[" horiz-adv-x="265" 
d="M145 -51h86v-75h-169v869h169v-75h-86v-719z" />
    <glyph glyph-name="backslash" unicode="\" horiz-adv-x="416" 
d="M22 710l75 26l298 -747l-76 -26z" />
    <glyph glyph-name="bracketright" unicode="]" horiz-adv-x="265" 
d="M119 672h-85v72h169v-869h-169v72h85v725z" />
    <glyph glyph-name="asciicircum" unicode="^" horiz-adv-x="559" 
d="M520 417h-98l-145 190l-139 -190h-99l209 281h57z" />
    <glyph glyph-name="underscore" unicode="_" horiz-adv-x="621" 
d="M561 -83h-501v80h501v-80z" />
    <glyph glyph-name="grave" unicode="`" horiz-adv-x="210" 
d="M65 891l82 -134h-82l-107 134h107z" />
    <glyph glyph-name="a" unicode="a" 
d="M352 361q0 22 -10.5 39.5t-27.5 29.5t-39 18t-45 6q-35 0 -70 -13.5t-58 -42.5l-50 49q36 40 85.5 60.5t98.5 20.5q37 0 72.5 -10.5t63 -31t44 -52t16.5 -73.5v-336q-54 -19 -108 -27.5t-106 -7.5q-39 0 -73 10t-58.5 30t-39 50t-14.5 72q0 43 16.5 74t43.5 51t62 30
t73 10q65 0 124 -25v69zM352 234q-24 8 -54 14t-62 6q-24 0 -46.5 -5.5t-39.5 -17.5t-27.5 -31.5t-10.5 -47.5q0 -50 31 -71.5t77 -22.5q33 -1 66.5 1t65.5 9v166z" />
    <glyph glyph-name="b" unicode="b" horiz-adv-x="511" 
d="M142 496q61 32 126 32q38 0 73 -10.5t62 -32t43.5 -54t16.5 -76.5v-193q0 -43 -17 -75t-45 -53.5t-63.5 -32t-72.5 -11.5q-50 0 -101 10t-102 27v673h80v-204zM142 78q29 -9 60.5 -12.5t62.5 -3.5q22 0 43 7t37.5 19.5t26.5 31t10 42.5v194q0 24 -10 43t-26 31.5
t-37.5 19.5t-43.5 7q-29 0 -61.5 -6.5t-61.5 -22.5v-350z" />
    <glyph glyph-name="c" unicode="c" horiz-adv-x="464" 
d="M370 388q-25 40 -57 50t-66 10q-23 0 -44.5 -5.5t-38 -17t-27 -29t-10.5 -41.5v-194q0 -23 10 -41t26.5 -30t38.5 -18.5t46 -6.5q38 0 74.5 18t54.5 64l64 -30q-11 -32 -31.5 -56t-46.5 -40t-56 -23.5t-60 -7.5q-37 0 -73 10.5t-64 32.5t-45.5 54t-17.5 76v192
q0 43 17.5 75.5t45.5 54.5t64 32.5t73 10.5q55 0 101.5 -21t84.5 -82z" />
    <glyph glyph-name="d" unicode="d" horiz-adv-x="511" 
d="M449 27q-51 -17 -102 -27t-101 -10q-37 1 -72.5 11.5t-63.5 32t-45 53.5t-17 75v192q0 42 17 74.5t45.5 54t64 33t73.5 11.5q33 0 63 -7t58 -25v205h80v-673zM246 61q30 0 62 3t61 12v351q-29 15 -60.5 22t-60.5 7q-23 0 -44 -6.5t-38 -19t-27 -32t-10 -44.5v-191
q0 -23 10 -41.5t26.5 -32t37.5 -21t43 -7.5z" />
    <glyph glyph-name="e" unicode="e" 
d="M129 156q0 -24 10 -41t27 -28.5t38.5 -17t44.5 -5.5q35 0 68.5 17t49.5 53l70 -30q-14 -29 -34.5 -50t-45 -35.5t-52.5 -21.5t-56 -7q-38 0 -74 10.5t-64 32t-45.5 54t-17.5 75.5v194q0 43 17.5 75.5t45.5 54t64 32t74 10.5q37 0 72.5 -10.5t63.5 -32t45 -54t17 -75.5
v-137h-318v-63zM371 360q0 23 -11 40.5t-28 29.5t-39 18.5t-44 6.5q-25 0 -47 -6.5t-38.5 -18.5t-25.5 -30t-9 -42v-72h242v74z" />
    <glyph glyph-name="f" unicode="f" horiz-adv-x="268" 
d="M257 631q-54 0 -83.5 -25t-29.5 -70v-34h106v-72h-106v-430h-80v536q0 43 15 75.5t41 54t61 32.5t76 11v-78z" />
    <glyph glyph-name="g" unicode="g" horiz-adv-x="506" 
d="M115 -68q8 -11 22.5 -20t32 -16t36 -11t35.5 -4q23 0 45.5 4t40 14.5t28 28.5t10.5 46v43q-29 -15 -58.5 -21t-59.5 -6q-38 0 -73.5 11t-63.5 32.5t-45 54t-17 74.5v196q0 42 16.5 74t44 53.5t62.5 32t72 10.5q26 0 49.5 -2t47.5 -6.5t49 -12.5t55 -20v-513
q0 -44 -17 -75.5t-44.5 -51.5t-62.5 -30t-72 -10q-51 0 -99 19t-83 57zM365 434q-31 12 -59 16.5t-63 4.5q-22 0 -42.5 -7t-37 -19.5t-26 -31t-9.5 -41.5v-198q0 -45 34.5 -71t82.5 -26q34 0 62 5.5t58 16.5v351z" />
    <glyph glyph-name="h" unicode="h" horiz-adv-x="522" 
d="M144 498q32 16 64.5 23t62.5 7q37 1 72 -9t61 -31t42 -54t16 -78v-356h-79v357q0 25 -10.5 43t-27 30t-38 18t-43.5 6q-31 0 -58 -5.5t-62 -20.5v-428h-80v698h80v-200z" />
    <glyph glyph-name="i" unicode="i" horiz-adv-x="208" 
d="M46 662q0 24 16.5 40t39.5 16q24 0 40 -16t16 -40q0 -23 -16 -39.5t-40 -16.5q-23 0 -39.5 16.5t-16.5 39.5zM144 518v-518h-80v518h80z" />
    <glyph glyph-name="j" unicode="j" horiz-adv-x="208" 
d="M47 662q0 24 16.5 40t39.5 16q24 0 40 -16t16 -40q0 -23 -16 -39.5t-40 -16.5q-23 0 -39.5 16.5t-16.5 39.5zM-32 -98q50 0 73 23t23 66v527h80v-527q0 -80 -45.5 -124.5t-130.5 -44.5v80z" />
    <glyph glyph-name="k" unicode="k" horiz-adv-x="497" 
d="M384 518h104l-234 -236l229 -282h-101l-184 225l-54 -54v-171h-80v698h80v-420z" />
    <glyph glyph-name="l" unicode="l" horiz-adv-x="242" 
d="M236 -10q-85 0 -130.5 44.5t-45.5 124.5v540h80v-540q0 -43 23 -68.5t73 -25.5v-75z" />
    <glyph glyph-name="m" unicode="m" horiz-adv-x="794" 
d="M62 481q36 20 82.5 33.5t93.5 13.5q43 0 84.5 -14t71.5 -45q29 30 69.5 44.5t76.5 14.5q42 0 77.5 -10.5t61.5 -31.5t40.5 -53.5t14.5 -77.5v-355h-80v361q0 27 -9.5 45.5t-25.5 29.5t-37 15t-43 4q-18 0 -36.5 -5t-33.5 -14.5t-25 -23.5t-10 -32v-380h-78v374
q0 21 -10 36.5t-27 25t-38.5 14.5t-45.5 5q-27 0 -52 -6.5t-41 -17.5v-431h-80v481z" />
    <glyph glyph-name="n" unicode="n" horiz-adv-x="519" 
d="M62 485q50 17 101.5 30t100.5 13q37 -1 72 -11.5t62.5 -31.5t44 -52.5t16.5 -74.5v-358h-79v361q0 24 -10.5 41.5t-27 29t-37 17t-41.5 5.5q-35 0 -67.5 -7.5t-54.5 -15.5v-431h-80v485z" />
    <glyph glyph-name="o" unicode="o" horiz-adv-x="495" 
d="M47 355q0 43 17.5 75.5t45.5 54t64 32.5t74 11q37 0 73 -11t64 -32.5t45 -54t17 -75.5v-192q0 -44 -17 -76t-45 -53.5t-64 -32.5t-73 -11q-38 0 -74 11t-64 32.5t-45.5 53.5t-17.5 76v192zM248 452q-22 0 -43.5 -5.5t-39 -17.5t-28 -30t-10.5 -42v-195q0 -24 10.5 -42
t28 -30t39 -18t43.5 -6q21 0 42 6t38.5 18t28 30t10.5 42v195q0 24 -10.5 42t-28 30t-38.5 17.5t-42 5.5z" />
    <glyph glyph-name="p" unicode="p" horiz-adv-x="512" 
d="M63 491q51 17 102 27t101 10q37 0 72.5 -11t63.5 -32t45 -53.5t17 -75.5v-192q0 -42 -17 -74.5t-45.5 -54.5t-64.5 -33t-74 -11q-32 0 -61.5 6.5t-58.5 21.5v-200h-80v672zM143 90q29 -11 59.5 -17t61.5 -6q22 0 43.5 6.5t38.5 18.5t27 30t10 41v194q0 22 -10 39.5
t-26.5 29.5t-37.5 18.5t-43 6.5q-31 0 -62.5 -2t-60.5 -10v-349z" />
    <glyph glyph-name="q" unicode="q" horiz-adv-x="512" 
d="M369 18q-26 -16 -62.5 -22t-67.5 -6q-38 0 -72.5 11t-61 33t-42 54.5t-15.5 74.5v193q0 43 17 75.5t45 53.5t63.5 32t72.5 11q50 0 99 -8.5t104 -26.5v-674h-80v199zM369 440q-36 11 -64 13.5t-59 2.5q-22 0 -43.5 -6.5t-38 -19t-26 -30.5t-9.5 -41v-203q0 -23 10 -40.5
t27 -29.5t38 -19t44 -7q31 0 61.5 6t59.5 17v357z" />
    <glyph glyph-name="r" unicode="r" horiz-adv-x="312" 
d="M299 449q-11 2 -21 2.5t-21 0.5q-24 0 -45 -6t-37 -18.5t-25.5 -30.5t-9.5 -42v-355h-80v355q0 44 17.5 76.5t45.5 53.5t62.5 32t68.5 11q11 0 22.5 -1t22.5 -3v-75z" />
    <glyph glyph-name="s" unicode="s" horiz-adv-x="443" 
d="M88 139q26 -39 67 -57t81 -18q18 0 35 5.5t31 16t22 25.5t8 35q0 21 -9.5 34.5t-24.5 22t-33 13.5t-35 8q-32 6 -64.5 14.5t-58.5 25.5t-42.5 43.5t-16.5 68.5q0 41 17.5 70t44.5 47t60.5 26.5t65.5 8.5q41 0 82.5 -15t73.5 -47l-49 -57q-24 25 -52 35t-55 10
q-17 0 -36 -3.5t-35.5 -12.5t-27 -23.5t-10.5 -36.5q0 -23 12 -37t29.5 -22t38 -12.5t37.5 -7.5q30 -6 60 -16t53.5 -27.5t38.5 -44.5t15 -66t-15 -68t-39.5 -48.5t-56 -29t-64.5 -9.5q-61 0 -115.5 24t-92.5 84z" />
    <glyph glyph-name="t" unicode="t" horiz-adv-x="284" 
d="M272 -8q-8 -1 -15.5 -1.5t-15.5 -0.5q-39 0 -72.5 11.5t-57.5 33.5t-37.5 53.5t-13.5 71.5v489h79v-131h106v-74h-106v-284q0 -22 9 -42.5t26.5 -35t42 -21t55.5 -0.5v-69z" />
    <glyph glyph-name="u" unicode="u" horiz-adv-x="520" 
d="M458 28q-36 -13 -66 -20.5t-55 -11.5t-45 -5t-36 -1q-37 0 -72 11t-62.5 32.5t-44.5 53.5t-17 75v356h80v-357q0 -23 10 -40.5t26.5 -29.5t37 -18.5t42.5 -6.5q35 0 65.5 4t56.5 13v435h80v-490z" />
    <glyph glyph-name="v" unicode="v" horiz-adv-x="479" 
d="M284 217l104 301h82l-183 -518h-95l-183 518h83l104 -303l44 -143h2z" />
    <glyph glyph-name="w" unicode="w" horiz-adv-x="713" 
d="M392 510l106 -431h3l35 149l85 290h78l-155 -518h-96l-55 232l-36 173l-36 -174l-56 -231h-96l-156 518h81l85 -290l35 -149h3l103 431h72z" />
    <glyph glyph-name="x" unicode="x" horiz-adv-x="483" 
d="M468 0h-98l-128 198l-129 -198h-98l179 259l-179 259h98l129 -202l128 202h98l-178 -259z" />
    <glyph glyph-name="y" unicode="y" horiz-adv-x="533" 
d="M134 -63q21 -26 56.5 -39t70.5 -13q24 0 47 5t41 16.5t29 30t11 45.5v40q-26 -18 -59 -24.5t-65 -7.5q-39 0 -75.5 11.5t-65.5 34t-46.5 56t-17.5 76.5v350h82v-352q0 -24 10.5 -42t27.5 -30.5t38.5 -19.5t44.5 -7q62 0 126 25v426h80v-536q0 -45 -17 -78t-45.5 -54.5
t-64.5 -32t-75 -10.5q-51 0 -102 20.5t-86 59.5z" />
    <glyph glyph-name="z" unicode="z" horiz-adv-x="468" 
d="M406 518l32 -52l-308 -393h303v-73h-379l-32 51l303 393h-281v74h362z" />
    <glyph glyph-name="braceleft" unicode="{" horiz-adv-x="293" 
d="M211 672q-20 0 -23 -16.5t-3 -45.5v-152q1 -59 -15.5 -96.5t-30.5 -53.5q14 -16 30.5 -52t15.5 -96v-155q0 -29 5 -43.5t25 -14.5h44v-72h-61q-46 0 -71 34t-25 94v138q0 25 -3 49t-10.5 42.5t-20.5 29.5t-33 11v72q20 0 33 11.5t20.5 30t10.5 42.5t3 49v138q0 60 25 94
t71 34h61v-72h-48z" />
    <glyph glyph-name="bar" unicode="|" horiz-adv-x="204" 
d="M62 -169v911h80v-911h-80z" />
    <glyph glyph-name="braceright" unicode="}" horiz-adv-x="294" 
d="M96 744q46 0 71 -34t25 -94v-138q0 -25 3 -49t10.5 -42.5t20.5 -30t33 -11.5v-72q-20 0 -33 -11t-20.5 -29.5t-10.5 -42.5t-3 -49v-138q0 -60 -25 -94t-71 -34h-61v72h43q21 0 26 14.5t5 43.5v155q0 31 4.5 55t11 42.5t14.5 31.5t15 21q-14 16 -30 52t-15 96v152
q0 29 -3 45.5t-23 16.5h-48v72h61z" />
    <glyph glyph-name="asciitilde" unicode="~" horiz-adv-x="519" 
d="M472 333q-9 -20 -21 -38.5t-28.5 -32.5t-37.5 -23t-47 -9q-27 0 -51 12t-43 25q-17 11 -32.5 19.5t-31.5 8.5q-23 0 -42.5 -20.5t-37.5 -48.5l-52 43q10 18 22.5 36.5t29 33t37 24t46.5 9.5q32 0 57.5 -12.5t45.5 -26.5q14 -9 29 -17.5t26 -8.5q24 0 43.5 22t37.5 50z
" />
    <glyph glyph-name="uni00A0" unicode="&#xa0;" horiz-adv-x="210" 
 />
    <glyph glyph-name="exclamdown" unicode="&#xa1;" horiz-adv-x="209" 
d="M163 470q0 -26 -16.5 -42.5t-41.5 -16.5q-26 0 -42.5 16.5t-16.5 42.5q0 25 16.5 41.5t42.5 16.5q25 0 41.5 -16.5t16.5 -41.5zM146 -176h-83v522h83v-522z" />
    <glyph glyph-name="cent" unicode="&#xa2;" horiz-adv-x="475" 
d="M363 390q-12 21 -34.5 33.5t-48.5 17.5v-361q29 5 54.5 21.5t36.5 50.5l71 -30q-9 -27 -26.5 -48t-39.5 -36t-47 -24.5t-49 -13.5v-89h-70v89q-32 5 -60.5 18.5t-51 34.5t-35.5 50t-13 67v180q0 38 12.5 67.5t34.5 50.5t51 33.5t62 16.5v91h70v-91q48 -5 88.5 -28.5
t66.5 -69.5zM130 168q-1 -36 23.5 -57t56.5 -29v356q-34 -7 -57.5 -28.5t-22.5 -59.5v-182z" />
    <glyph glyph-name="sterling" unicode="&#xa3;" horiz-adv-x="527" 
d="M139 327h-98v72h98v113q0 34 10 70.5t33.5 66.5t62.5 49.5t98 19.5q41 0 76.5 -16t72.5 -49l-59 -55q-23 23 -44 32.5t-49 9.5q-32 0 -55 -13t-37.5 -32t-21 -41.5t-6.5 -41.5v-113h156v-72h-156v-252h260v-75h-439v75h98v252z" />
    <glyph glyph-name="currency" unicode="&#xa4;" horiz-adv-x="615" 
d="M109 201q-24 31 -37.5 68.5t-13.5 79.5t13.5 79.5t37.5 68.5q-13 12 -27.5 26.5l-25.5 25.5l51 55l55 -55q32 24 68.5 35.5t77.5 11.5q82 0 146 -47l13.5 13.5t15 15.5t14.5 15t12 11l50 -55l-53 -52q24 -31 37.5 -68.5t13.5 -79.5t-13.5 -79.5t-37.5 -68.5
q13 -12 27.5 -26.5l25.5 -25.5l-50 -55l-55 55q-65 -47 -146 -47q-40 0 -77.5 12t-68.5 35q-12 -11 -29 -29t-26 -26l-51 55zM136 348q0 -36 13.5 -67t37 -54t54 -36.5t65.5 -13.5t66 13.5t54.5 36.5t37 54t13.5 67t-13.5 68t-37 55.5t-54.5 37t-66 13.5t-65.5 -13.5
t-54 -37t-37 -55.5t-13.5 -68z" />
    <glyph glyph-name="yen" unicode="&#xa5;" horiz-adv-x="614" 
d="M487 251h-139v-49h155l-15 -69h-140v-132h-82v132h-157l15 69h142v49h-154l15 69h112l-216 388h96l188 -355l188 355h97l-217 -388h127z" />
    <glyph glyph-name="brokenbar" unicode="&#xa6;" horiz-adv-x="214" 
d="M66 338v358h82v-358h-82zM66 -137v359h82v-359h-82z" />
    <glyph glyph-name="section" unicode="&#xa7;" horiz-adv-x="478" 
d="M108 32q16 -45 50.5 -66.5t72.5 -21.5q19 0 38 5.5t34.5 16t25 25.5t9.5 35q0 18 -10 33t-26.5 27t-38 22.5t-44.5 21.5q-31 14 -61 29t-54 35.5t-39 48.5t-15 67q0 46 25.5 76t60.5 49q-29 21 -46 49.5t-17 68.5t16.5 70t43 50.5t60.5 31t69 10.5q52 0 99 -25t69 -83
l-73 -40q-14 35 -40.5 52t-57.5 17q-19 0 -37.5 -5.5t-33 -16t-23.5 -26t-9 -35.5q0 -18 9.5 -31.5t25.5 -25.5t36.5 -22.5t43.5 -20.5q30 -14 59 -29t52.5 -35.5t38 -47.5t14.5 -64q0 -43 -20 -74t-53 -52q26 -21 43 -50.5t17 -65.5q0 -41 -16 -73t-42.5 -54t-60.5 -33.5
t-71 -11.5q-32 0 -62 8t-56 24.5t-47 41.5t-34 60zM289 190q10 7 21.5 16t21.5 19.5t16 22.5t6 24q0 15 -7 28t-17.5 23.5t-22.5 18t-23 13.5l-66 38q-14 -5 -29 -12.5t-27 -17.5t-19.5 -22.5t-7.5 -28.5q0 -33 17 -49t42 -29v1z" />
    <glyph glyph-name="dieresis" unicode="&#xa8;" horiz-adv-x="281" 
d="M-3 822q0 23 15 38t37 15t37 -15t15 -38q0 -22 -15 -37t-37 -15t-37 15t-15 37zM178 822q0 23 14.5 38t37.5 15q22 0 37 -15t15 -38q0 -22 -15 -37t-37 -15q-23 0 -37.5 15t-14.5 37z" />
    <glyph glyph-name="copyright" unicode="&#xa9;" horiz-adv-x="817" 
d="M42 349q0 76 29 142.5t79 116t116.5 78.5t142.5 29t142.5 -29t116 -78.5t78.5 -116t29 -142.5t-29 -142.5t-78.5 -116t-116 -78.5t-142.5 -29t-142.5 29t-116.5 78.5t-79 116t-29 142.5zM119 349q0 -60 23 -112.5t62 -92t92 -62.5t113 -23t112.5 23t91.5 62.5t62 92
t23 112.5t-23 113t-62 92t-91.5 62t-112.5 23t-113 -23t-92 -62t-62 -92t-23 -113zM522 445l-6 9q-14 25 -44 36.5t-63 11.5q-21 0 -41 -5t-36 -16t-25.5 -27.5t-9.5 -38.5v-142q0 -22 9.5 -38t25.5 -26.5t36 -16t41 -5.5q36 0 69 19t44 58l68 -33q-10 -30 -29 -52.5
t-43.5 -37t-52.5 -21.5t-56 -7q-35 0 -68.5 10t-59.5 30t-42.5 50.5t-16.5 71.5v140q0 41 16.5 71.5t42.5 50.5t59.5 30t68.5 10q51 0 98.5 -24t75.5 -72z" />
    <glyph glyph-name="ordfeminine" unicode="&#xaa;" horiz-adv-x="384" 
d="M249 590q0 21 -20.5 33.5t-44.5 12.5q-20 0 -43.5 -9.5t-40.5 -30.5l-49 46q31 34 67 50t70 16q26 0 51 -7.5t44.5 -22.5t31.5 -37.5t12 -52.5v-228q-42 -14 -79 -19t-72 -4q-28 0 -52 8t-42 23.5t-28 38.5t-10 53q0 34 12.5 55.5t33 33.5t46.5 16.5t54 4.5q32 0 59 -15
v35zM249 503q-14 3 -29.5 5.5t-31.5 2.5q-26 0 -45.5 -11.5t-20.5 -39.5q0 -26 16 -40t39 -15q17 0 35 1.5t37 3.5v93z" />
    <glyph glyph-name="guillemotleft" unicode="&#xab;" horiz-adv-x="447" 
d="M244 462l-116 -169q28 -41 58.5 -84.5t57.5 -84.5l-69 -41l-142 210l142 211zM403 462l-115 -169q28 -41 58 -84.5t57 -84.5l-69 -41l-141 210l141 211z" />
    <glyph glyph-name="logicalnot" unicode="&#xac;" horiz-adv-x="598" 
d="M56 405h479v-244h-79v165h-400v79z" />
    <glyph glyph-name="uni00AD" unicode="&#xad;" horiz-adv-x="361" 
d="M311 202h-261v82h261v-82z" />
    <glyph glyph-name="registered" unicode="&#xae;" horiz-adv-x="816" 
d="M42 349q0 76 29 142.5t78.5 116t116 78.5t142.5 29t142.5 -29t116 -78.5t78.5 -116t29 -142.5t-29 -142.5t-78.5 -116t-116 -78.5t-142.5 -29t-142.5 29t-116 78.5t-78.5 116t-29 142.5zM122 349q0 -59 22.5 -111t61.5 -90.5t91 -61t111 -22.5t111 22.5t90.5 61t61 90.5
t22.5 111t-22.5 111t-61 91t-90.5 61.5t-111 22.5t-111 -22.5t-91 -61.5t-61.5 -91t-22.5 -111zM272 547h150q72 0 108.5 -32.5t36.5 -90.5q0 -53 -26 -82.5t-63 -40.5l104 -144h-85l-102 140h-51v-141h-72v391zM394 365q18 0 35.5 2t32 8t23 17.5t8.5 31.5q0 15 -6.5 25.5
t-17 17t-24 9.5t-26.5 3h-75v-114h50z" />
    <glyph glyph-name="macron" unicode="&#xaf;" horiz-adv-x="240" 
d="M-12 851h257v-72h-257v72z" />
    <glyph glyph-name="degree" unicode="&#xb0;" horiz-adv-x="359" 
d="M180 426q-29 0 -55 11t-45 30t-30 45t-11 55t11 54.5t30 44.5t45 30t55 11t54.5 -11t44.5 -30t30 -44.5t11 -54.5t-11 -54.5t-30.5 -45t-45 -30.5t-53.5 -11zM180 500q27 0 46.5 19.5t19.5 46.5t-19.5 47t-46.5 20t-47 -20t-20 -47t20 -46.5t47 -19.5z" />
    <glyph glyph-name="plusminus" unicode="&#xb1;" horiz-adv-x="549" 
d="M232 605h81v-165h177v-80h-177v-166h-81v166h-173v80h173v165zM492 65h-435v79h435v-79z" />
    <glyph glyph-name="twosuperior" unicode="&#xb2;" horiz-adv-x="414" 
d="M357 271h-286l-22 53l200 192q25 19 32 40.5t-0.5 40.5t-28 31t-49.5 12q-19 0 -34.5 -6t-28 -15t-21 -19t-12.5 -19l-60 27q21 54 62 77t92 23q33 0 61.5 -10t49.5 -27.5t33 -41t12 -50.5q0 -33 -16 -60t-41 -49h1l-136 -124h192v-75z" />
    <glyph glyph-name="threesuperior" unicode="&#xb3;" horiz-adv-x="398" 
d="M338 587q0 -23 -13 -46t-36 -36q32 -12 50 -39.5t18 -59.5q-1 -30 -13 -55t-33 -43t-49.5 -27.5t-63.5 -8.5q-14 0 -34.5 3t-43 14t-44.5 31.5t-39 55.5l65 32q20 -38 45 -52t51 -14q34 0 59.5 15.5t25.5 54.5q-1 25 -20 42t-53 17h-44v57h44q22 0 39 15.5t17 44.5
q0 21 -19 35.5t-49 14.5q-23 0 -42.5 -9t-36.5 -40l-65 28q13 31 31.5 49.5t39 28t40 12t33.5 2.5q63 0 101.5 -33t38.5 -89z" />
    <glyph glyph-name="acute" unicode="&#xb4;" horiz-adv-x="213" 
d="M249 889l-102 -133h-88l85 133h105z" />
    <glyph glyph-name="mu" unicode="&#xb5;" horiz-adv-x="524" 
d="M383 46q-23 -27 -60 -42t-82 -15q-30 0 -54.5 9t-43.5 24v-238h-83v728h84v-318q0 -24 4 -47t14.5 -41t29.5 -29t49 -11q28 0 53.5 10t44 31t29.5 52t11 73v280h84l2 -514h-81z" />
    <glyph glyph-name="paragraph" unicode="&#xb6;" horiz-adv-x="565" 
d="M242 252q-54 2 -94.5 21.5t-68 50.5t-41 69.5t-13.5 78.5q0 42 15 83t46 72.5t76.5 51t107.5 19.5h229v-818h-82v746h-92v-746h-83v372z" />
    <glyph glyph-name="periodcentered" unicode="&#xb7;" horiz-adv-x="226" 
d="M55 315q0 25 16.5 42t42.5 17q25 0 41.5 -17t16.5 -42t-16.5 -42t-41.5 -17q-26 0 -42.5 17t-16.5 42z" />
    <glyph glyph-name="cedilla" unicode="&#xb8;" horiz-adv-x="240" 
d="M125 -64q46 1 65.5 -22.5t16.5 -56.5q-4 -41 -27 -63t-55.5 -28.5t-68 0.5t-64.5 23l22 54q21 -11 41 -16t36.5 -3.5t27 9t11.5 21.5q2 21 -18 29.5t-55 -1.5l-13 12l42 105h64z" />
    <glyph glyph-name="onesuperior" unicode="&#xb9;" horiz-adv-x="258" 
d="M22 583l108 125h65v-429h-74v317l-43 -58z" />
    <glyph glyph-name="ordmasculine" unicode="&#xba;" horiz-adv-x="411" 
d="M205 334q-29 0 -57 8t-50.5 24.5t-36.5 41.5t-14 58v110q0 33 14 57.5t36.5 41t50.5 25t57 8.5t57.5 -8.5t51 -25t36.5 -41t14 -57.5v-110q0 -33 -14 -58t-36.5 -41.5t-51 -24.5t-57.5 -8zM122 466q0 -17 7.5 -28t19.5 -17.5t27 -9.5t29 -3q15 0 30 3t27 9.5t19.5 17.5
t7.5 28v110q0 16 -7.5 27.5t-19.5 18t-27 9.5t-30 3q-14 0 -29 -3t-27 -9.5t-19.5 -18t-7.5 -27.5v-110z" />
    <glyph glyph-name="guillemotright" unicode="&#xbb;" horiz-adv-x="451" 
d="M44 123l116 170q-28 41 -58.5 84.5t-57.5 84.5l69 42l142 -211l-142 -210zM208 123l115 170q-28 41 -58 84.5t-57 84.5l69 42l141 -211l-141 -210z" />
    <glyph glyph-name="onequarter" unicode="&#xbc;" horiz-adv-x="723" 
d="M154 -37l-66 40l446 732l67 -40zM196 279h-74v317l-43 -58l-56 45l108 125h65v-429zM649 446v-275h39v-71h-39v-102h-75v102h-190l-42 61l236 285h71zM443 171h131l3 165z" />
    <glyph glyph-name="onehalf" unicode="&#xbd;" horiz-adv-x="781" 
d="M142 -37l-65 40l446 732l66 -40zM197 279h-74v317l-43 -58l-56 45l108 125h65v-429zM685 199l-136 -124h192v-75h-286l-22 53l200 192q25 19 32 40.5t-0.5 40.5t-28 31t-49.5 12q-19 0 -34.5 -6t-28 -15t-21 -19t-12.5 -19l-60 27q21 54 62 77t92 23q45 0 87 -21.5
t62 -65.5q7 -21 7 -42q0 -33 -16 -60t-41 -49h1z" />
    <glyph glyph-name="threequarters" unicode="&#xbe;" horiz-adv-x="805" 
d="M238 -37l-65 40l446 732l66 -40zM328 587q0 -23 -13 -46t-36 -36q32 -12 50 -39.5t18 -59.5q-1 -30 -13 -55t-33 -43t-49.5 -27.5t-63.5 -8.5q-14 0 -34.5 3t-43 14t-44.5 31.5t-39 55.5l65 32q20 -38 45 -52t51 -14q34 0 59.5 15.5t25.5 54.5q-1 25 -20 42t-53 17h-44
v57h44q22 0 39 15.5t17 44.5q0 21 -19 35.5t-49 14.5q-23 0 -42.5 -9t-36.5 -40l-65 28q13 31 31.5 49.5t39 28t40 12t33.5 2.5q63 0 101.5 -33t38.5 -89zM664 446h71v-275h39v-71h-39v-102h-75v102h-190l-42 61zM663 336l-134 -165h131z" />
    <glyph glyph-name="questiondown" unicode="&#xbf;" horiz-adv-x="481" 
d="M322 474q0 -23 -15.5 -38.5t-38.5 -15.5t-38.5 15.5t-15.5 38.5t15.5 38.5t38.5 15.5t38.5 -15.5t15.5 -38.5zM452 -112q-35 -44 -87 -66t-109 -22q-44 0 -85 13t-72.5 39t-50.5 65t-19 90q0 50 16.5 87t43.5 63t62.5 41.5t74.5 23.5q2 38 3.5 70.5t3.5 69.5h71l6 -209
q-38 0 -74.5 -10t-64.5 -29t-45 -46t-16 -62q1 -32 13.5 -55t33.5 -39t47 -23.5t54 -7.5q38 0 75.5 17t64.5 50l63 -49z" />
    <glyph glyph-name="Agrave" unicode="&#xc0;" horiz-adv-x="619" 
d="M282 891l82 -134h-82l-107 134h107zM616 0h-88l-82 227h-273q-20 -56 -40.5 -113.5t-39.5 -113.5h-89l254 708h102zM417 311q-15 41 -28 78t-25.5 74t-26 75t-28.5 80q-27 -78 -53 -152.5t-55 -154.5h216z" />
    <glyph glyph-name="Aacute" unicode="&#xc1;" horiz-adv-x="619" 
d="M440 889l-102 -133h-88l85 133h105zM616 0h-88l-82 227h-273q-20 -56 -40.5 -113.5t-39.5 -113.5h-89l254 708h102zM417 311q-15 41 -28 78t-25.5 74t-26 75t-28.5 80q-27 -78 -53 -152.5t-55 -154.5h216z" />
    <glyph glyph-name="Acircumflex" unicode="&#xc2;" horiz-adv-x="619" 
d="M470 756h-95l-61 69l-64 -69h-98l127 133h74zM616 0h-88l-82 227h-273q-20 -56 -40.5 -113.5t-39.5 -113.5h-89l254 708h102zM417 311q-15 41 -28 78t-25.5 74t-26 75t-28.5 80q-27 -78 -53 -152.5t-55 -154.5h216z" />
    <glyph glyph-name="Atilde" unicode="&#xc3;" horiz-adv-x="619" 
d="M164 793q8 43 36.5 68.5t60.5 25.5q19 0 34.5 -7.5t28.5 -17t23 -17t19 -7.5q8 0 20 6.5t18 29.5l59 -21q-13 -51 -38 -70.5t-53 -19.5q-17 0 -31 8t-26.5 17t-25.5 17t-28 8q-11 0 -23 -11.5t-17 -29.5zM616 0h-88l-82 227h-273q-20 -56 -40.5 -113.5t-39.5 -113.5h-89
l254 708h102zM417 311q-15 41 -28 78t-25.5 74t-26 75t-28.5 80q-27 -78 -53 -152.5t-55 -154.5h216z" />
    <glyph glyph-name="Adieresis" unicode="&#xc4;" horiz-adv-x="619" 
d="M167 822q0 23 15 38t37 15t37 -15t15 -38q0 -22 -15 -37t-37 -15t-37 15t-15 37zM348 822q0 23 14.5 38t37.5 15q22 0 37 -15t15 -38q0 -22 -15 -37t-37 -15q-23 0 -37.5 15t-14.5 37zM616 0h-88l-82 227h-273q-20 -56 -40.5 -113.5t-39.5 -113.5h-89l254 708h102z
M417 311q-15 41 -28 78t-25.5 74t-26 75t-28.5 80q-27 -78 -53 -152.5t-55 -154.5h216z" />
    <glyph glyph-name="Aring" unicode="&#xc5;" horiz-adv-x="619" 
d="M446 227h-273q-20 -56 -40.5 -113.5t-39.5 -113.5h-89l253 704q-25 14 -40 39t-15 54q0 22 8.5 41.5t23 34t34 23t41.5 8.5t41 -9t33 -24t22 -34.5t8 -40.5q0 -28 -14.5 -52.5t-37.5 -38.5l255 -705h-88zM308 846q-20 0 -33 -15t-13 -35t13.5 -34t32.5 -14q20 0 33 14.5
t13 34.5t-13 34.5t-33 14.5zM417 311q-15 41 -28 78t-25.5 74t-26 75t-28.5 80q-27 -78 -53 -152.5t-55 -154.5h216z" />
    <glyph glyph-name="AE" unicode="&#xc6;" horiz-adv-x="801" 
d="M469 624v-229h261v-83h-261v-230h290v-82h-374v227h-184l-113 -227h-96l361 708h406v-84h-290zM390 625l-154 -322h149z" />
    <glyph glyph-name="Ccedilla" unicode="&#xc7;" horiz-adv-x="596" 
d="M320 74q55 0 104.5 24t73.5 71l75 -35q-32 -66 -93.5 -101.5t-131.5 -41.5l-22 -55q46 1 65.5 -22.5t16.5 -56.5q-4 -41 -27 -63t-55.5 -28.5t-68 0.5t-64.5 23l22 54q21 -11 41 -16t36.5 -3.5t27 9t11.5 21.5q2 21 -18 29.5t-55 -1.5l-13 12l39 98q-45 4 -86.5 20
t-74 43.5t-51.5 66.5t-19 89v283q0 55 23 96.5t61 70t86.5 43t99.5 14.5q38 0 75.5 -8.5t70.5 -26.5t60 -44.5t44 -62.5l-75 -36q-25 48 -74.5 72t-103.5 24q-34 0 -67 -9t-58.5 -26.5t-41.5 -44t-16 -60.5v-285q0 -35 16 -60.5t41.5 -42.5t58.5 -25.5t67 -8.5z" />
    <glyph glyph-name="Egrave" unicode="&#xc8;" horiz-adv-x="571" 
d="M274 893l82 -134h-82l-107 134h107zM158 396h341v-84h-341v-228h370v-84h-454v708h454v-84h-370v-228z" />
    <glyph glyph-name="Eacute" unicode="&#xc9;" horiz-adv-x="571" 
d="M432 891l-102 -133h-88l85 133h105zM158 396h341v-84h-341v-228h370v-84h-454v708h454v-84h-370v-228z" />
    <glyph glyph-name="Ecircumflex" unicode="&#xca;" horiz-adv-x="571" 
d="M462 758h-95l-61 69l-64 -69h-98l127 133h74zM158 396h341v-84h-341v-228h370v-84h-454v708h454v-84h-370v-228z" />
    <glyph glyph-name="Edieresis" unicode="&#xcb;" horiz-adv-x="571" 
d="M159 824q0 23 15 38t37 15t37 -15t15 -38q0 -22 -15 -37t-37 -15t-37 15t-15 37zM340 824q0 23 14.5 38t37.5 15q22 0 37 -15t15 -38q0 -22 -15 -37t-37 -15q-23 0 -37.5 15t-14.5 37zM158 396h341v-84h-341v-228h370v-84h-454v708h454v-84h-370v-228z" />
    <glyph glyph-name="Igrave" unicode="&#xcc;" horiz-adv-x="231" 
d="M89 890l82 -134h-82l-107 134h107zM157 0h-83v708h83v-708z" />
    <glyph glyph-name="Iacute" unicode="&#xcd;" horiz-adv-x="231" 
d="M247 888l-102 -133h-88l85 133h105zM157 0h-83v708h83v-708z" />
    <glyph glyph-name="Icircumflex" unicode="&#xce;" horiz-adv-x="231" 
d="M277 755h-95l-61 69l-64 -69h-98l127 133h74zM157 0h-83v708h83v-708z" />
    <glyph glyph-name="Idieresis" unicode="&#xcf;" horiz-adv-x="231" 
d="M-26 821q0 23 15 38t37 15t37 -15t15 -38q0 -22 -15 -37t-37 -15t-37 15t-15 37zM155 821q0 23 14.5 38t37.5 15q22 0 37 -15t15 -38q0 -22 -15 -37t-37 -15q-23 0 -37.5 15t-14.5 37zM157 0h-83v708h83v-708z" />
    <glyph glyph-name="Eth" unicode="&#xd0;" horiz-adv-x="642" 
d="M78 708h241q50 0 98.5 -12t86 -38t60.5 -66.5t23 -96.5v-283q0 -56 -23 -96t-60.5 -66t-86 -38t-98.5 -12h-241v311h-60v78h60v319zM319 84q34 0 67.5 7t59.5 22.5t42 39.5t16 59v283q0 35 -16 59.5t-42 40t-59.5 22.5t-67.5 7h-157v-235h120v-78h-120v-227h157z" />
    <glyph glyph-name="Ntilde" unicode="&#xd1;" horiz-adv-x="686" 
d="M200 793q8 43 36.5 68.5t60.5 25.5q19 0 34.5 -7.5t28.5 -17t23 -17t19 -7.5q8 0 20 6.5t18 29.5l59 -21q-13 -51 -38 -70.5t-53 -19.5q-17 0 -31 8t-26.5 17t-25.5 17t-28 8q-11 0 -23 -11.5t-17 -29.5zM528 708h84v-708h-106l-348 561v-561h-84v708h90l364 -585v585z
" />
    <glyph glyph-name="Ograve" unicode="&#xd2;" horiz-adv-x="673" 
d="M309 891l82 -134h-82l-107 134h107zM53 496q0 55 24 97t64 69.5t91 41.5t104 14t104 -14t90.5 -41.5t64 -69.5t24.5 -97v-283q0 -56 -24.5 -97.5t-64 -69.5t-90.5 -42t-104 -14t-104 14t-91 42t-64 69.5t-24 97.5v283zM136 214q0 -35 17 -61t45 -43.5t64 -26.5t74 -9
q37 0 73 9t64.5 26.5t45.5 43.5t17 61v282q0 37 -17.5 63.5t-45.5 43.5t-64.5 25t-73.5 8q-38 0 -73.5 -8.5t-63.5 -26t-45 -43.5t-17 -62v-282z" />
    <glyph glyph-name="Oacute" unicode="&#xd3;" horiz-adv-x="673" 
d="M467 889l-102 -133h-88l85 133h105zM53 496q0 55 24 97t64 69.5t91 41.5t104 14t104 -14t90.5 -41.5t64 -69.5t24.5 -97v-283q0 -56 -24.5 -97.5t-64 -69.5t-90.5 -42t-104 -14t-104 14t-91 42t-64 69.5t-24 97.5v283zM136 214q0 -35 17 -61t45 -43.5t64 -26.5t74 -9
q37 0 73 9t64.5 26.5t45.5 43.5t17 61v282q0 37 -17.5 63.5t-45.5 43.5t-64.5 25t-73.5 8q-38 0 -73.5 -8.5t-63.5 -26t-45 -43.5t-17 -62v-282z" />
    <glyph glyph-name="Ocircumflex" unicode="&#xd4;" horiz-adv-x="673" 
d="M497 756h-95l-61 69l-64 -69h-98l127 133h74zM53 496q0 55 24 97t64 69.5t91 41.5t104 14t104 -14t90.5 -41.5t64 -69.5t24.5 -97v-283q0 -56 -24.5 -97.5t-64 -69.5t-90.5 -42t-104 -14t-104 14t-91 42t-64 69.5t-24 97.5v283zM136 214q0 -35 17 -61t45 -43.5t64 -26.5
t74 -9q37 0 73 9t64.5 26.5t45.5 43.5t17 61v282q0 37 -17.5 63.5t-45.5 43.5t-64.5 25t-73.5 8q-38 0 -73.5 -8.5t-63.5 -26t-45 -43.5t-17 -62v-282z" />
    <glyph glyph-name="Otilde" unicode="&#xd5;" horiz-adv-x="673" 
d="M191 793q8 43 36.5 68.5t60.5 25.5q19 0 34.5 -7.5t28.5 -17t23 -17t19 -7.5q8 0 20 6.5t18 29.5l59 -21q-13 -51 -38 -70.5t-53 -19.5q-17 0 -31 8t-26.5 17t-25.5 17t-28 8q-11 0 -23 -11.5t-17 -29.5zM53 496q0 55 24 97t64 69.5t91 41.5t104 14t104 -14t90.5 -41.5
t64 -69.5t24.5 -97v-283q0 -56 -24.5 -97.5t-64 -69.5t-90.5 -42t-104 -14t-104 14t-91 42t-64 69.5t-24 97.5v283zM136 214q0 -35 17 -61t45 -43.5t64 -26.5t74 -9q37 0 73 9t64.5 26.5t45.5 43.5t17 61v282q0 37 -17.5 63.5t-45.5 43.5t-64.5 25t-73.5 8q-38 0 -73.5 -8.5
t-63.5 -26t-45 -43.5t-17 -62v-282z" />
    <glyph glyph-name="Odieresis" unicode="&#xd6;" horiz-adv-x="673" 
d="M194 822q0 23 15 38t37 15t37 -15t15 -38q0 -22 -15 -37t-37 -15t-37 15t-15 37zM375 822q0 23 14.5 38t37.5 15q22 0 37 -15t15 -38q0 -22 -15 -37t-37 -15q-23 0 -37.5 15t-14.5 37zM53 496q0 55 24 97t64 69.5t91 41.5t104 14t104 -14t90.5 -41.5t64 -69.5t24.5 -97
v-283q0 -56 -24.5 -97.5t-64 -69.5t-90.5 -42t-104 -14t-104 14t-91 42t-64 69.5t-24 97.5v283zM136 214q0 -35 17 -61t45 -43.5t64 -26.5t74 -9q37 0 73 9t64.5 26.5t45.5 43.5t17 61v282q0 37 -17.5 63.5t-45.5 43.5t-64.5 25t-73.5 8q-38 0 -73.5 -8.5t-63.5 -26
t-45 -43.5t-17 -62v-282z" />
    <glyph glyph-name="multiply" unicode="&#xd7;" horiz-adv-x="510" 
d="M409 509l56 -57l-150 -151l149 -149l-57 -58l-150 150l-154 -154l-56 58l152 152l-155 155l57 57l156 -156z" />
    <glyph glyph-name="Oslash" unicode="&#xd8;" horiz-adv-x="673" 
d="M491 685q56 -26 92 -73t36 -116v-283q0 -56 -24.5 -97.5t-64 -69.5t-90.5 -42t-104 -14q-29 0 -57.5 4t-54.5 12l-32 -80l-57 19l33 84q-51 28 -83 73.5t-32 110.5v283q0 55 24 97t64 69.5t91 41.5t104 14q50 0 97 -12l31 79l59 -20zM136 213q0 -35 17 -61.5t46 -43.5
l204 521q-31 7 -68 7q-38 0 -73.5 -8.5t-63.5 -26t-45 -43.5t-17 -62v-283zM536 496q0 41 -20.5 68.5t-53.5 44.5l-208 -525q41 -11 82 -11q37 0 73 9t64.5 26.5t45.5 43.5t17 61v283z" />
    <glyph glyph-name="Ugrave" unicode="&#xd9;" horiz-adv-x="676" 
d="M311 891l82 -134h-82l-107 134h107zM153 216q0 -36 16 -62.5t42 -44.5t59 -26.5t68 -8.5q34 0 67.5 8.5t59.5 26.5t42 44.5t16 62.5v492h84v-492q0 -56 -23 -98.5t-61 -71t-86.5 -42.5t-98.5 -14q-51 0 -99 14t-86 42.5t-61 71t-23 98.5v492h84v-492z" />
    <glyph glyph-name="Uacute" unicode="&#xda;" horiz-adv-x="676" 
d="M469 889l-102 -133h-88l85 133h105zM153 216q0 -36 16 -62.5t42 -44.5t59 -26.5t68 -8.5q34 0 67.5 8.5t59.5 26.5t42 44.5t16 62.5v492h84v-492q0 -56 -23 -98.5t-61 -71t-86.5 -42.5t-98.5 -14q-51 0 -99 14t-86 42.5t-61 71t-23 98.5v492h84v-492z" />
    <glyph glyph-name="Ucircumflex" unicode="&#xdb;" horiz-adv-x="676" 
d="M499 756h-95l-61 69l-64 -69h-98l127 133h74zM153 216q0 -36 16 -62.5t42 -44.5t59 -26.5t68 -8.5q34 0 67.5 8.5t59.5 26.5t42 44.5t16 62.5v492h84v-492q0 -56 -23 -98.5t-61 -71t-86.5 -42.5t-98.5 -14q-51 0 -99 14t-86 42.5t-61 71t-23 98.5v492h84v-492z" />
    <glyph glyph-name="Udieresis" unicode="&#xdc;" horiz-adv-x="676" 
d="M196 822q0 23 15 38t37 15t37 -15t15 -38q0 -22 -15 -37t-37 -15t-37 15t-15 37zM377 822q0 23 14.5 38t37.5 15q22 0 37 -15t15 -38q0 -22 -15 -37t-37 -15q-23 0 -37.5 15t-14.5 37zM153 216q0 -36 16 -62.5t42 -44.5t59 -26.5t68 -8.5q34 0 67.5 8.5t59.5 26.5
t42 44.5t16 62.5v492h84v-492q0 -56 -23 -98.5t-61 -71t-86.5 -42.5t-98.5 -14q-51 0 -99 14t-86 42.5t-61 71t-23 98.5v492h84v-492z" />
    <glyph glyph-name="Yacute" unicode="&#xdd;" horiz-adv-x="579" 
d="M421 889l-102 -133h-88l85 133h105zM247 0v276l-246 432h97l192 -343l190 343h98l-247 -432v-276h-84z" />
    <glyph glyph-name="Thorn" unicode="&#xde;" horiz-adv-x="611" 
d="M74 708h83v-128h187q60 0 104.5 -19.5t74.5 -51.5t45 -73t15 -83q0 -43 -15 -83.5t-45 -72t-74.5 -51t-103.5 -19.5h-188v-127h-83v708zM344 211q39 0 68.5 12t49 32t29 45.5t9.5 52.5t-10 53t-29.5 46t-48.5 32.5t-68 11.5h-187v-285h187z" />
    <glyph glyph-name="germandbls" unicode="&#xdf;" horiz-adv-x="584" 
d="M290 74q34 -1 65 8t55 26.5t38 44t14 60.5q0 35 -12 59.5t-33 40.5t-49 23t-61 7h-101v80h101q25 0 47.5 7.5t40 21.5t27.5 35.5t10 50.5q0 30 -12.5 50.5t-33 33.5t-46 18.5t-51.5 5.5t-52 -6.5t-46.5 -20.5t-33 -35.5t-12.5 -51.5v-533h-81v533q0 47 19.5 83.5t51 61
t72 37t82.5 12.5t82.5 -11.5t72.5 -35t51.5 -59t19.5 -82.5q0 -44 -14.5 -83t-49.5 -66q52 -25 73.5 -71t21.5 -105q-1 -55 -23 -97t-57 -70t-80.5 -42.5t-94.5 -13.5q-29 1 -52.5 6.5t-52.5 19.5l1 89q28 -18 54 -24.5t49 -6.5z" />
    <glyph glyph-name="agrave" unicode="&#xe0;" 
d="M239 711l82 -134h-77l-107 134h102zM352 361q0 22 -10.5 39.5t-27.5 29.5t-39 18t-45 6q-35 0 -70 -13.5t-58 -42.5l-50 49q36 40 85.5 60.5t98.5 20.5q37 0 72.5 -10.5t63 -31t44 -52t16.5 -73.5v-336q-54 -19 -108 -27.5t-106 -7.5q-39 0 -73 10t-58.5 30t-39 50
t-14.5 72q0 43 16.5 74t43.5 51t62 30t73 10q65 0 124 -25v69zM352 234q-24 8 -54 14t-62 6q-24 0 -46.5 -5.5t-39.5 -17.5t-27.5 -31.5t-10.5 -47.5q0 -50 31 -71.5t77 -22.5q33 -1 66.5 1t65.5 9v166z" />
    <glyph glyph-name="aacute" unicode="&#xe1;" 
d="M369 709l-102 -133h-80l85 133h97zM352 361q0 22 -10.5 39.5t-27.5 29.5t-39 18t-45 6q-35 0 -70 -13.5t-58 -42.5l-50 49q36 40 85.5 60.5t98.5 20.5q37 0 72.5 -10.5t63 -31t44 -52t16.5 -73.5v-336q-54 -19 -108 -27.5t-106 -7.5q-39 0 -73 10t-58.5 30t-39 50
t-14.5 72q0 43 16.5 74t43.5 51t62 30t73 10q65 0 124 -25v69zM352 234q-24 8 -54 14t-62 6q-24 0 -46.5 -5.5t-39.5 -17.5t-27.5 -31.5t-10.5 -47.5q0 -50 31 -71.5t77 -22.5q33 -1 66.5 1t65.5 9v166z" />
    <glyph glyph-name="acircumflex" unicode="&#xe2;" 
d="M407 576h-95l-61 69l-64 -69h-98l127 133h74zM352 361q0 22 -10.5 39.5t-27.5 29.5t-39 18t-45 6q-35 0 -70 -13.5t-58 -42.5l-50 49q36 40 85.5 60.5t98.5 20.5q37 0 72.5 -10.5t63 -31t44 -52t16.5 -73.5v-336q-54 -19 -108 -27.5t-106 -7.5q-39 0 -73 10t-58.5 30
t-39 50t-14.5 72q0 43 16.5 74t43.5 51t62 30t73 10q65 0 124 -25v69zM352 234q-24 8 -54 14t-62 6q-24 0 -46.5 -5.5t-39.5 -17.5t-27.5 -31.5t-10.5 -47.5q0 -50 31 -71.5t77 -22.5q33 -1 66.5 1t65.5 9v166z" />
    <glyph glyph-name="atilde" unicode="&#xe3;" 
d="M97 612q8 42 35 66.5t59 24.5q19 0 34 -7.5t27.5 -16t22 -16t18.5 -7.5q8 0 19.5 6.5t17.5 28.5l57 -21q-12 -49 -36.5 -68t-51.5 -19q-17 0 -30 7.5t-25.5 16.5t-25 16.5t-27.5 7.5q-10 0 -22 -11t-17 -28zM352 361q0 22 -10.5 39.5t-27.5 29.5t-39 18t-45 6
q-35 0 -70 -13.5t-58 -42.5l-50 49q36 40 85.5 60.5t98.5 20.5q37 0 72.5 -10.5t63 -31t44 -52t16.5 -73.5v-336q-54 -19 -108 -27.5t-106 -7.5q-39 0 -73 10t-58.5 30t-39 50t-14.5 72q0 43 16.5 74t43.5 51t62 30t73 10q65 0 124 -25v69zM352 234q-24 8 -54 14t-62 6
q-24 0 -46.5 -5.5t-39.5 -17.5t-27.5 -31.5t-10.5 -47.5q0 -50 31 -71.5t77 -22.5q33 -1 66.5 1t65.5 9v166z" />
    <glyph glyph-name="adieresis" unicode="&#xe4;" 
d="M104 642q0 23 15 38t37 15t37 -15t15 -38q0 -22 -15 -37t-37 -15t-37 15t-15 37zM285 642q0 23 14.5 38t37.5 15q22 0 37 -15t15 -38q0 -22 -15 -37t-37 -15q-23 0 -37.5 15t-14.5 37zM352 361q0 22 -10.5 39.5t-27.5 29.5t-39 18t-45 6q-35 0 -70 -13.5t-58 -42.5
l-50 49q36 40 85.5 60.5t98.5 20.5q37 0 72.5 -10.5t63 -31t44 -52t16.5 -73.5v-336q-54 -19 -108 -27.5t-106 -7.5q-39 0 -73 10t-58.5 30t-39 50t-14.5 72q0 43 16.5 74t43.5 51t62 30t73 10q65 0 124 -25v69zM352 234q-24 8 -54 14t-62 6q-24 0 -46.5 -5.5t-39.5 -17.5
t-27.5 -31.5t-10.5 -47.5q0 -50 31 -71.5t77 -22.5q33 -1 66.5 1t65.5 9v166z" />
    <glyph glyph-name="aring" unicode="&#xe5;" 
d="M143 659q0 21 8 39t22 31t33 20.5t40 7.5t39.5 -8t32 -21.5t21 -31.5t7.5 -38t-8 -37.5t-21.5 -31t-31.5 -21t-39 -7.5t-40 7.5t-33 20.5t-22 31t-8 39zM296 659q0 23 -14 36t-37 13t-37 -14t-14 -36q0 -23 15 -35.5t36 -12.5q23 0 37 13t14 36zM352 361q0 22 -10.5 39.5
t-27.5 29.5t-39 18t-45 6q-35 0 -70 -13.5t-58 -42.5l-50 49q36 40 85.5 60.5t98.5 20.5q37 0 72.5 -10.5t63 -31t44 -52t16.5 -73.5v-336q-54 -19 -108 -27.5t-106 -7.5q-39 0 -73 10t-58.5 30t-39 50t-14.5 72q0 43 16.5 74t43.5 51t62 30t73 10q65 0 124 -25v69zM352 234
q-24 8 -54 14t-62 6q-24 0 -46.5 -5.5t-39.5 -17.5t-27.5 -31.5t-10.5 -47.5q0 -50 31 -71.5t77 -22.5q33 -1 66.5 1t65.5 9v166z" />
    <glyph glyph-name="ae" unicode="&#xe6;" horiz-adv-x="791" 
d="M352 360q0 22 -10.5 39t-27.5 28t-39 16.5t-45 5.5q-34 0 -67.5 -14t-55.5 -42l-55 53q36 41 85 61t98 20q46 0 91.5 -22t67.5 -61q11 22 29 37.5t39 25.5t44 14.5t45 4.5q37 0 73 -10.5t64 -32.5t45 -54.5t17 -75.5v-127h-319v-66q0 -23 10.5 -40t27 -28.5t38 -17
t44.5 -5.5q36 0 70 17t49 53l72 -35q-14 -29 -34.5 -50t-46 -35.5t-54 -21.5t-56.5 -7q-41 0 -80.5 13.5t-68.5 39.5q-34 -26 -78 -39.5t-91 -13.5q-38 0 -74 10t-64 31.5t-45 54.5t-17 79q0 43 16 75t43 53t61.5 31.5t70.5 10.5q37 0 68.5 -8t59.5 -25v58zM671 355
q0 23 -10.5 40t-27 28.5t-38.5 17t-44 5.5t-43.5 -5.5t-38.5 -16.5t-27.5 -27.5t-10.5 -38.5v-68h240v65zM361 103q-9 25 -9 59v79q-27 11 -54.5 17.5t-58.5 6.5q-25 0 -47.5 -5t-40 -16.5t-28 -31t-10.5 -47.5q0 -26 10.5 -44.5t27 -30t38 -17t45.5 -5.5q35 0 68.5 10
t58.5 25z" />
    <glyph glyph-name="ccedilla" unicode="&#xe7;" horiz-adv-x="464" 
d="M441 117q-20 -57 -66 -88t-100 -37l-22 -56q46 1 65.5 -22.5t16.5 -56.5q-4 -41 -27 -63t-55.5 -28.5t-68 0.5t-64.5 23l22 54q21 -11 41 -16t36.5 -3.5t27 9t11.5 21.5q2 21 -18 29.5t-55 -1.5l-13 12l39 98q-32 5 -62 18t-52.5 34t-36 51t-13.5 68v192q0 43 17.5 75.5
t45.5 54.5t64 32.5t73 10.5q55 0 106 -25.5t80 -77.5l-65 -39l-7 10q-14 27 -46.5 39.5t-67.5 12.5q-23 0 -44.5 -5.5t-38 -17t-27 -29t-10.5 -41.5v-194q0 -23 10.5 -40t27 -28.5t38 -17t44.5 -5.5q39 0 74 20t47 62z" />
    <glyph glyph-name="egrave" unicode="&#xe8;" 
d="M222 711l82 -134h-82l-107 134h107zM129 156q0 -24 10 -41t27 -28.5t38.5 -17t44.5 -5.5q35 0 68.5 17t49.5 53l70 -30q-14 -29 -34.5 -50t-45 -35.5t-52.5 -21.5t-56 -7q-38 0 -74 10.5t-64 32t-45.5 54t-17.5 75.5v194q0 43 17.5 75.5t45.5 54t64 32t74 10.5
q37 0 72.5 -10.5t63.5 -32t45 -54t17 -75.5v-137h-318v-63zM371 360q0 23 -11 40.5t-28 29.5t-39 18.5t-44 6.5q-25 0 -47 -6.5t-38.5 -18.5t-25.5 -30t-9 -42v-72h242v74z" />
    <glyph glyph-name="eacute" unicode="&#xe9;" 
d="M380 709l-102 -133h-88l85 133h105zM129 156q0 -24 10 -41t27 -28.5t38.5 -17t44.5 -5.5q35 0 68.5 17t49.5 53l70 -30q-14 -29 -34.5 -50t-45 -35.5t-52.5 -21.5t-56 -7q-38 0 -74 10.5t-64 32t-45.5 54t-17.5 75.5v194q0 43 17.5 75.5t45.5 54t64 32t74 10.5
q37 0 72.5 -10.5t63.5 -32t45 -54t17 -75.5v-137h-318v-63zM371 360q0 23 -11 40.5t-28 29.5t-39 18.5t-44 6.5q-25 0 -47 -6.5t-38.5 -18.5t-25.5 -30t-9 -42v-72h242v74z" />
    <glyph glyph-name="ecircumflex" unicode="&#xea;" 
d="M403 576h-92l-64 73l-67 -73h-95l127 133h74zM129 156q0 -24 10 -41t27 -28.5t38.5 -17t44.5 -5.5q35 0 68.5 17t49.5 53l70 -30q-14 -29 -34.5 -50t-45 -35.5t-52.5 -21.5t-56 -7q-38 0 -74 10.5t-64 32t-45.5 54t-17.5 75.5v194q0 43 17.5 75.5t45.5 54t64 32t74 10.5
q37 0 72.5 -10.5t63.5 -32t45 -54t17 -75.5v-137h-318v-63zM371 360q0 23 -11 40.5t-28 29.5t-39 18.5t-44 6.5q-25 0 -47 -6.5t-38.5 -18.5t-25.5 -30t-9 -42v-72h242v74z" />
    <glyph glyph-name="edieresis" unicode="&#xeb;" 
d="M107 642q0 23 15 38t37 15t37 -15t15 -38q0 -22 -15 -37t-37 -15t-37 15t-15 37zM288 642q0 23 14.5 38t37.5 15q22 0 37 -15t15 -38q0 -22 -15 -37t-37 -15q-23 0 -37.5 15t-14.5 37zM129 156q0 -24 10 -41t27 -28.5t38.5 -17t44.5 -5.5q35 0 68.5 17t49.5 53l70 -30
q-14 -29 -34.5 -50t-45 -35.5t-52.5 -21.5t-56 -7q-38 0 -74 10.5t-64 32t-45.5 54t-17.5 75.5v194q0 43 17.5 75.5t45.5 54t64 32t74 10.5q37 0 72.5 -10.5t63.5 -32t45 -54t17 -75.5v-137h-318v-63zM371 360q0 23 -11 40.5t-28 29.5t-39 18.5t-44 6.5q-25 0 -47 -6.5
t-38.5 -18.5t-25.5 -30t-9 -42v-72h242v74z" />
    <glyph glyph-name="igrave" unicode="&#xec;" horiz-adv-x="212" 
d="M79 701l82 -134h-82l-107 134h107zM148 0h-84v518h84v-518z" />
    <glyph glyph-name="iacute" unicode="&#xed;" horiz-adv-x="212" 
d="M237 699l-102 -133h-88l85 133h105zM148 0h-84v518h84v-518z" />
    <glyph glyph-name="icircumflex" unicode="&#xee;" horiz-adv-x="212" 
d="M267 566h-95l-61 69l-64 -69h-98l127 133h74zM148 0h-84v518h84v-518z" />
    <glyph glyph-name="idieresis" unicode="&#xef;" horiz-adv-x="212" 
d="M-22 632q0 23 15 38t37 15t37 -15t15 -38q0 -22 -15 -37t-37 -15t-37 15t-15 37zM129 632q0 23 14.5 38t37.5 15q22 0 37 -15t15 -38q0 -22 -15 -37t-37 -15q-23 0 -37.5 15t-14.5 37zM148 0h-84v518h84v-518z" />
    <glyph glyph-name="eth" unicode="&#xf0;" horiz-adv-x="504" 
d="M331 692q47 -18 79 -56t32 -99v-505l-62 -19q-34 -9 -70 -16t-70 -7q-36 0 -70.5 11t-62 32.5t-44 53.5t-16.5 74v148q0 42 17 74t44.5 53.5t63 32.5t72.5 11q31 0 60.5 -5t58.5 -17v79q0 29 -16.5 49t-39.5 31l-24 -75l-59 19l22 68q-35 1 -69.5 -13t-55.5 -40l-56 51
q40 45 95 64.5t110 14.5l20 63l59 -20zM363 378q-60 23 -121 23q-22 0 -42.5 -6t-37 -17t-26.5 -28.5t-10 -40.5v-154q0 -23 10 -40.5t26 -28.5t36.5 -16.5t42.5 -5.5q35 0 67 7.5t55 16.5v290z" />
    <glyph glyph-name="ntilde" unicode="&#xf1;" horiz-adv-x="519" 
d="M113 613q8 43 36.5 68.5t60.5 25.5q19 0 34.5 -7.5t28.5 -17t23 -17t19 -7.5q8 0 20 6.5t18 29.5l59 -21q-13 -51 -38 -70.5t-53 -19.5q-17 0 -31 8t-26.5 17t-25.5 17t-28 8q-11 0 -23 -11.5t-17 -29.5zM62 485q50 17 101.5 30t100.5 13q37 -1 72 -11.5t62.5 -31.5
t44 -52.5t16.5 -74.5v-358h-79v361q0 24 -10.5 41.5t-27 29t-37 17t-41.5 5.5q-35 0 -67.5 -7.5t-54.5 -15.5v-431h-80v485z" />
    <glyph glyph-name="ograve" unicode="&#xf2;" horiz-adv-x="495" 
d="M231 711l82 -134h-77l-107 134h102zM47 355q0 43 17.5 75.5t45.5 54t64 32.5t74 11q37 0 73 -11t64 -32.5t45 -54t17 -75.5v-192q0 -44 -17 -76t-45 -53.5t-64 -32.5t-73 -11q-38 0 -74 11t-64 32.5t-45.5 53.5t-17.5 76v192zM248 452q-22 0 -43.5 -5.5t-39 -17.5
t-28 -30t-10.5 -42v-195q0 -24 10.5 -42t28 -30t39 -18t43.5 -6q21 0 42 6t38.5 18t28 30t10.5 42v195q0 24 -10.5 42t-28 30t-38.5 17.5t-42 5.5z" />
    <glyph glyph-name="oacute" unicode="&#xf3;" horiz-adv-x="495" 
d="M369 709l-102 -133h-82l85 133h99zM47 355q0 43 17.5 75.5t45.5 54t64 32.5t74 11q37 0 73 -11t64 -32.5t45 -54t17 -75.5v-192q0 -44 -17 -76t-45 -53.5t-64 -32.5t-73 -11q-38 0 -74 11t-64 32.5t-45.5 53.5t-17.5 76v192zM248 452q-22 0 -43.5 -5.5t-39 -17.5t-28 -30
t-10.5 -42v-195q0 -24 10.5 -42t28 -30t39 -18t43.5 -6q21 0 42 6t38.5 18t28 30t10.5 42v195q0 24 -10.5 42t-28 30t-38.5 17.5t-42 5.5z" />
    <glyph glyph-name="ocircumflex" unicode="&#xf4;" horiz-adv-x="495" 
d="M404 576h-95l-61 69l-64 -69h-98l127 133h74zM47 355q0 43 17.5 75.5t45.5 54t64 32.5t74 11q37 0 73 -11t64 -32.5t45 -54t17 -75.5v-192q0 -44 -17 -76t-45 -53.5t-64 -32.5t-73 -11q-38 0 -74 11t-64 32.5t-45.5 53.5t-17.5 76v192zM248 452q-22 0 -43.5 -5.5
t-39 -17.5t-28 -30t-10.5 -42v-195q0 -24 10.5 -42t28 -30t39 -18t43.5 -6q21 0 42 6t38.5 18t28 30t10.5 42v195q0 24 -10.5 42t-28 30t-38.5 17.5t-42 5.5z" />
    <glyph glyph-name="otilde" unicode="&#xf5;" horiz-adv-x="495" 
d="M99 613q8 43 36.5 68.5t60.5 25.5q19 0 34.5 -7.5t28.5 -17t23 -17t19 -7.5q8 0 20 6.5t18 29.5l59 -21q-13 -51 -38 -70.5t-53 -19.5q-17 0 -31 8t-26.5 17t-25.5 17t-28 8q-11 0 -23 -11.5t-17 -29.5zM47 355q0 43 17.5 75.5t45.5 54t64 32.5t74 11q37 0 73 -11
t64 -32.5t45 -54t17 -75.5v-192q0 -44 -17 -76t-45 -53.5t-64 -32.5t-73 -11q-38 0 -74 11t-64 32.5t-45.5 53.5t-17.5 76v192zM248 452q-22 0 -43.5 -5.5t-39 -17.5t-28 -30t-10.5 -42v-195q0 -24 10.5 -42t28 -30t39 -18t43.5 -6q21 0 42 6t38.5 18t28 30t10.5 42v195
q0 24 -10.5 42t-28 30t-38.5 17.5t-42 5.5z" />
    <glyph glyph-name="odieresis" unicode="&#xf6;" horiz-adv-x="495" 
d="M106 642q0 23 15 38t37 15t37 -15t15 -38q0 -22 -15 -37t-37 -15t-37 15t-15 37zM287 642q0 23 14.5 38t37.5 15q22 0 37 -15t15 -38q0 -22 -15 -37t-37 -15q-23 0 -37.5 15t-14.5 37zM47 355q0 43 17.5 75.5t45.5 54t64 32.5t74 11q37 0 73 -11t64 -32.5t45 -54
t17 -75.5v-192q0 -44 -17 -76t-45 -53.5t-64 -32.5t-73 -11q-38 0 -74 11t-64 32.5t-45.5 53.5t-17.5 76v192zM248 452q-22 0 -43.5 -5.5t-39 -17.5t-28 -30t-10.5 -42v-195q0 -24 10.5 -42t28 -30t39 -18t43.5 -6q21 0 42 6t38.5 18t28 30t10.5 42v195q0 24 -10.5 42
t-28 30t-38.5 17.5t-42 5.5z" />
    <glyph glyph-name="divide" unicode="&#xf7;" horiz-adv-x="529" 
d="M203 479q0 26 18 43.5t44 17.5t44 -17.5t18 -43.5t-18 -44t-44 -18t-44 18t-18 44zM484 286h-438v83h438v-83zM208 176q0 26 18 43t44 18q26 0 44 -17.5t18 -43.5t-18 -44t-44 -18t-44 18t-18 44z" />
    <glyph glyph-name="oslash" unicode="&#xf8;" horiz-adv-x="495" 
d="M374 492q32 -22 52.5 -55.5t20.5 -81.5v-192q0 -44 -17 -76t-45 -53.5t-64 -32.5t-73 -11q-38 0 -74 11l-32 -77l-51 22l32 78q-34 22 -55 56.5t-21 82.5v192q0 43 17.5 75.5t45.5 54t64 32.5t74 11t74 -12l28 69l54 -20zM127 164q0 -20 7.5 -35.5t19.5 -26.5l138 340
q-21 6 -44 6q-22 0 -43.5 -5.5t-39 -16.5t-28 -29t-10.5 -42v-191zM367 355q0 19 -6.5 34t-17.5 26l-139 -339q21 -6 44 -6q21 0 42 5.5t38.5 17t28 29.5t10.5 42v191z" />
    <glyph glyph-name="ugrave" unicode="&#xf9;" horiz-adv-x="520" 
d="M232 701l82 -134h-82l-107 134h107zM458 28q-36 -13 -66 -20.5t-55 -11.5t-45 -5t-36 -1q-37 0 -72 11t-62.5 32.5t-44.5 53.5t-17 75v356h80v-357q0 -23 10 -40.5t26.5 -29.5t37 -18.5t42.5 -6.5q35 0 65.5 4t56.5 13v435h80v-490z" />
    <glyph glyph-name="uacute" unicode="&#xfa;" horiz-adv-x="520" 
d="M390 699l-102 -133h-88l85 133h105zM458 28q-36 -13 -66 -20.5t-55 -11.5t-45 -5t-36 -1q-37 0 -72 11t-62.5 32.5t-44.5 53.5t-17 75v356h80v-357q0 -23 10 -40.5t26.5 -29.5t37 -18.5t42.5 -6.5q35 0 65.5 4t56.5 13v435h80v-490z" />
    <glyph glyph-name="ucircumflex" unicode="&#xfb;" horiz-adv-x="520" 
d="M420 566h-95l-61 69l-64 -69h-98l127 133h74zM458 28q-36 -13 -66 -20.5t-55 -11.5t-45 -5t-36 -1q-37 0 -72 11t-62.5 32.5t-44.5 53.5t-17 75v356h80v-357q0 -23 10 -40.5t26.5 -29.5t37 -18.5t42.5 -6.5q35 0 65.5 4t56.5 13v435h80v-490z" />
    <glyph glyph-name="udieresis" unicode="&#xfc;" horiz-adv-x="520" 
d="M117 632q0 23 15 38t37 15t37 -15t15 -38q0 -22 -15 -37t-37 -15t-37 15t-15 37zM298 632q0 23 14.5 38t37.5 15q22 0 37 -15t15 -38q0 -22 -15 -37t-37 -15q-23 0 -37.5 15t-14.5 37zM458 28q-36 -13 -66 -20.5t-55 -11.5t-45 -5t-36 -1q-37 0 -72 11t-62.5 32.5
t-44.5 53.5t-17 75v356h80v-357q0 -23 10 -40.5t26.5 -29.5t37 -18.5t42.5 -6.5q35 0 65.5 4t56.5 13v435h80v-490z" />
    <glyph glyph-name="yacute" unicode="&#xfd;" horiz-adv-x="533" 
d="M396 699l-102 -133h-88l85 133h105zM134 -63q21 -26 56.5 -39t70.5 -13q24 0 47 5t41 16.5t29 30t11 45.5v40q-26 -18 -59 -24.5t-65 -7.5q-39 0 -75.5 11.5t-65.5 34t-46.5 56t-17.5 76.5v350h82v-352q0 -24 10.5 -42t27.5 -30.5t38.5 -19.5t44.5 -7q62 0 126 25v426h80
v-536q0 -45 -17 -78t-45.5 -54.5t-64.5 -32t-75 -10.5q-51 0 -102 20.5t-86 59.5z" />
    <glyph glyph-name="thorn" unicode="&#xfe;" horiz-adv-x="512" 
d="M144 515q29 6 60.5 9.5t62.5 3.5q37 0 72.5 -11t63 -32t44.5 -53.5t17 -75.5v-193q0 -42 -17 -74.5t-45 -54.5t-64 -33t-74 -11q-32 1 -61.5 6.5t-58.5 16.5v-199h-80v883h80v-182zM144 86q58 -23 122 -23q22 0 43.5 6t38 17.5t26.5 29t10 40.5v208q0 23 -10 40t-26 28
t-37.5 16.5t-43.5 5.5q-31 0 -62.5 -2t-60.5 -10v-356z" />
    <glyph glyph-name="ydieresis" unicode="&#xff;" horiz-adv-x="533" 
d="M123 632q0 23 15 38t37 15t37 -15t15 -38q0 -22 -15 -37t-37 -15t-37 15t-15 37zM304 632q0 23 14.5 38t37.5 15q22 0 37 -15t15 -38q0 -22 -15 -37t-37 -15q-23 0 -37.5 15t-14.5 37zM134 -63q21 -26 56.5 -39t70.5 -13q24 0 47 5t41 16.5t29 30t11 45.5v40
q-26 -18 -59 -24.5t-65 -7.5q-39 0 -75.5 11.5t-65.5 34t-46.5 56t-17.5 76.5v350h82v-352q0 -24 10.5 -42t27.5 -30.5t38.5 -19.5t44.5 -7q62 0 126 25v426h80v-536q0 -45 -17 -78t-45.5 -54.5t-64.5 -32t-75 -10.5q-51 0 -102 20.5t-86 59.5z" />
    <glyph glyph-name="Amacron" unicode="&#x100;" horiz-adv-x="619" 
d="M180 851h257v-72h-257v72zM616 0h-88l-82 227h-273q-20 -56 -40.5 -113.5t-39.5 -113.5h-89l254 708h102zM417 311q-15 41 -28 78t-25.5 74t-26 75t-28.5 80q-27 -78 -53 -152.5t-55 -154.5h216z" />
    <glyph glyph-name="amacron" unicode="&#x101;" 
d="M117 671h257v-72h-257v72zM352 361q0 22 -10.5 39.5t-27.5 29.5t-39 18t-45 6q-35 0 -70 -13.5t-58 -42.5l-50 49q36 40 85.5 60.5t98.5 20.5q37 0 72.5 -10.5t63 -31t44 -52t16.5 -73.5v-336q-54 -19 -108 -27.5t-106 -7.5q-39 0 -73 10t-58.5 30t-39 50t-14.5 72
q0 43 16.5 74t43.5 51t62 30t73 10q65 0 124 -25v69zM352 234q-24 8 -54 14t-62 6q-24 0 -46.5 -5.5t-39.5 -17.5t-27.5 -31.5t-10.5 -47.5q0 -50 31 -71.5t77 -22.5q33 -1 66.5 1t65.5 9v166z" />
    <glyph glyph-name="Abreve" unicode="&#x102;" horiz-adv-x="619" 
d="M309 756q-27 0 -50.5 10.5t-41 28.5t-27.5 42.5t-10 51.5h73q0 -25 16.5 -42.5t39.5 -17.5t40 17.5t17 42.5h76q0 -27 -10.5 -51.5t-28.5 -42.5t-42.5 -28.5t-51.5 -10.5zM616 0h-88l-82 227h-273q-20 -56 -40.5 -113.5t-39.5 -113.5h-89l254 708h102zM417 311
q-15 41 -28 78t-25.5 74t-26 75t-28.5 80q-27 -78 -53 -152.5t-55 -154.5h216z" />
    <glyph glyph-name="abreve" unicode="&#x103;" 
d="M246 576q-27 0 -50.5 10.5t-41 28.5t-27.5 42.5t-10 51.5h73q0 -25 16.5 -42.5t39.5 -17.5t40 17.5t17 42.5h76q0 -27 -10.5 -51.5t-28.5 -42.5t-42.5 -28.5t-51.5 -10.5zM352 361q0 22 -10.5 39.5t-27.5 29.5t-39 18t-45 6q-35 0 -70 -13.5t-58 -42.5l-50 49
q36 40 85.5 60.5t98.5 20.5q37 0 72.5 -10.5t63 -31t44 -52t16.5 -73.5v-336q-54 -19 -108 -27.5t-106 -7.5q-39 0 -73 10t-58.5 30t-39 50t-14.5 72q0 43 16.5 74t43.5 51t62 30t73 10q65 0 124 -25v69zM352 234q-24 8 -54 14t-62 6q-24 0 -46.5 -5.5t-39.5 -17.5
t-27.5 -31.5t-10.5 -47.5q0 -50 31 -71.5t77 -22.5q33 -1 66.5 1t65.5 9v166z" />
    <glyph glyph-name="Aogonek" unicode="&#x104;" horiz-adv-x="617" 
d="M638 -211q-32 -22 -63.5 -28t-57 1t-42 25t-19.5 45q-4 42 17.5 85.5t72.5 82.5h-19l-82 227h-273q-20 -56 -40.5 -113.5t-39.5 -113.5h-89l254 708h102l256 -708q-55 -45 -72.5 -83.5t-11.5 -57.5q5 -16 15 -23t22 -7.5t24.5 4t22.5 12.5zM416 311q-15 41 -28 78
t-25.5 74t-26 75t-28.5 80q-27 -78 -53 -152.5t-55 -154.5h216z" />
    <glyph glyph-name="aogonek" unicode="&#x105;" horiz-adv-x="492" 
d="M456 -205q-32 -22 -63.5 -28t-57 1t-42 25t-19.5 45q-3 37 12 77.5t57 85.5q-65 -12 -124 -11q-39 0 -73 12.5t-58.5 35.5t-39 56t-14.5 75q0 46 17.5 78t46.5 52t66 28.5t76 8.5q30 0 59 -8t54 -22v55q0 22 -10.5 39t-27.5 28t-39 16.5t-45 5.5q-35 0 -68 -14t-55 -42
l-55 53q36 40 85.5 60.5t98.5 20.5q37 0 72.5 -10.5t63 -31t44 -52t16.5 -73.5v-336q-33 -29 -51 -54.5t-26.5 -46t-9 -35.5t2.5 -24q5 -16 15 -23t22 -7.5t24.5 4t22.5 12.5zM221 61q33 -1 66.5 1t65.5 9v167q-24 8 -54 14.5t-62 6.5q-24 0 -46.5 -3.5t-39.5 -13.5
t-27.5 -27.5t-10.5 -45.5q0 -50 31 -78.5t77 -29.5z" />
    <glyph glyph-name="Cacute" unicode="&#x106;" horiz-adv-x="596" 
d="M454 896l-102 -133h-88l85 133h105zM53 494q0 55 23 96.5t61 70t86.5 43t99.5 14.5q38 0 75.5 -8.5t70.5 -26.5t60 -44.5t44 -62.5l-75 -36q-25 48 -74.5 72t-103.5 24q-34 0 -67 -9t-58.5 -26.5t-41.5 -44t-16 -60.5v-285q0 -35 16 -60.5t41.5 -42.5t58.5 -25.5t67 -8.5
q55 0 104.5 24t73.5 71l75 -35q-17 -36 -44.5 -63t-61 -45t-71.5 -27t-76 -9q-50 0 -98 14t-85.5 41.5t-60.5 69t-23 96.5v283z" />
    <glyph glyph-name="cacute" unicode="&#x107;" horiz-adv-x="464" 
d="M378 709l-102 -133h-88l85 133h105zM361 396q-14 27 -46.5 39.5t-67.5 12.5q-23 0 -44.5 -5.5t-38 -17t-27 -29t-10.5 -41.5v-194q0 -23 10.5 -40t27 -28.5t38 -17t44.5 -5.5q39 0 74 20t47 62l73 -35q-11 -32 -31.5 -56t-46.5 -40t-56 -23.5t-60 -7.5q-37 0 -73 10.5
t-64 32.5t-45.5 54t-17.5 76v192q0 43 17.5 75.5t45.5 54.5t64 32.5t73 10.5q55 0 106 -25.5t80 -77.5l-65 -39z" />
    <glyph glyph-name="Cdotaccent" unicode="&#x10a;" horiz-adv-x="596" 
d="M265 830q0 24 16.5 40.5t40.5 16.5t40.5 -16.5t16.5 -40.5t-16.5 -40.5t-40.5 -16.5t-40.5 16.5t-16.5 40.5zM53 494q0 55 23 96.5t61 70t86.5 43t99.5 14.5q38 0 75.5 -8.5t70.5 -26.5t60 -44.5t44 -62.5l-75 -36q-25 48 -74.5 72t-103.5 24q-34 0 -67 -9t-58.5 -26.5
t-41.5 -44t-16 -60.5v-285q0 -35 16 -60.5t41.5 -42.5t58.5 -25.5t67 -8.5q55 0 104.5 24t73.5 71l75 -35q-17 -36 -44.5 -63t-61 -45t-71.5 -27t-76 -9q-50 0 -98 14t-85.5 41.5t-60.5 69t-23 96.5v283z" />
    <glyph glyph-name="cdotaccent" unicode="&#x10b;" horiz-adv-x="464" 
d="M189 643q0 24 16.5 40.5t40.5 16.5t40.5 -16.5t16.5 -40.5t-16.5 -40.5t-40.5 -16.5t-40.5 16.5t-16.5 40.5zM361 396q-14 27 -46.5 39.5t-67.5 12.5q-23 0 -44.5 -5.5t-38 -17t-27 -29t-10.5 -41.5v-194q0 -23 10.5 -40t27 -28.5t38 -17t44.5 -5.5q39 0 74 20t47 62
l73 -35q-11 -32 -31.5 -56t-46.5 -40t-56 -23.5t-60 -7.5q-37 0 -73 10.5t-64 32.5t-45.5 54t-17.5 76v192q0 43 17.5 75.5t45.5 54.5t64 32.5t73 10.5q55 0 106 -25.5t80 -77.5l-65 -39z" />
    <glyph glyph-name="Ccaron" unicode="&#x10c;" horiz-adv-x="596" 
d="M155 896h99l69 -66l65 66h101l-128 -133h-78zM53 494q0 55 23 96.5t61 70t86.5 43t99.5 14.5q38 0 75.5 -8.5t70.5 -26.5t60 -44.5t44 -62.5l-75 -36q-25 48 -74.5 72t-103.5 24q-34 0 -67 -9t-58.5 -26.5t-41.5 -44t-16 -60.5v-285q0 -35 16 -60.5t41.5 -42.5
t58.5 -25.5t67 -8.5q55 0 104.5 24t73.5 71l75 -35q-17 -36 -44.5 -63t-61 -45t-71.5 -27t-76 -9q-50 0 -98 14t-85.5 41.5t-60.5 69t-23 96.5v283z" />
    <glyph glyph-name="ccaron" unicode="&#x10d;" horiz-adv-x="464" 
d="M79 709h99l69 -66l65 66h101l-128 -133h-78zM361 396q-14 27 -46.5 39.5t-67.5 12.5q-23 0 -44.5 -5.5t-38 -17t-27 -29t-10.5 -41.5v-194q0 -23 10.5 -40t27 -28.5t38 -17t44.5 -5.5q39 0 74 20t47 62l73 -35q-11 -32 -31.5 -56t-46.5 -40t-56 -23.5t-60 -7.5
q-37 0 -73 10.5t-64 32.5t-45.5 54t-17.5 76v192q0 43 17.5 75.5t45.5 54.5t64 32.5t73 10.5q55 0 106 -25.5t80 -77.5l-65 -39z" />
    <glyph glyph-name="Dcaron" unicode="&#x10e;" horiz-adv-x="638" 
d="M146 889h99l69 -66l65 66h101l-128 -133h-78zM314 708q51 0 99 -12t86 -38t61 -66.5t23 -96.5v-283q0 -56 -23 -96t-61 -66t-86 -38t-99 -12h-240v708h240zM314 84q35 0 68 7t59 22.5t42 39.5t16 59v283q0 35 -16 59.5t-42 40t-59 22.5t-68 7h-156v-540h156z" />
    <glyph glyph-name="dcaron" unicode="&#x10f;" horiz-adv-x="521" 
d="M449 27q-51 -17 -102 -27t-101 -10q-37 1 -72.5 11.5t-63.5 32t-45 53.5t-17 75v192q0 42 17 74.5t45.5 54t64 33t73.5 11.5q33 0 63 -5.5t58 -26.5v205h80v-673zM543 534h-58l20 166h75zM246 64q30 0 62 3t61 12v344q-60 31 -121 31q-23 0 -44.5 -7t-38 -20t-26.5 -31.5
t-10 -41.5v-191q0 -23 10 -41.5t26.5 -31t37.5 -19.5t43 -7z" />
    <glyph glyph-name="Dcroat" unicode="&#x110;" horiz-adv-x="642" 
d="M78 708h241q50 0 98.5 -12t86 -38t60.5 -66.5t23 -96.5v-283q0 -56 -23 -96t-60.5 -66t-86 -38t-98.5 -12h-241v311h-60v78h60v319zM319 84q34 0 67.5 7t59.5 22.5t42 39.5t16 59v283q0 35 -16 59.5t-42 40t-59.5 22.5t-67.5 7h-157v-235h120v-78h-120v-227h157z" />
    <glyph glyph-name="dcroat" unicode="&#x111;" horiz-adv-x="511" 
d="M449 587v-560q-51 -17 -102 -27t-101 -10q-37 1 -72.5 11.5t-63.5 32t-45 53.5t-17 75v192q0 42 17 74.5t45.5 54t64 33t73.5 11.5q33 0 63 -5.5t58 -26.5v92h-104v50h104v63h80v-63h55v-50h-55zM369 423q-60 31 -121 31q-23 0 -44.5 -7t-38 -20t-26.5 -31.5t-10 -41.5
v-191q0 -23 10 -41.5t26.5 -31t37.5 -19.5t43 -7q30 0 62 3t61 12v344z" />
    <glyph glyph-name="Emacron" unicode="&#x112;" horiz-adv-x="571" 
d="M172 853h257v-72h-257v72zM158 396h341v-84h-341v-228h370v-84h-454v708h454v-84h-370v-228z" />
    <glyph glyph-name="emacron" unicode="&#x113;" 
d="M120 671h257v-72h-257v72zM129 156q0 -24 10 -41t27 -28.5t38.5 -17t44.5 -5.5q35 0 68.5 17t49.5 53l70 -30q-14 -29 -34.5 -50t-45 -35.5t-52.5 -21.5t-56 -7q-38 0 -74 10.5t-64 32t-45.5 54t-17.5 75.5v194q0 43 17.5 75.5t45.5 54t64 32t74 10.5q37 0 72.5 -10.5
t63.5 -32t45 -54t17 -75.5v-137h-318v-63zM371 360q0 23 -11 40.5t-28 29.5t-39 18.5t-44 6.5q-25 0 -47 -6.5t-38.5 -18.5t-25.5 -30t-9 -42v-72h242v74z" />
    <glyph glyph-name="Edotaccent" unicode="&#x116;" horiz-adv-x="571" 
d="M243 825q0 24 16.5 40.5t40.5 16.5t40.5 -16.5t16.5 -40.5t-16.5 -40.5t-40.5 -16.5t-40.5 16.5t-16.5 40.5zM158 396h341v-84h-341v-228h370v-84h-454v708h454v-84h-370v-228z" />
    <glyph glyph-name="edotaccent" unicode="&#x117;" 
d="M191 643q0 24 16.5 40.5t40.5 16.5t40.5 -16.5t16.5 -40.5t-16.5 -40.5t-40.5 -16.5t-40.5 16.5t-16.5 40.5zM129 156q0 -24 10 -41t27 -28.5t38.5 -17t44.5 -5.5q35 0 68.5 17t49.5 53l70 -30q-14 -29 -34.5 -50t-45 -35.5t-52.5 -21.5t-56 -7q-38 0 -74 10.5t-64 32
t-45.5 54t-17.5 75.5v194q0 43 17.5 75.5t45.5 54t64 32t74 10.5q37 0 72.5 -10.5t63.5 -32t45 -54t17 -75.5v-137h-318v-63zM371 360q0 23 -11 40.5t-28 29.5t-39 18.5t-44 6.5q-25 0 -47 -6.5t-38.5 -18.5t-25.5 -30t-9 -42v-72h242v74z" />
    <glyph glyph-name="Eogonek" unicode="&#x118;" horiz-adv-x="570" 
d="M551 -211q-32 -22 -63.5 -28t-57 1t-42 25t-19.5 45q-4 42 18 85.5t73 82.5h-387v708h454v-84h-370v-228h341v-84h-341v-228h370v-84q-26 -22 -43.5 -43.5t-27 -40.5t-12.5 -33.5t0 -23.5q5 -16 15 -23t22 -7.5t24.5 4t22.5 12.5z" />
    <glyph glyph-name="eogonek" unicode="&#x119;" horiz-adv-x="487" 
d="M128 156q0 -24 10 -41t27 -28.5t38.5 -17t44.5 -5.5q35 0 68.5 17t49.5 53l72 -30q-20 -41 -53 -67q-33 -30 -51.5 -57t-26.5 -48.5t-8.5 -37.5t2.5 -25q5 -16 15 -23t22 -7.5t24.5 4t22.5 12.5l23 -56q-32 -22 -63.5 -28t-57 1t-42 25t-19.5 45q-3 35 9.5 74t48.5 77
q-18 -3 -36 -3q-38 0 -74 10.5t-64 32t-45.5 54t-17.5 75.5v194q0 43 17.5 75.5t45.5 54t64 32t74 10.5q37 0 72.5 -10.5t63.5 -32t45 -54t17 -75.5v-137h-318v-63zM370 358q0 23 -11 40t-28 28t-39 16.5t-44 5.5q-23 0 -44.5 -5.5t-38.5 -17t-27 -28.5t-10 -41v-70h242v72z
" />
    <glyph glyph-name="Ecaron" unicode="&#x11a;" horiz-adv-x="571" 
d="M133 891h99l69 -66l65 66h101l-128 -133h-78zM158 396h341v-84h-341v-228h370v-84h-454v708h454v-84h-370v-228z" />
    <glyph glyph-name="ecaron" unicode="&#x11b;" 
d="M81 709h99l69 -66l65 66h101l-128 -133h-78zM129 156q0 -24 10 -41t27 -28.5t38.5 -17t44.5 -5.5q35 0 68.5 17t49.5 53l70 -30q-14 -29 -34.5 -50t-45 -35.5t-52.5 -21.5t-56 -7q-38 0 -74 10.5t-64 32t-45.5 54t-17.5 75.5v194q0 43 17.5 75.5t45.5 54t64 32t74 10.5
q37 0 72.5 -10.5t63.5 -32t45 -54t17 -75.5v-137h-318v-63zM371 360q0 23 -11 40.5t-28 29.5t-39 18.5t-44 6.5q-25 0 -47 -6.5t-38.5 -18.5t-25.5 -30t-9 -42v-72h242v74z" />
    <glyph glyph-name="Gbreve" unicode="&#x11e;" horiz-adv-x="632" 
d="M321 756q-27 0 -50.5 10.5t-41 28.5t-27.5 42.5t-10 51.5h73q0 -25 16.5 -42.5t39.5 -17.5t40 17.5t17 42.5h76q0 -27 -10.5 -51.5t-28.5 -42.5t-42.5 -28.5t-51.5 -10.5zM53 497q0 55 23 96t60.5 69t86 42t98.5 14q38 0 75.5 -9t70.5 -27t60 -45t44 -63l-76 -34
q-12 24 -31 42t-42 30t-49.5 18t-53.5 6q-34 0 -67 -8.5t-58.5 -25.5t-41.5 -43t-16 -60v-285q0 -35 16 -61.5t42 -44t59 -26t68 -8.5q34 0 67.5 8.5t60 26t42.5 44t16 61.5v71h-209v83h292v-154q0 -56 -23 -98t-61 -70t-86 -42t-99 -14t-99 14t-85.5 42t-60.5 70t-23 98
v283z" />
    <glyph glyph-name="gbreve" unicode="&#x11f;" horiz-adv-x="506" 
d="M263 576q-27 0 -50.5 10.5t-41 28.5t-27.5 42.5t-10 51.5h73q0 -25 16.5 -42.5t39.5 -17.5t40 17.5t17 42.5h76q0 -27 -10.5 -51.5t-28.5 -42.5t-42.5 -28.5t-51.5 -10.5zM115 -68q8 -11 22.5 -20t32 -16t36 -11t35.5 -4q23 0 45.5 4t40 14.5t28 28.5t10.5 46v43
q-29 -15 -58.5 -21t-59.5 -6q-38 0 -73.5 11t-63.5 32.5t-45 54t-17 74.5v196q0 42 16.5 74t44 53.5t62.5 32t72 10.5q26 0 49.5 -2t47.5 -6.5t49 -12.5t55 -20v-513q0 -44 -17 -75.5t-44.5 -51.5t-62.5 -30t-72 -10q-51 0 -99 19t-83 57zM365 434q-31 12 -59 16.5t-63 4.5
q-22 0 -42.5 -7t-37 -19.5t-26 -31t-9.5 -41.5v-198q0 -45 34.5 -71t82.5 -26q34 0 62 5.5t58 16.5v351z" />
    <glyph glyph-name="Gdotaccent" unicode="&#x120;" horiz-adv-x="632" 
d="M263 823q0 24 16.5 40.5t40.5 16.5t40.5 -16.5t16.5 -40.5t-16.5 -40.5t-40.5 -16.5t-40.5 16.5t-16.5 40.5zM53 497q0 55 23 96t60.5 69t86 42t98.5 14q38 0 75.5 -9t70.5 -27t60 -45t44 -63l-76 -34q-12 24 -31 42t-42 30t-49.5 18t-53.5 6q-34 0 -67 -8.5t-58.5 -25.5
t-41.5 -43t-16 -60v-285q0 -35 16 -61.5t42 -44t59 -26t68 -8.5q34 0 67.5 8.5t60 26t42.5 44t16 61.5v71h-209v83h292v-154q0 -56 -23 -98t-61 -70t-86 -42t-99 -14t-99 14t-85.5 42t-60.5 70t-23 98v283z" />
    <glyph glyph-name="gdotaccent" unicode="&#x121;" horiz-adv-x="506" 
d="M205 643q0 24 16.5 40.5t40.5 16.5t40.5 -16.5t16.5 -40.5t-16.5 -40.5t-40.5 -16.5t-40.5 16.5t-16.5 40.5zM115 -68q8 -11 22.5 -20t32 -16t36 -11t35.5 -4q23 0 45.5 4t40 14.5t28 28.5t10.5 46v43q-29 -15 -58.5 -21t-59.5 -6q-38 0 -73.5 11t-63.5 32.5t-45 54
t-17 74.5v196q0 42 16.5 74t44 53.5t62.5 32t72 10.5q26 0 49.5 -2t47.5 -6.5t49 -12.5t55 -20v-513q0 -44 -17 -75.5t-44.5 -51.5t-62.5 -30t-72 -10q-51 0 -99 19t-83 57zM365 434q-31 12 -59 16.5t-63 4.5q-22 0 -42.5 -7t-37 -19.5t-26 -31t-9.5 -41.5v-198
q0 -45 34.5 -71t82.5 -26q34 0 62 5.5t58 16.5v351z" />
    <glyph glyph-name="Gcommaaccent" unicode="&#x122;" horiz-adv-x="632" 
d="M53 497q0 55 23 96t60.5 69t86 42t98.5 14q38 0 75.5 -9t70.5 -27t60 -45t44 -63l-76 -34q-12 24 -31 42t-42 30t-49.5 18t-53.5 6q-34 0 -67 -8.5t-58.5 -25.5t-41.5 -43t-16 -60v-285q0 -35 16 -61.5t42 -44t59 -26t68 -8.5q34 0 67.5 8.5t60 26t42.5 44t16 61.5v71
h-209v83h292v-154q0 -56 -23 -98t-61 -70t-86 -42t-99 -14t-99 14t-85.5 42t-60.5 70t-23 98v283zM314 -254h-74l50 166h87z" />
    <glyph glyph-name="gcommaaccent" unicode="&#x123;" horiz-adv-x="506" 
d="M246 708h82l-33 -121h-94zM115 -68q8 -11 22.5 -20t32 -16t36 -11t35.5 -4q23 0 45.5 4t40 14.5t28 28.5t10.5 46v43q-29 -15 -58.5 -21t-59.5 -6q-38 0 -73.5 11t-63.5 32.5t-45 54t-17 74.5v196q0 42 16.5 74t44 53.5t62.5 32t72 10.5q26 0 49.5 -2t47.5 -6.5t49 -12.5
t55 -20v-513q0 -44 -17 -75.5t-44.5 -51.5t-62.5 -30t-72 -10q-51 0 -99 19t-83 57zM365 434q-31 12 -59 16.5t-63 4.5q-22 0 -42.5 -7t-37 -19.5t-26 -31t-9.5 -41.5v-198q0 -45 34.5 -71t82.5 -26q34 0 62 5.5t58 16.5v351z" />
    <glyph glyph-name="Hbar" unicode="&#x126;" horiz-adv-x="702" 
d="M620 0h-84v312h-370v-312h-84v528h-68v65h68v115h84v-115h370v115h84v-115h68v-65h-68v-528zM166 395h370v133h-370v-133z" />
    <glyph glyph-name="hbar" unicode="&#x127;" horiz-adv-x="522" 
d="M263 528q37 1 73 -10t64 -33t45 -54.5t17 -74.5v-356h-79v357q0 23 -10.5 40t-27 28t-38 17t-43.5 6q-31 0 -60.5 -5t-59.5 -17v-426h-80v585h-55v50h55v63h80v-63h107v-50h-107v-87q25 14 57 22t62 8z" />
    <glyph glyph-name="Imacron" unicode="&#x12a;" horiz-adv-x="231" 
d="M-13 850h257v-72h-257v72zM157 0h-83v708h83v-708z" />
    <glyph glyph-name="imacron" unicode="&#x12b;" horiz-adv-x="212" 
d="M-4 657h218v-72h-218v72zM148 0h-84v518h84v-518z" />
    <glyph glyph-name="Iogonek" unicode="&#x12e;" horiz-adv-x="231" 
d="M200 -211q-32 -22 -63.5 -28t-57 1t-42 25t-19.5 45q-4 42 11 83.5t60 84.5h-15v708h83v-708h-1q-23 -24 -37 -46t-20.5 -40t-7.5 -32t2 -23q5 -16 15 -23t22 -7.5t24.5 4t22.5 12.5z" />
    <glyph glyph-name="iogonek" unicode="&#x12f;" horiz-adv-x="212" 
d="M105 594q-26 0 -44 18t-18 44t18 44t44 18t44 -18t18 -44t-18 -44t-44 -18zM193 -211q-32 -22 -63.5 -28t-57 1t-42 25t-19.5 45q-4 42 11 80.5t60 87.5h-18v518h84v-518q-25 -26 -38.5 -47.5t-19.5 -39.5t-6.5 -31.5t2.5 -22.5q5 -16 15 -23t22 -7.5t24.5 4t22.5 12.5z
" />
    <glyph glyph-name="Idotaccent" unicode="&#x130;" horiz-adv-x="231" 
d="M58 822q0 24 16.5 40.5t40.5 16.5t40.5 -16.5t16.5 -40.5t-16.5 -40.5t-40.5 -16.5t-40.5 16.5t-16.5 40.5zM157 0h-83v708h83v-708z" />
    <glyph glyph-name="dotlessi" unicode="&#x131;" horiz-adv-x="212" 
d="M148 0h-84v518h84v-518z" />
    <glyph glyph-name="IJ" unicode="&#x132;" horiz-adv-x="826" 
d="M157 0h-83v708h83v-708zM757 708v-498q0 -54 -22 -95.5t-58 -69t-82.5 -41.5t-94.5 -14q-43 0 -84.5 12t-76.5 36t-60 60.5t-34 84.5l83 17q6 -31 22.5 -54.5t40 -39.5t52 -24t57.5 -8q32 0 63 8.5t55.5 26t39.5 43.5t15 61v411h-227v84h311z" />
    <glyph glyph-name="ij" unicode="&#x133;" horiz-adv-x="416" 
d="M46 662q0 24 16.5 40t39.5 16q24 0 40 -16t16 -40q0 -23 -16 -39.5t-40 -16.5q-23 0 -39.5 16.5t-16.5 39.5zM144 518v-518h-80v518h80zM255 662q0 24 16.5 40t39.5 16q24 0 40 -16t16 -40q0 -23 -16 -39.5t-40 -16.5q-23 0 -39.5 16.5t-16.5 39.5zM176 -98q50 0 73 23
t23 66v527h80v-527q0 -80 -45.5 -124.5t-130.5 -44.5v80z" />
    <glyph glyph-name="Kcommaaccent" unicode="&#x136;" horiz-adv-x="630" 
d="M520 708h111l-341 -341q39 -42 82 -89.5t87 -95.5t87 -94.5t81 -87.5h-109l-288 307l-72 -72v-235h-84v708h84v-356zM310 -254h-74l50 166h87z" />
    <glyph glyph-name="kcommaaccent" unicode="&#x137;" horiz-adv-x="497" 
d="M384 518h104l-234 -236l229 -282h-101l-184 225l-54 -54v-171h-80v698h80v-420zM235 -254h-74l50 166h87z" />
    <glyph glyph-name="Lacute" unicode="&#x139;" horiz-adv-x="512" 
d="M254 889l-102 -133h-88l85 133h105zM74 708h84v-624h340v-84h-424v708z" />
    <glyph glyph-name="lacute" unicode="&#x13a;" horiz-adv-x="243" 
d="M250 889l-102 -133h-88l85 133h105zM236 -10q-85 0 -130.5 44.5t-45.5 124.5v540h80v-540q0 -43 23 -66t73 -23v-80z" />
    <glyph glyph-name="Lcommaaccent" unicode="&#x13b;" horiz-adv-x="512" 
d="M74 708h84v-624h340v-84h-424v708zM279 -254h-74l50 166h87z" />
    <glyph glyph-name="lcommaaccent" unicode="&#x13c;" horiz-adv-x="243" 
d="M236 -10q-85 0 -130.5 44.5t-45.5 124.5v540h80v-540q0 -43 23 -66t73 -23v-80zM141 -254h-74l50 166h87z" />
    <glyph glyph-name="Lcaron" unicode="&#x13d;" horiz-adv-x="514" 
d="M74 708h84v-624h340v-84h-424v708zM394 542h-82l50 166h95z" />
    <glyph glyph-name="lcaron" unicode="&#x13e;" horiz-adv-x="253" 
d="M236 -10q-85 0 -130.5 44.5t-45.5 124.5v540h80v-540q0 -43 23 -66t73 -23v-80zM251 527h-68l50 166h81z" />
    <glyph glyph-name="Ldot" unicode="&#x13f;" horiz-adv-x="518" 
d="M74 708h84v-624h340v-84h-424v708zM285 367q0 25 16.5 42t42.5 17q25 0 41.5 -17t16.5 -42t-16.5 -42t-41.5 -17q-26 0 -42.5 17t-16.5 42z" />
    <glyph glyph-name="ldot" unicode="&#x140;" horiz-adv-x="288" 
d="M236 -10q-85 0 -130.5 44.5t-45.5 124.5v540h80v-540q0 -43 23 -66t73 -23v-80zM188 367q0 25 16.5 42t42.5 17q25 0 41.5 -17t16.5 -42t-16.5 -42t-41.5 -17q-26 0 -42.5 17t-16.5 42z" />
    <glyph glyph-name="Lslash" unicode="&#x141;" horiz-adv-x="524" 
d="M495 0h-408v260l-64 -27l-25 63l89 38v374h85v-338l118 50l24 -63l-142 -61v-211h323v-85z" />
    <glyph glyph-name="lslash" unicode="&#x142;" horiz-adv-x="267" 
d="M158 168q0 -43 23.5 -66t73.5 -23v-80q-85 0 -130.5 44.5t-45.5 124.5v142l-51 -22l-25 63l76 32v322h79v-289l72 31l24 -63l-96 -41v-175z" />
    <glyph glyph-name="Nacute" unicode="&#x143;" horiz-adv-x="686" 
d="M474 889l-102 -133h-88l85 133h105zM528 708h84v-708h-106l-348 561v-561h-84v708h90l364 -585v585z" />
    <glyph glyph-name="nacute" unicode="&#x144;" horiz-adv-x="519" 
d="M389 709l-102 -133h-88l85 133h105zM62 485q50 17 101.5 30t100.5 13q37 -1 72 -11.5t62.5 -31.5t44 -52.5t16.5 -74.5v-358h-79v361q0 24 -10.5 41.5t-27 29t-37 17t-41.5 5.5q-35 0 -67.5 -7.5t-54.5 -15.5v-431h-80v485z" />
    <glyph glyph-name="Ncommaaccent" unicode="&#x145;" horiz-adv-x="686" 
d="M528 708h84v-708h-106l-348 561v-561h-84v708h90l364 -585v585zM336 -254h-74l50 166h87z" />
    <glyph glyph-name="ncommaaccent" unicode="&#x146;" horiz-adv-x="519" 
d="M62 485q50 17 101.5 30t100.5 13q37 -1 72 -11.5t62.5 -31.5t44 -52.5t16.5 -74.5v-358h-79v361q0 24 -10.5 41.5t-27 29t-37 17t-41.5 5.5q-35 0 -67.5 -7.5t-54.5 -15.5v-431h-80v485zM254 -254h-74l50 166h87z" />
    <glyph glyph-name="Ncaron" unicode="&#x147;" horiz-adv-x="686" 
d="M175 889h99l69 -66l65 66h101l-128 -133h-78zM528 708h84v-708h-106l-348 561v-561h-84v708h90l364 -585v585z" />
    <glyph glyph-name="ncaron" unicode="&#x148;" horiz-adv-x="519" 
d="M90 709h99l69 -66l65 66h101l-128 -133h-78zM62 485q50 17 101.5 30t100.5 13q37 -1 72 -11.5t62.5 -31.5t44 -52.5t16.5 -74.5v-358h-79v361q0 24 -10.5 41.5t-27 29t-37 17t-41.5 5.5q-35 0 -67.5 -7.5t-54.5 -15.5v-431h-80v485z" />
    <glyph glyph-name="Eng" unicode="&#x14a;" horiz-adv-x="685" 
d="M611 -9q0 -80 -45.5 -124.5t-130.5 -44.5v80q50 0 73 23t23 66v9l-374 561v-561h-84v708h90l290 -444q22 -35 43.5 -71.5t41.5 -75.5q-5 40 -7.5 80t-3.5 82v429h84v-717z" />
    <glyph glyph-name="eng" unicode="&#x14b;" horiz-adv-x="517" 
d="M262 528q37 -1 72 -11.5t62.5 -31.5t44 -52.5t16.5 -74.5v-367q0 -80 -45 -124.5t-130 -44.5v80q50 0 73 23t23 66v367q0 24 -10.5 41.5t-27 29t-37 17t-41.5 5.5q-35 0 -67.5 -7.5t-54.5 -15.5v-428h-80v485q50 17 101.5 30t100.5 13z" />
    <glyph glyph-name="Omacron" unicode="&#x14c;" horiz-adv-x="673" 
d="M207 851h257v-72h-257v72zM53 496q0 55 24 97t64 69.5t91 41.5t104 14t104 -14t90.5 -41.5t64 -69.5t24.5 -97v-283q0 -56 -24.5 -97.5t-64 -69.5t-90.5 -42t-104 -14t-104 14t-91 42t-64 69.5t-24 97.5v283zM136 214q0 -35 17 -61t45 -43.5t64 -26.5t74 -9q37 0 73 9
t64.5 26.5t45.5 43.5t17 61v282q0 37 -17.5 63.5t-45.5 43.5t-64.5 25t-73.5 8q-38 0 -73.5 -8.5t-63.5 -26t-45 -43.5t-17 -62v-282z" />
    <glyph glyph-name="omacron" unicode="&#x14d;" horiz-adv-x="495" 
d="M118 671h252v-69h-252v69zM47 355q0 43 17.5 75.5t45.5 54t64 32.5t74 11q37 0 73 -11t64 -32.5t45 -54t17 -75.5v-192q0 -44 -17 -76t-45 -53.5t-64 -32.5t-73 -11q-38 0 -74 11t-64 32.5t-45.5 53.5t-17.5 76v192zM248 452q-22 0 -43.5 -5.5t-39 -17.5t-28 -30
t-10.5 -42v-195q0 -24 10.5 -42t28 -30t39 -18t43.5 -6q21 0 42 6t38.5 18t28 30t10.5 42v195q0 24 -10.5 42t-28 30t-38.5 17.5t-42 5.5z" />
    <glyph glyph-name="Ohungarumlaut" unicode="&#x150;" horiz-adv-x="673" 
d="M284 756h-75l61 125h98zM434 756h-75l67 125h101zM53 496q0 55 24 97t64 69.5t91 41.5t104 14t104 -14t90.5 -41.5t64 -69.5t24.5 -97v-283q0 -56 -24.5 -97.5t-64 -69.5t-90.5 -42t-104 -14t-104 14t-91 42t-64 69.5t-24 97.5v283zM136 214q0 -35 17 -61t45 -43.5
t64 -26.5t74 -9q37 0 73 9t64.5 26.5t45.5 43.5t17 61v282q0 37 -17.5 63.5t-45.5 43.5t-64.5 25t-73.5 8q-38 0 -73.5 -8.5t-63.5 -26t-45 -43.5t-17 -62v-282z" />
    <glyph glyph-name="ohungarumlaut" unicode="&#x151;" horiz-adv-x="495" 
d="M205 576h-75l61 125h98zM355 576h-75l67 125h101zM47 355q0 43 17.5 75.5t45.5 54t64 32.5t74 11q37 0 73 -11t64 -32.5t45 -54t17 -75.5v-192q0 -44 -17 -76t-45 -53.5t-64 -32.5t-73 -11q-38 0 -74 11t-64 32.5t-45.5 53.5t-17.5 76v192zM248 452q-22 0 -43.5 -5.5
t-39 -17.5t-28 -30t-10.5 -42v-195q0 -24 10.5 -42t28 -30t39 -18t43.5 -6q21 0 42 6t38.5 18t28 30t10.5 42v195q0 24 -10.5 42t-28 30t-38.5 17.5t-42 5.5z" />
    <glyph glyph-name="OE" unicode="&#x152;" horiz-adv-x="901" 
d="M528 394h300v-83h-300v-227h330v-84h-413v35q-8 -13 -22 -22t-31 -14t-35.5 -7t-36.5 -2q-53 1 -101 15.5t-84.5 42t-58.5 69t-22 96.5v282q0 55 22.5 97t60 69.5t86 42t101.5 14.5q16 0 34 -3t35 -8t30.5 -13t21.5 -17v31h413v-84h-330v-230zM325 74q32 0 63 6t57 18
v515q-26 11 -57 16.5t-63 4.5q-37 0 -71 -8t-60 -25t-41.5 -43.5t-15.5 -62.5v-282q0 -35 15.5 -61.5t41.5 -43.5t60 -25.5t71 -8.5z" />
    <glyph glyph-name="oe" unicode="&#x153;" horiz-adv-x="804" 
d="M48 355q0 43 17 75.5t45 54t63.5 32t72.5 10.5q24 0 47.5 -5t44.5 -16t38 -28t28 -40q12 25 30.5 42t39.5 27.5t44 15.5t46 5q37 0 72.5 -11t63.5 -32.5t45.5 -53.5t17.5 -75v-132h-319v-59q0 -24 10.5 -41.5t28 -29t39 -17t42.5 -5.5q36 0 69 17.5t49 52.5l72 -35
q-27 -58 -80 -86t-110 -29q-46 0 -90 17t-70 56q-26 -40 -69 -55.5t-89 -16.5q-37 0 -72.5 11t-63.5 32t-45 53t-17 76v190zM683 357q0 23 -10.5 40.5t-27 29t-38 17t-43.5 5.5t-43.5 -5.5t-38.5 -17t-27.5 -29.5t-10.5 -42v-63h239v65zM246 447q-21 0 -42.5 -5.5
t-38.5 -16.5t-27.5 -28.5t-10.5 -41.5v-190q0 -24 10.5 -41.5t27.5 -28.5t38.5 -16.5t42.5 -5.5t42.5 5.5t38 17t27 28.5t10.5 41v191q0 24 -10.5 41t-27.5 28t-38 16.5t-42 5.5z" />
    <glyph glyph-name="Racute" unicode="&#x154;" horiz-adv-x="619" 
d="M432 889l-102 -133h-88l85 133h105zM267 289h-109v-289h-84v708h270q51 0 95 -12t76 -37.5t51 -65.5t20 -97q0 -53 -16.5 -91t-45.5 -62.5t-68.5 -37.5t-84.5 -15l228 -290h-103zM345 367q36 0 65 6.5t49.5 21.5t31.5 40t11 61q0 37 -11.5 61.5t-32.5 39.5t-50 21t-63 6
h-187v-257h187z" />
    <glyph glyph-name="racute" unicode="&#x155;" horiz-adv-x="313" 
d="M312 709l-102 -133h-88l85 133h105zM299 444q-10 3 -20.5 3.5t-21.5 0.5q-24 0 -45 -6t-37 -18t-25.5 -29.5t-9.5 -39.5v-355h-80v355q0 44 17.5 76.5t45.5 53.5t62.5 32t68.5 11q11 0 22.5 -1t22.5 -3v-80z" />
    <glyph glyph-name="Rcommaaccent" unicode="&#x156;" horiz-adv-x="619" 
d="M267 289h-109v-289h-84v708h270q51 0 95 -12t76 -37.5t51 -65.5t20 -97q0 -53 -16.5 -91t-45.5 -62.5t-68.5 -37.5t-84.5 -15l228 -290h-103zM345 367q36 0 65 6.5t49.5 21.5t31.5 40t11 61q0 37 -11.5 61.5t-32.5 39.5t-50 21t-63 6h-187v-257h187zM330 -254h-74l50 166
h87z" />
    <glyph glyph-name="rcommaaccent" unicode="&#x157;" horiz-adv-x="313" 
d="M299 444q-10 3 -20.5 3.5t-21.5 0.5q-24 0 -45 -6t-37 -18t-25.5 -29.5t-9.5 -39.5v-355h-80v355q0 44 17.5 76.5t45.5 53.5t62.5 32t68.5 11q11 0 22.5 -1t22.5 -3v-80zM87 -251h-71l48 160h83z" />
    <glyph glyph-name="Rcaron" unicode="&#x158;" horiz-adv-x="619" 
d="M133 889h99l69 -66l65 66h101l-128 -133h-78zM267 289h-109v-289h-84v708h270q51 0 95 -12t76 -37.5t51 -65.5t20 -97q0 -53 -16.5 -91t-45.5 -62.5t-68.5 -37.5t-84.5 -15l228 -290h-103zM345 367q36 0 65 6.5t49.5 21.5t31.5 40t11 61q0 37 -11.5 61.5t-32.5 39.5
t-50 21t-63 6h-187v-257h187z" />
    <glyph glyph-name="rcaron" unicode="&#x159;" horiz-adv-x="312" 
d="M12 709h99l69 -66l65 66h101l-128 -133h-78zM298 444q-10 3 -20.5 3.5t-21.5 0.5q-24 0 -45 -6t-37 -18t-25.5 -29.5t-9.5 -39.5v-355h-80v355q0 44 17.5 76.5t45.5 53.5t62.5 32t68.5 11q11 0 22.5 -1t22.5 -3v-80z" />
    <glyph glyph-name="Sacute" unicode="&#x15a;" horiz-adv-x="593" 
d="M426 889l-102 -133h-88l85 133h105zM129 525q-2 -32 11.5 -51.5t38 -32t56.5 -19.5t67 -14q46 -9 92 -20.5t82 -35t57 -63.5t18 -105q-3 -49 -25.5 -85.5t-58.5 -60.5t-81 -36t-92 -12q-40 0 -80 9.5t-75 28.5t-63.5 47.5t-44.5 66.5l77 35q11 -26 31 -45t45.5 -32.5
t54 -20t57.5 -6.5q31 0 61 7t54 21.5t39 36t17 50.5q3 38 -11 62t-40.5 39t-61.5 23.5t-72 16.5q-43 9 -85 21t-75.5 34t-54.5 56.5t-21 87.5q3 46 25 81.5t56.5 59.5t78 36.5t89.5 12.5q39 0 78.5 -9t74 -27.5t62.5 -46.5t44 -65l-76 -34q-11 25 -30.5 43.5t-44 31.5
t-52.5 19.5t-56 6.5q-31 0 -60 -7t-52 -21t-37.5 -35t-16.5 -49z" />
    <glyph glyph-name="sacute" unicode="&#x15b;" horiz-adv-x="443" 
d="M357 709l-102 -133h-88l85 133h105zM88 139q26 -39 67 -57t81 -18q18 0 35 5t31 15t22 25t8 35q0 21 -9.5 34.5t-24.5 22.5t-33 14t-36 8h1q-32 6 -64.5 15t-58.5 26.5t-42.5 44.5t-16.5 69q0 41 17.5 69.5t44.5 46.5t60.5 26t65.5 8q41 0 82.5 -15t73.5 -47l-52 -61
q-48 49 -104 49q-17 0 -36 -3.5t-35.5 -12.5t-27 -23.5t-10.5 -36.5q0 -20 12 -33.5t30 -22.5t38 -14t37 -8q30 -6 60 -17t53.5 -29.5t38.5 -46.5t15 -67t-15 -67t-39.5 -46.5t-56 -27.5t-64.5 -9q-61 0 -115.5 24t-92.5 84z" />
    <glyph glyph-name="Scedilla" unicode="&#x15e;" horiz-adv-x="593" 
d="M302 408q46 -9 92 -20.5t82 -35t57 -63.5t18 -105q-2 -45 -22 -79.5t-51.5 -58.5t-72 -38t-83.5 -17l-22 -55q46 1 65.5 -22.5t16.5 -56.5q-4 -41 -27 -63t-55.5 -28.5t-68 0.5t-64.5 23l22 54q21 -11 41 -16t36.5 -3.5t27 9t11.5 21.5q2 21 -18 29.5t-55 -1.5l-13 12
l39 98q-36 4 -70.5 15t-64.5 30t-53.5 45t-38.5 60l77 35q11 -26 31 -45t45.5 -32.5t54 -20t57.5 -6.5q31 0 61 7t54 21.5t39 36t17 50.5q3 38 -11 62t-40.5 39t-61.5 23.5t-72 16.5q-43 9 -85 21t-75.5 34t-54.5 56.5t-21 87.5q3 46 25 81.5t56.5 59.5t78 36.5t89.5 12.5
q39 0 78.5 -9t74 -27.5t62.5 -46.5t44 -65l-76 -34q-11 25 -30.5 43.5t-44 31.5t-52.5 19.5t-56 6.5q-31 0 -60 -7t-52 -21t-37.5 -35t-16.5 -49q-2 -32 11.5 -51.5t38 -32t56.5 -19.5t67 -14z" />
    <glyph glyph-name="scedilla" unicode="&#x15f;" horiz-adv-x="443" 
d="M411 140q0 -35 -12 -61t-32.5 -44t-47 -29t-55.5 -14l-22 -56q46 1 65.5 -22.5t16.5 -56.5q-4 -41 -27 -63t-55.5 -28.5t-68 0.5t-64.5 23l22 54q21 -11 41 -16t36.5 -3.5t27 9t11.5 21.5q2 21 -18 29.5t-55 -1.5l-13 12l39 98q-51 5 -95.5 30t-76.5 76l60 41
q26 -39 67 -57t81 -18q18 0 35 5t31 15t22 25t8 35q0 21 -9.5 34.5t-24.5 22.5t-33 14t-36 8h1q-32 6 -64.5 15t-58.5 26.5t-42.5 44.5t-16.5 69q0 41 17.5 69.5t44.5 46.5t60.5 26t65.5 8q41 0 82.5 -15t73.5 -47l-52 -61q-48 49 -104 49q-17 0 -36 -3.5t-35.5 -12.5
t-27 -23.5t-10.5 -36.5q0 -20 12 -33.5t30 -22.5t38 -14t37 -8q30 -6 60 -17t53.5 -29.5t38.5 -46.5t15 -67z" />
    <glyph glyph-name="Scaron" unicode="&#x160;" horiz-adv-x="593" 
d="M127 889h99l69 -66l65 66h101l-128 -133h-78zM129 525q-2 -32 11.5 -51.5t38 -32t56.5 -19.5t67 -14q46 -9 92 -20.5t82 -35t57 -63.5t18 -105q-3 -49 -25.5 -85.5t-58.5 -60.5t-81 -36t-92 -12q-40 0 -80 9.5t-75 28.5t-63.5 47.5t-44.5 66.5l77 35q11 -26 31 -45
t45.5 -32.5t54 -20t57.5 -6.5q31 0 61 7t54 21.5t39 36t17 50.5q3 38 -11 62t-40.5 39t-61.5 23.5t-72 16.5q-43 9 -85 21t-75.5 34t-54.5 56.5t-21 87.5q3 46 25 81.5t56.5 59.5t78 36.5t89.5 12.5q39 0 78.5 -9t74 -27.5t62.5 -46.5t44 -65l-76 -34q-11 25 -30.5 43.5
t-44 31.5t-52.5 19.5t-56 6.5q-31 0 -60 -7t-52 -21t-37.5 -35t-16.5 -49z" />
    <glyph glyph-name="scaron" unicode="&#x161;" horiz-adv-x="443" 
d="M58 709h99l69 -66l65 66h101l-128 -133h-78zM88 139q26 -39 67 -57t81 -18q18 0 35 5t31 15t22 25t8 35q0 21 -9.5 34.5t-24.5 22.5t-33 14t-36 8h1q-32 6 -64.5 15t-58.5 26.5t-42.5 44.5t-16.5 69q0 41 17.5 69.5t44.5 46.5t60.5 26t65.5 8q41 0 82.5 -15t73.5 -47
l-52 -61q-48 49 -104 49q-17 0 -36 -3.5t-35.5 -12.5t-27 -23.5t-10.5 -36.5q0 -20 12 -33.5t30 -22.5t38 -14t37 -8q30 -6 60 -17t53.5 -29.5t38.5 -46.5t15 -67t-15 -67t-39.5 -46.5t-56 -27.5t-64.5 -9q-61 0 -115.5 24t-92.5 84z" />
    <glyph glyph-name="Tcommaaccent" unicode="&#x162;" horiz-adv-x="566" 
d="M14 0zM325 624v-624h-84v624h-227v84h538v-84h-227zM276 -254h-74l50 166h87z" />
    <glyph glyph-name="tcommaaccent" unicode="&#x163;" horiz-adv-x="284" 
d="M60 0zM272 -8q-8 -1 -15.5 -1.5t-15.5 -0.5q-39 0 -72.5 11.5t-57.5 33.5t-37.5 53.5t-13.5 71.5v489h79v-131h106v-80h-106v-278q0 -22 9 -42.5t26.5 -35t42 -21t55.5 -0.5v-69zM157 -254h-74l50 166h87z" />
    <glyph glyph-name="Tcaron" unicode="&#x164;" horiz-adv-x="566" 
d="M115 889h99l69 -66l65 66h101l-128 -133h-78zM325 624v-624h-84v624h-227v84h538v-84h-227z" />
    <glyph glyph-name="tcaron" unicode="&#x165;" horiz-adv-x="284" 
d="M272 -8q-8 -1 -15.5 -1.5t-15.5 -0.5q-39 0 -72.5 11.5t-57.5 33.5t-37.5 53.5t-13.5 71.5v489h79v-131h106v-80h-106v-278q0 -22 9 -42.5t26.5 -35t42 -21t55.5 -0.5v-69zM270 577h-67l29 131h78z" />
    <glyph glyph-name="Tbar" unicode="&#x166;" horiz-adv-x="570" 
d="M327 407h96v-72h-96v-335h-84v335h-97v72h97v217h-227v84h538v-84h-227v-217z" />
    <glyph glyph-name="tbar" unicode="&#x167;" horiz-adv-x="290" 
d="M145 160q0 -22 9 -42.5t26.5 -35t42 -21t55.5 -0.5v-69q-8 -1 -15.5 -1.5t-15.5 -0.5q-39 0 -72.5 11.5t-57.5 33.5t-37.5 53.5t-13.5 71.5v102h-51v66h51v321h79v-131h106v-80h-106v-110h81v-66h-81v-102z" />
    <glyph glyph-name="Umacron" unicode="&#x16a;" horiz-adv-x="676" 
d="M209 851h257v-72h-257v72zM153 216q0 -36 16 -62.5t42 -44.5t59 -26.5t68 -8.5q34 0 67.5 8.5t59.5 26.5t42 44.5t16 62.5v492h84v-492q0 -56 -23 -98.5t-61 -71t-86.5 -42.5t-98.5 -14q-51 0 -99 14t-86 42.5t-61 71t-23 98.5v492h84v-492z" />
    <glyph glyph-name="umacron" unicode="&#x16b;" horiz-adv-x="520" 
d="M130 661h257v-72h-257v72zM458 28q-36 -13 -66 -20.5t-55 -11.5t-45 -5t-36 -1q-37 0 -72 11t-62.5 32.5t-44.5 53.5t-17 75v356h80v-357q0 -23 10 -40.5t26.5 -29.5t37 -18.5t42.5 -6.5q35 0 65.5 4t56.5 13v435h80v-490z" />
    <glyph glyph-name="Uring" unicode="&#x16e;" horiz-adv-x="676" 
d="M231 819q0 22 8.5 41.5t23 34t34 23t41.5 8.5t41 -9t33 -24t22 -34.5t8 -40.5t-8 -40t-22 -33.5t-33 -23.5t-41 -9t-41.5 8.5t-34 23t-23 34t-8.5 41.5zM383 819q0 20 -13 34.5t-33 14.5t-33 -15t-13 -35t13.5 -34t32.5 -14q20 0 33 14.5t13 34.5zM153 216
q0 -36 16 -62.5t42 -44.5t59 -26.5t68 -8.5q34 0 67.5 8.5t59.5 26.5t42 44.5t16 62.5v492h84v-492q0 -56 -23 -98.5t-61 -71t-86.5 -42.5t-98.5 -14q-51 0 -99 14t-86 42.5t-61 71t-23 98.5v492h84v-492z" />
    <glyph glyph-name="uring" unicode="&#x16f;" horiz-adv-x="519" 
d="M152 629q0 22 8.5 41.5t23 34t34 23t41.5 8.5t41 -9t33 -24t22 -34.5t8 -40.5t-8 -40t-22 -33.5t-33 -23.5t-41 -9t-41.5 8.5t-34 23t-23 34t-8.5 41.5zM304 629q0 20 -13 34.5t-33 14.5t-33 -15t-13 -35t13.5 -34t32.5 -14q20 0 33 14.5t13 34.5zM458 28
q-36 -13 -66 -20.5t-55 -11.5t-45 -5t-36 -1q-37 0 -72 11t-62.5 32.5t-44.5 53.5t-17 75v356h80v-357q0 -23 10 -40.5t26.5 -29.5t37 -18.5t42.5 -6.5q35 0 65.5 4t56.5 13v435h80v-490z" />
    <glyph glyph-name="Uhungarumlaut" unicode="&#x170;" horiz-adv-x="676" 
d="M295 756h-75l61 125h98zM445 756h-75l67 125h101zM153 216q0 -36 16 -62.5t42 -44.5t59 -26.5t68 -8.5q34 0 67.5 8.5t59.5 26.5t42 44.5t16 62.5v492h84v-492q0 -56 -23 -98.5t-61 -71t-86.5 -42.5t-98.5 -14q-51 0 -99 14t-86 42.5t-61 71t-23 98.5v492h84v-492z" />
    <glyph glyph-name="uhungarumlaut" unicode="&#x171;" horiz-adv-x="520" 
d="M219 579h-75l63 128h98zM369 579h-75l69 128h101zM458 28q-36 -13 -66 -20.5t-55 -11.5t-45 -5t-36 -1q-37 0 -72 11t-62.5 32.5t-44.5 53.5t-17 75v356h80v-357q0 -23 10 -40.5t26.5 -29.5t37 -18.5t42.5 -6.5q35 0 65.5 4t56.5 13v435h80v-490z" />
    <glyph glyph-name="Uogonek" unicode="&#x172;" horiz-adv-x="676" 
d="M607 216q0 -62 -27 -105t-71 -77q-45 -35 -69 -63t-35 -50t-12 -37.5t2 -24.5q5 -16 15 -23t22 -7.5t24.5 4t22.5 12.5l23 -56q-32 -22 -63.5 -28t-57 1t-42 25t-19.5 45q-4 41 16.5 84t68.5 81q-32 -7 -67 -7q-51 0 -99 14t-86 42.5t-61 71t-23 98.5v492h84v-492
q0 -36 16 -62.5t42 -44.5t59 -26.5t68 -8.5q34 0 67.5 8.5t59.5 26.5t42 44.5t16 62.5v492h84v-492z" />
    <glyph glyph-name="uogonek" unicode="&#x173;" horiz-adv-x="521" 
d="M485 -211q-32 -22 -64 -28t-57.5 1t-42 25t-19.5 45q-3 37 12.5 79t54.5 91q-37 -8 -64 -10t-49 -2q-37 0 -72 11t-62.5 32.5t-44.5 53.5t-17 75v356h80v-357q0 -23 10 -40.5t26.5 -29.5t37 -18.5t42.5 -6.5q35 0 65.5 4t56.5 13v435h80v-490q-27 -32 -44 -59t-26 -48.5
t-11 -37t1 -24.5q5 -16 15 -23t22 -7.5t24.5 4t22.5 12.5z" />
    <glyph glyph-name="Wcircumflex" unicode="&#x174;" horiz-adv-x="933" 
d="M628 756h-95l-61 69l-64 -69h-98l127 133h74zM923 708l-205 -708h-102l-149 471l-150 -471h-102l-205 708h87l170 -608l163 519h74l162 -518l171 607h86z" />
    <glyph glyph-name="wcircumflex" unicode="&#x175;" horiz-adv-x="713" 
d="M517 566h-95l-61 69l-64 -69h-98l127 133h74zM392 510l106 -431h3l35 149l85 290h78l-155 -518h-96l-55 232l-36 173l-36 -174l-56 -231h-96l-156 518h81l85 -290l35 -149h3l103 431h72z" />
    <glyph glyph-name="Ycircumflex" unicode="&#x176;" horiz-adv-x="579" 
d="M451 756h-95l-61 69l-64 -69h-98l127 133h74zM247 0v276l-246 432h97l192 -343l190 343h98l-247 -432v-276h-84z" />
    <glyph glyph-name="ycircumflex" unicode="&#x177;" horiz-adv-x="533" 
d="M426 566h-95l-61 69l-64 -69h-98l127 133h74zM134 -63q21 -26 56.5 -39t70.5 -13q24 0 47 5t41 16.5t29 30t11 45.5v40q-26 -18 -59 -24.5t-65 -7.5q-39 0 -75.5 11.5t-65.5 34t-46.5 56t-17.5 76.5v350h82v-352q0 -24 10.5 -42t27.5 -30.5t38.5 -19.5t44.5 -7
q62 0 126 25v426h80v-536q0 -45 -17 -78t-45.5 -54.5t-64.5 -32t-75 -10.5q-51 0 -102 20.5t-86 59.5z" />
    <glyph glyph-name="Ydieresis" unicode="&#x178;" horiz-adv-x="579" 
d="M148 822q0 23 15 38t37 15t37 -15t15 -38q0 -22 -15 -37t-37 -15t-37 15t-15 37zM329 822q0 23 14.5 38t37.5 15q22 0 37 -15t15 -38q0 -22 -15 -37t-37 -15q-23 0 -37.5 15t-14.5 37zM247 0v276l-246 432h97l192 -343l190 343h98l-247 -432v-276h-84z" />
    <glyph glyph-name="Zacute" unicode="&#x179;" horiz-adv-x="583" 
d="M425 889l-102 -133h-88l85 133h105zM531 708l27 -58l-414 -566h402v-84h-500l-24 59l414 565h-395v84h490z" />
    <glyph glyph-name="zacute" unicode="&#x17a;" horiz-adv-x="468" 
d="M370 699l-102 -133h-88l85 133h105zM406 518l32 -52l-308 -393h303v-73h-379l-32 51l303 393h-281v74h362z" />
    <glyph glyph-name="Zdotaccent" unicode="&#x17b;" horiz-adv-x="583" 
d="M236 823q0 24 16.5 40.5t40.5 16.5t40.5 -16.5t16.5 -40.5t-16.5 -40.5t-40.5 -16.5t-40.5 16.5t-16.5 40.5zM531 708l27 -58l-414 -566h402v-84h-500l-24 59l414 565h-395v84h490z" />
    <glyph glyph-name="zdotaccent" unicode="&#x17c;" horiz-adv-x="468" 
d="M181 633q0 24 16.5 40.5t40.5 16.5t40.5 -16.5t16.5 -40.5t-16.5 -40.5t-40.5 -16.5t-40.5 16.5t-16.5 40.5zM406 518l32 -52l-308 -393h303v-73h-379l-32 51l303 393h-281v74h362z" />
    <glyph glyph-name="Zcaron" unicode="&#x17d;" horiz-adv-x="583" 
d="M126 889h99l69 -66l65 66h101l-128 -133h-78zM531 708l27 -58l-414 -566h402v-84h-500l-24 59l414 565h-395v84h490z" />
    <glyph glyph-name="zcaron" unicode="&#x17e;" horiz-adv-x="468" 
d="M71 699h99l69 -66l65 66h101l-128 -133h-78zM406 518l32 -52l-308 -393h303v-73h-379l-32 51l303 393h-281v74h362z" />
    <glyph glyph-name="florin" unicode="&#x192;" horiz-adv-x="487" 
d="M205 -9q-11 -60 -46 -94t-103 -34q-23 0 -46.5 7.5t-46.5 26.5l44 67q14 -12 28 -17.5t25 -5.5q31 0 46 24t23 70v1l58 311h-100v77h113q7 35 13.5 68t12.5 67q5 27 15 54t27.5 48.5t43.5 35t63 13.5q25 0 51.5 -10.5t51.5 -28.5l-45 -65q-15 11 -30 18.5t-28 7.5
q-30 0 -45 -22t-21 -53v1q-6 -37 -12.5 -67t-12.5 -67h100v-77h-113z" />
    <glyph glyph-name="Scommaaccent" unicode="&#x218;" horiz-adv-x="593" 
d="M129 525q-2 -32 11.5 -51.5t38 -32t56.5 -19.5t67 -14q46 -9 92 -20.5t82 -35t57 -63.5t18 -105q-3 -49 -25.5 -85.5t-58.5 -60.5t-81 -36t-92 -12q-40 0 -80 9.5t-75 28.5t-63.5 47.5t-44.5 66.5l77 35q11 -26 31 -45t45.5 -32.5t54 -20t57.5 -6.5q31 0 61 7t54 21.5
t39 36t17 50.5q3 38 -11 62t-40.5 39t-61.5 23.5t-72 16.5q-43 9 -85 21t-75.5 34t-54.5 56.5t-21 87.5q3 46 25 81.5t56.5 59.5t78 36.5t89.5 12.5q39 0 78.5 -9t74 -27.5t62.5 -46.5t44 -65l-76 -34q-11 25 -30.5 43.5t-44 31.5t-52.5 19.5t-56 6.5q-31 0 -60 -7t-52 -21
t-37.5 -35t-16.5 -49zM287 -254h-74l50 166h87z" />
    <glyph glyph-name="scommaaccent" unicode="&#x219;" horiz-adv-x="443" 
d="M88 139q26 -39 67 -57t81 -18q18 0 35 5t31 15t22 25t8 35q0 21 -9.5 34.5t-24.5 22.5t-33 14t-36 8h1q-32 6 -64.5 15t-58.5 26.5t-42.5 44.5t-16.5 69q0 41 17.5 69.5t44.5 46.5t60.5 26t65.5 8q41 0 82.5 -15t73.5 -47l-52 -61q-48 49 -104 49q-17 0 -36 -3.5
t-35.5 -12.5t-27 -23.5t-10.5 -36.5q0 -20 12 -33.5t30 -22.5t38 -14t37 -8q30 -6 60 -17t53.5 -29.5t38.5 -46.5t15 -67t-15 -67t-39.5 -46.5t-56 -27.5t-64.5 -9q-61 0 -115.5 24t-92.5 84zM229 -254h-74l50 166h87z" />
    <glyph glyph-name="uni021A" unicode="&#x21a;" horiz-adv-x="566" 
d="M325 624v-624h-84v624h-227v84h538v-84h-227zM276 -254h-74l50 166h87z" />
    <glyph glyph-name="uni021B" unicode="&#x21b;" horiz-adv-x="284" 
d="M272 -8q-8 -1 -15.5 -1.5t-15.5 -0.5q-39 0 -72.5 11.5t-57.5 33.5t-37.5 53.5t-13.5 71.5v489h79v-131h106v-80h-106v-278q0 -22 9 -42.5t26.5 -35t42 -21t55.5 -0.5v-69zM157 -254h-74l50 166h87z" />
    <glyph glyph-name="circumflex" unicode="&#x2c6;" horiz-adv-x="262" 
d="M284 756h-95l-61 69l-64 -69h-98l127 133h74z" />
    <glyph glyph-name="caron" unicode="&#x2c7;" horiz-adv-x="257" 
d="M-45 889h99l69 -66l65 66h101l-128 -133h-78z" />
    <glyph glyph-name="uni02C9" unicode="&#x2c9;" horiz-adv-x="240" 
d="M-22 675h277v-77h-277v77z" />
    <glyph glyph-name="breve" unicode="&#x2d8;" horiz-adv-x="240" 
d="M104 756q-27 0 -50.5 10.5t-41 28.5t-27.5 42.5t-10 51.5h73q0 -25 16.5 -42.5t39.5 -17.5t40 17.5t17 42.5h76q0 -27 -10.5 -51.5t-28.5 -42.5t-42.5 -28.5t-51.5 -10.5z" />
    <glyph glyph-name="dotaccent" unicode="&#x2d9;" horiz-adv-x="240" 
d="M69 823q0 24 16.5 40.5t40.5 16.5t40.5 -16.5t16.5 -40.5t-16.5 -40.5t-40.5 -16.5t-40.5 16.5t-16.5 40.5z" />
    <glyph glyph-name="ring" unicode="&#x2da;" horiz-adv-x="240" 
d="M11 629q0 22 8.5 41.5t23 34t34 23t41.5 8.5t41 -9t33 -24t22 -34.5t8 -40.5t-8 -40t-22 -33.5t-33 -23.5t-41 -9t-41.5 8.5t-34 23t-23 34t-8.5 41.5zM163 629q0 20 -13 34.5t-33 14.5t-33 -15t-13 -35t13.5 -34t32.5 -14q20 0 33 14.5t13 34.5z" />
    <glyph glyph-name="ogonek" unicode="&#x2db;" horiz-adv-x="240" 
d="M193 -211q-32 -22 -63.5 -28t-57 1t-42 25t-19.5 45q-4 42 18.5 85.5t73.5 82.5h66q-26 -22 -43.5 -43.5t-27 -40.5t-12.5 -33.5t0 -23.5q5 -16 15 -23t22 -7.5t24.5 4t22.5 12.5z" />
    <glyph glyph-name="tilde" unicode="&#x2dc;" horiz-adv-x="271" 
d="M-15 793q8 43 36.5 68.5t60.5 25.5q19 0 34.5 -7.5t28.5 -17t23 -17t19 -7.5q8 0 20 6.5t18 29.5l59 -21q-13 -51 -38 -70.5t-53 -19.5q-17 0 -31 8t-26.5 17t-25.5 17t-28 8q-11 0 -23 -11.5t-17 -29.5z" />
    <glyph glyph-name="hungarumlaut" unicode="&#x2dd;" horiz-adv-x="667" 
d="M291 756h-75l61 125h98zM441 756h-75l67 125h101z" />
    <glyph glyph-name="uni0326" unicode="&#x326;" horiz-adv-x="0" 
d="M152 -254h-74l50 166h87z" />
    <glyph glyph-name="uni03A9" unicode="&#x3a9;" horiz-adv-x="772" 
d="M180 79q-27 25 -50 56.5t-40.5 69t-27.5 80.5t-10 92q0 78 26.5 141t72.5 107.5t107.5 68.5t132.5 24q73 0 133.5 -26.5t103.5 -72.5t67 -107.5t24 -130.5q0 -50 -10 -94t-27 -82t-40 -70t-48 -56h137v-79h-285v57q40 22 74.5 55t60 74.5t40 90.5t14.5 104
q0 46 -16.5 91.5t-48 82t-77.5 59t-104 22.5q-55 0 -101.5 -19.5t-80 -54.5t-52 -82.5t-18.5 -104.5q0 -51 15 -97t40.5 -86.5t60.5 -74.5t76 -60v-57h-289v79h140z" />
    <glyph glyph-name="uni03BC" unicode="&#x3bc;" horiz-adv-x="532" 
d="M388 0q-1 24 1 31.5t-2 14.5q-23 -27 -60 -42t-82 -15q-30 0 -54.5 9t-43.5 24v-238h-83v728h84v-318q0 -24 4 -47t14.5 -41t29.5 -29t49 -11q28 0 53.5 10t44 31t29.5 52t11 73v280h84l2 -512h-81z" />
    <glyph glyph-name="pi" unicode="&#x3c0;" horiz-adv-x="558" 
d="M506 0q-39 2 -65 13t-41.5 30t-21.5 45.5t-6 58.5v295h-171v-442h-79v442q-35 -1 -57 -6t-39 -11l-17 61q22 14 55 23t84 9h386l-8 -76h-73v-289q0 -40 10.5 -58t41.5 -16z" />
    <glyph glyph-name="uni0401" unicode="&#x401;" horiz-adv-x="571" 
d="M167 806q0 23 15 38t37 15t37 -15t15 -38q0 -22 -15 -37t-37 -15t-37 15t-15 37zM348 806q0 23 14.5 38t37.5 15q22 0 37 -15t15 -38q0 -22 -15 -37t-37 -15q-23 0 -37.5 15t-14.5 37zM158 396h341v-84h-341v-228h370v-84h-454v708h454v-84h-370v-228z" />
    <glyph glyph-name="uni0410" unicode="&#x410;" horiz-adv-x="619" 
d="M616 0h-88l-82 227h-273q-20 -56 -40.5 -113.5t-39.5 -113.5h-89l254 708h102zM417 311q-15 41 -28 78t-25.5 74t-26 75t-28.5 80q-27 -78 -53 -152.5t-55 -154.5h216z" />
    <glyph glyph-name="uni0411" unicode="&#x411;" horiz-adv-x="619" 
d="M532 708v-84h-374v-203h182q58 0 104 -11t78.5 -36.5t49.5 -66t17 -99.5q0 -57 -18.5 -96.5t-51.5 -64.5t-77.5 -36t-96.5 -11h-271v708h458zM158 343v-259h191q34 0 62.5 5t49.5 19t32.5 38.5t11.5 63.5q0 66 -37 99.5t-126 33.5h-184z" />
    <glyph glyph-name="uni0412" unicode="&#x412;" horiz-adv-x="626" 
d="M554 522q0 -42 -13.5 -79.5t-45.5 -63.5q51 -26 71.5 -71.5t20.5 -104.5q-1 -56 -20 -95t-51 -63t-76 -34.5t-95 -10.5h-271v708h272q43 0 80.5 -11.5t66 -34.5t45 -58t16.5 -82zM346 417q54 0 90 23.5t36 81.5q0 29 -10 48.5t-27 31.5t-40 17t-49 5h-188v-207h188z
M346 84q34 -1 63 4.5t50 19t32.5 37t11.5 59.5t-11 61t-31.5 40t-49.5 21.5t-65 6.5h-188v-249h188z" />
    <glyph glyph-name="uni0413" unicode="&#x413;" horiz-adv-x="523" 
d="M158 0h-84v708h435v-83h-351v-625z" />
    <glyph glyph-name="uni0414" unicode="&#x414;" horiz-adv-x="689" 
d="M12 83h20q34 4 56.5 22t37.5 59t23.5 110t15.5 176l16 258h408v-625h69v-208h-84v125h-478v-125h-84v208zM505 83v542h-237l-15 -225q-7 -106 -22.5 -186t-47.5 -131h322z" />
    <glyph glyph-name="uni0415" unicode="&#x415;" horiz-adv-x="571" 
d="M158 396h341v-84h-341v-228h370v-84h-454v708h454v-84h-370v-228z" />
    <glyph glyph-name="uni0416" unicode="&#x416;" horiz-adv-x="938" 
d="M112 0h-109l293 372l-293 336h110l314 -358v358h84v-358l314 358h110l-293 -336l293 -372h-109l-249 319l-66 -71v-248h-84v248l-66 71z" />
    <glyph glyph-name="uni0417" unicode="&#x417;" horiz-adv-x="552" 
d="M272 718q52 0 91 -15t65 -41t39 -62t13 -78q0 -94 -70 -143q51 -26 76.5 -71.5t25.5 -104.5q-1 -56 -20.5 -96.5t-52 -66.5t-76.5 -38t-95 -12q-81 0 -145.5 30.5t-104.5 101.5l78 39q29 -45 72.5 -66t102.5 -21q34 0 63 7t50 22t33 40t12 61q0 73 -43 102.5t-115 29.5
h-97v78h97q54 0 90 24.5t36 82.5q0 57 -36 85t-95 28q-54 0 -89 -16t-65 -51l-71 37q42 62 99 88t132 26z" />
    <glyph glyph-name="uni0418" unicode="&#x418;" horiz-adv-x="690" 
d="M74 0v708h84v-586l361 586h97v-708h-84v564l-354 -564h-104z" />
    <glyph glyph-name="uni0419" unicode="&#x419;" horiz-adv-x="690" 
d="M349 771q-31 0 -59.5 9.5t-51 28t-38 46.5t-19.5 66h83q8 -35 27.5 -54t57.5 -19t57.5 19t27.5 54h83q-4 -38 -19.5 -66t-38 -46.5t-51 -28t-59.5 -9.5zM178 0l354 564v-564h84v708h-97l-361 -586v586h-84v-708h104z" />
    <glyph glyph-name="uni041A" unicode="&#x41a;" horiz-adv-x="630" 
d="M520 708h111l-341 -341l337 -367h-109l-288 307l-72 -72v-235h-84v708h84v-356z" />
    <glyph glyph-name="uni041B" unicode="&#x41b;" horiz-adv-x="677" 
d="M257 400q-6 -95 -17.5 -169.5t-37 -125.5t-71.5 -78t-121 -27v83q49 0 78 22t45 67t23 114t13 164l16 258h418v-708h-84v625h-247z" />
    <glyph glyph-name="uni041C" unicode="&#x41c;" horiz-adv-x="796" 
d="M158 0h-84v708h105l219 -494l219 494h105v-708h-84v551l-204 -458h-71l-205 457v-550z" />
    <glyph glyph-name="uni041D" unicode="&#x41d;" horiz-adv-x="686" 
d="M158 0h-84v708h84v-313h370v313h84v-708h-84v312h-370v-312z" />
    <glyph glyph-name="uni041E" unicode="&#x41e;" horiz-adv-x="673" 
d="M53 496q0 55 24 97t64 69.5t91 41.5t104 14t104 -14t90.5 -41.5t64 -69.5t24.5 -97v-283q0 -56 -24.5 -97.5t-64 -69.5t-90.5 -42t-104 -14t-104 14t-91 42t-64 69.5t-24 97.5v283zM136 214q0 -35 17 -61t45 -43.5t64 -26.5t74 -9q37 0 73 9t64.5 26.5t45.5 43.5t17 61
v282q0 37 -17.5 63.5t-45.5 43.5t-64.5 25t-73.5 8q-38 0 -73.5 -8.5t-63.5 -26t-45 -43.5t-17 -62v-282z" />
    <glyph glyph-name="uni041F" unicode="&#x41f;" horiz-adv-x="678" 
d="M158 0h-84v708h530v-708h-84v625h-362v-625z" />
    <glyph glyph-name="uni0420" unicode="&#x420;" horiz-adv-x="611" 
d="M74 708h270q60 0 104.5 -19.5t74.5 -51.5t45 -73t15 -83q0 -43 -15 -83.5t-45 -72t-74.5 -51t-103.5 -19.5h-188v-255h-83v708zM344 339q39 0 68.5 12t49 32t29 45.5t9.5 52.5t-10 52.5t-29.5 46t-48.5 32.5t-68 12h-187v-285h187z" />
    <glyph glyph-name="uni0421" unicode="&#x421;" horiz-adv-x="596" 
d="M53 494q0 55 23 96.5t61 70t86.5 43t99.5 14.5q38 0 75.5 -8.5t70.5 -26.5t60 -44.5t44 -62.5l-75 -36q-25 48 -74.5 72t-103.5 24q-34 0 -67 -9t-58.5 -26.5t-41.5 -44t-16 -60.5v-285q0 -35 16 -60.5t41.5 -42.5t58.5 -25.5t67 -8.5q55 0 104.5 24t73.5 71l75 -35
q-17 -36 -44.5 -63t-61 -45t-71.5 -27t-76 -9q-50 0 -98 14t-85.5 41.5t-60.5 69t-23 96.5v283z" />
    <glyph glyph-name="uni0422" unicode="&#x422;" horiz-adv-x="566" 
d="M325 624v-624h-84v624h-227v84h538v-84h-227z" />
    <glyph glyph-name="uni0423" unicode="&#x423;" horiz-adv-x="523" 
d="M221 225l-235 483h97l180 -389l176 389h88l-319 -708h-89z" />
    <glyph glyph-name="uni0424" unicode="&#x424;" horiz-adv-x="732" 
d="M324 66q-53 0 -104 9.5t-90.5 32.5t-64 60t-24.5 93v187q0 55 24.5 92.5t64 60.5t90.5 32.5t104 9.5v65h84v-65q53 0 104 -9.5t90.5 -32.5t64 -60.5t24.5 -92.5v-187q0 -56 -24.5 -93t-64 -60t-90.5 -32.5t-104 -9.5v-66h-84v66zM325 567q-38 0 -74 -5t-64 -18.5
t-45.5 -36.5t-17.5 -60v-186q0 -37 17 -60t45.5 -36t64 -18t73.5 -5zM608 447q0 37 -17.5 60t-45.5 36.5t-64.5 18.5t-73.5 5l1 -425q37 0 73 5t64.5 18t45.5 36t17 60v186z" />
    <glyph glyph-name="uni0425" unicode="&#x425;" horiz-adv-x="595" 
d="M488 0l-191 284l-191 -284h-102l243 353l-241 355h100l191 -280l191 280h101l-242 -355l243 -353h-102z" />
    <glyph glyph-name="uni0426" unicode="&#x426;" horiz-adv-x="690" 
d="M157 708v-625h349v625h84v-625h69v-208h-84v125h-502v708h84z" />
    <glyph glyph-name="uni0427" unicode="&#x427;" horiz-adv-x="610" 
d="M452 290q-34 -29 -75.5 -48t-93.5 -19q-51 0 -94.5 13.5t-76 41t-51 69t-18.5 97.5v264h84v-264q0 -72 43 -104.5t113 -32.5q33 0 59 5.5t46 14t36 19.5t28 23v339h84v-708h-84v290z" />
    <glyph glyph-name="uni0428" unicode="&#x428;" horiz-adv-x="886" 
d="M485 708v-625h243v625h84v-708h-738v708h84v-625h243v625h84z" />
    <glyph glyph-name="uni0429" unicode="&#x429;" horiz-adv-x="911" 
d="M157 708v-625h243v625h84v-625h243v625h84v-625h69v-208h-84v125h-723v708h84z" />
    <glyph glyph-name="uni042A" unicode="&#x42a;" horiz-adv-x="718" 
d="M16 708h245v-268h178q58 0 104 -12.5t78.5 -39.5t49.5 -70t17 -104q0 -57 -18.5 -97.5t-51.5 -66.5t-77.5 -38t-96.5 -12h-267v629h-161v79zM261 362v-278h187q34 0 62.5 6t49.5 21t32.5 40.5t11.5 64.5q0 70 -37 108t-126 38h-180z" />
    <glyph glyph-name="uni042B" unicode="&#x42b;" horiz-adv-x="837" 
d="M74 0v708h84v-268h178q58 0 104 -12.5t78.5 -39.5t49.5 -70t17 -104q0 -57 -18.5 -97.5t-51.5 -66.5t-77.5 -38t-96.5 -12h-267zM763 708h-83v-708h83v708zM158 362v-278h187q34 0 62.5 6t49.5 21t32.5 40.5t11.5 64.5q0 70 -37 108t-126 38h-180z" />
    <glyph glyph-name="uni042C" unicode="&#x42c;" horiz-adv-x="615" 
d="M74 0v708h84v-268h178q58 0 104 -12.5t78.5 -39.5t49.5 -70t17 -104q0 -57 -18.5 -97.5t-51.5 -66.5t-77.5 -38t-96.5 -12h-267zM158 362v-278h187q34 0 62.5 6t49.5 21t32.5 40.5t11.5 64.5q0 70 -37 108t-126 38h-180z" />
    <glyph glyph-name="uni042D" unicode="&#x42d;" horiz-adv-x="601" 
d="M278 718q51 0 99.5 -14.5t86.5 -43t61 -70t23 -96.5v-280q0 -55 -23 -96.5t-60.5 -69t-85.5 -41.5t-98 -14q-38 0 -76 9t-71.5 27t-61 45t-44.5 63l75 35q24 -47 73.5 -71t104.5 -24q34 0 67 8.5t58.5 25.5t41.5 42.5t16 60.5v98h-314v82h314v100q0 34 -16 60.5t-41.5 44
t-58.5 26.5t-67 9q-54 0 -103.5 -24t-74.5 -72l-75 38q17 36 44 62.5t60 44.5t70.5 26.5t75.5 8.5z" />
    <glyph glyph-name="uni042E" unicode="&#x42e;" horiz-adv-x="922" 
d="M156 0h-84v708h84v-309h146v97q0 55 24 97t64 69.5t91 41.5t104 14t104 -14t90.5 -41.5t64 -69.5t24.5 -97v-283q0 -56 -24.5 -97.5t-64 -69.5t-90.5 -42t-104 -14t-104 14t-91 42t-64 69.5t-24 97.5v107h-146v-320zM385 213q0 -35 17 -61t45 -43.5t64 -26.5t74 -9
q37 0 73 9t64.5 26.5t45.5 43.5t17 61v282q0 37 -17.5 63.5t-45.5 43.5t-64.5 25t-73.5 8q-38 0 -73.5 -8.5t-63.5 -26t-45 -43.5t-17 -62v-282z" />
    <glyph glyph-name="uni042F" unicode="&#x42f;" horiz-adv-x="625" 
d="M256 290q-45 2 -85 15t-69 37.5t-46 62.5t-17 91q0 57 18.5 97t51.5 65.5t77 37.5t95 12h270v-708h-84v289h-103l-243 -289h-112zM467 625h-187q-35 1 -63.5 -5.5t-49.5 -21.5t-32.5 -40t-11.5 -62q0 -71 42.5 -100t114.5 -29h187v258z" />
    <glyph glyph-name="uni0430" unicode="&#x430;" 
d="M33 0zM352 361q0 22 -10.5 39.5t-27.5 29.5t-39 18t-45 6q-35 0 -70 -13.5t-58 -42.5l-50 49q36 40 85.5 60.5t98.5 20.5q37 0 72.5 -10.5t63 -31t44 -52t16.5 -73.5v-336q-54 -19 -108 -27.5t-106 -7.5q-39 0 -73 10t-58.5 30t-39 50t-14.5 72q0 43 16.5 74t43.5 51
t62 30t73 10q65 0 124 -25v69zM352 234q-24 8 -54 14t-62 6q-24 0 -46.5 -5.5t-39.5 -17.5t-27.5 -31.5t-10.5 -47.5q0 -50 31 -71.5t77 -22.5q33 -1 66.5 1t65.5 9v166z" />
    <glyph glyph-name="uni0431" unicode="&#x431;" horiz-adv-x="508" 
d="M60 532q0 43 16.5 72.5t44.5 48.5t63 28.5t73 12.5q51 5 83.5 14.5t60.5 23.5l27 -65q-32 -23 -75 -33.5t-91 -15.5q-24 -3 -46 -7t-39 -13t-27 -24.5t-10 -42.5v-85q25 19 58.5 31.5t76.5 12.5q40 0 74 -10t59 -31t38.5 -53t13.5 -76v-157q0 -44 -17 -76t-45 -54
t-64 -32.5t-73 -10.5q-38 0 -74 10.5t-64 32.5t-45.5 54t-17.5 76v369zM140 163q0 -24 10.5 -42t28 -29.5t39 -17t43.5 -5.5q21 0 42 5.5t38.5 17t28 29.5t10.5 42v157q0 27 -9 45t-24.5 29t-36 15.5t-43.5 4.5q-69 0 -127 -39v-212z" />
    <glyph glyph-name="uni0432" unicode="&#x432;" horiz-adv-x="502" 
d="M443 384q0 -36 -14 -62.5t-37 -46.5q37 -20 53.5 -52.5t16.5 -74.5q0 -41 -14.5 -69.5t-40 -46t-60 -25t-73.5 -7.5h-210v518h211q31 0 61.5 -8.5t54 -25t38 -41.5t14.5 -59zM271 297q38 0 64.5 17t26.5 59q0 40 -27 56t-64 16h-127v-148h127zM270 73q24 0 44.5 3
t35.5 11.5t23.5 24t8.5 40.5t-8 41.5t-23 26t-36 13.5t-46 4h-125v-164h126z" />
    <glyph glyph-name="uni0433" unicode="&#x433;" horiz-adv-x="390" 
d="M64 518h314v-77h-234v-441h-80v518z" />
    <glyph glyph-name="uni0434" unicode="&#x434;" horiz-adv-x="560" 
d="M474 518v-441h55v-184h-80v107h-354v-107h-80v184h11q33 3 51.5 20.5t28.5 50.5t13.5 81t8.5 111l13 178h333zM394 77v364h-180l-9 -131q-2 -30 -5.5 -64t-9.5 -65.5t-14.5 -59t-21.5 -44.5h240z" />
    <glyph glyph-name="uni0435" unicode="&#x435;" 
d="M48 0zM129 156q0 -24 10 -41t27 -28.5t38.5 -17t44.5 -5.5q35 0 68.5 17t49.5 53l70 -30q-14 -29 -34.5 -50t-45 -35.5t-52.5 -21.5t-56 -7q-38 0 -74 10.5t-64 32t-45.5 54t-17.5 75.5v194q0 43 17.5 75.5t45.5 54t64 32t74 10.5q37 0 72.5 -10.5t63.5 -32t45 -54
t17 -75.5v-137h-318v-63zM371 360q0 23 -11 40.5t-28 29.5t-39 18.5t-44 6.5q-25 0 -47 -6.5t-38.5 -18.5t-25.5 -30t-9 -42v-72h242v74z" />
    <glyph glyph-name="uni0436" unicode="&#x436;" horiz-adv-x="753" 
d="M337 0v203l-34 34l-186 -237h-101l227 286l-232 232h104l222 -225v225h79v-225l222 225h104l-232 -232l227 -286h-101l-186 237l-34 -34v-203h-79z" />
    <glyph glyph-name="uni0437" unicode="&#x437;" horiz-adv-x="446" 
d="M217 528q38 0 69.5 -11t53.5 -30t34 -45t12 -57q0 -35 -18 -63.5t-44 -42.5q38 -14 61 -49.5t23 -82.5q0 -41 -17 -71t-44.5 -49t-62 -28t-69.5 -9q-60 0 -110 22.5t-80 74.5l62 37q39 -59 125 -59q23 0 44 4.5t36.5 14.5t25 26t9.5 38q0 51 -30.5 71.5t-84.5 20.5h-71
v65h71q40 0 66.5 18.5t26.5 60.5q0 37 -26 52.5t-69 15.5q-41 0 -69 -14t-50 -40l-53 40q31 47 77.5 68.5t101.5 21.5z" />
    <glyph glyph-name="uni0438" unicode="&#x438;" horiz-adv-x="532" 
d="M178 176l187 342h103v-518h-80v342l2 68h-2l-35 -70l-190 -340h-99v518h80v-338l-2 -74h2z" />
    <glyph glyph-name="uni0439" unicode="&#x439;" horiz-adv-x="532" 
d="M272 569q-23 0 -45 8t-40 23.5t-30.5 39t-15.5 54.5h73q6 -26 22.5 -38.5t35.5 -12.5t35.5 12.5t22.5 38.5h73q-3 -31 -15.5 -54.5t-30.5 -39t-40.5 -23.5t-44.5 -8zM178 176l187 342h103v-518h-80v342l2 68h-2l-35 -70l-190 -340h-99v518h80v-338l-2 -74h2z" />
    <glyph glyph-name="uni043A" unicode="&#x43a;" horiz-adv-x="498" 
d="M144 278l120 120l120 120h104l-234 -236l229 -282h-101l-184 225l-54 -54v-171h-80v518h80v-240z" />
    <glyph glyph-name="uni043B" unicode="&#x43b;" horiz-adv-x="531" 
d="M216 441l-13 -176q-5 -63 -9.5 -112t-22 -83t-54 -52t-105.5 -18v78q41 0 62 8t31.5 32t14 68t8.5 117l15 215h324v-518h-80v441h-171z" />
    <glyph glyph-name="uni043C" unicode="&#x43c;" horiz-adv-x="640" 
d="M144 0h-80v518h99l157 -335l157 335h99v-518h-80v383l-149 -315h-54l-149 315v-383z" />
    <glyph glyph-name="uni043D" unicode="&#x43d;" horiz-adv-x="527" 
d="M144 309h239v209h80v-518h-80v232h-239v-232h-80v518h80v-209z" />
    <glyph glyph-name="uni043E" unicode="&#x43e;" horiz-adv-x="495" 
d="M47 0zM47 355q0 43 17.5 75.5t45.5 54t64 32.5t74 11q37 0 73 -11t64 -32.5t45 -54t17 -75.5v-192q0 -44 -17 -76t-45 -53.5t-64 -32.5t-73 -11q-38 0 -74 11t-64 32.5t-45.5 53.5t-17.5 76v192zM248 452q-22 0 -43.5 -5.5t-39 -17.5t-28 -30t-10.5 -42v-195
q0 -24 10.5 -42t28 -30t39 -18t43.5 -6q21 0 42 6t38.5 18t28 30t10.5 42v195q0 24 -10.5 42t-28 30t-38.5 17.5t-42 5.5z" />
    <glyph glyph-name="uni043F" unicode="&#x43f;" horiz-adv-x="523" 
d="M64 0v518h395v-518h-80v441h-235v-441h-80z" />
    <glyph glyph-name="uni0440" unicode="&#x440;" horiz-adv-x="524" 
d="M70 0zM70 491q51 17 102 27t101 10q37 0 72.5 -11t63.5 -32t45 -53.5t17 -75.5v-192q0 -42 -17 -74.5t-45.5 -54.5t-64.5 -33t-74 -11q-32 0 -61.5 6.5t-58.5 21.5v-200h-80v672zM150 90q29 -11 59.5 -17t61.5 -6q22 0 43.5 6.5t38.5 18.5t27 30t10 41v194q0 22 -10 39.5
t-26.5 29.5t-37.5 18.5t-43 6.5q-31 0 -62.5 -2t-60.5 -10v-349z" />
    <glyph glyph-name="uni0441" unicode="&#x441;" horiz-adv-x="467" 
d="M47 0zM370 388q-25 40 -57 50t-66 10q-23 0 -44.5 -5.5t-38 -17t-27 -29t-10.5 -41.5v-194q0 -23 10 -41t26.5 -30t38.5 -18.5t46 -6.5q38 0 74.5 18t54.5 64l64 -30q-11 -32 -31.5 -56t-46.5 -40t-56 -23.5t-60 -7.5q-37 0 -73 10.5t-64 32.5t-45.5 54t-17.5 76v192
q0 43 17.5 75.5t45.5 54.5t64 32.5t73 10.5q55 0 101.5 -21t84.5 -82z" />
    <glyph glyph-name="uni0442" unicode="&#x442;" horiz-adv-x="430" 
d="M15 441v77h400v-77h-160v-441h-80v441h-160z" />
    <glyph glyph-name="uni0443" unicode="&#x443;" horiz-adv-x="533" 
d="M60 0zM134 -63q21 -26 56.5 -39t70.5 -13q24 0 47 5t41 16.5t29 30t11 45.5v40q-26 -18 -59 -24.5t-65 -7.5q-39 0 -75.5 11.5t-65.5 34t-46.5 56t-17.5 76.5v350h82v-352q0 -24 10.5 -42t27.5 -30.5t38.5 -19.5t44.5 -7q62 0 126 25v426h80v-536q0 -45 -17 -78
t-45.5 -54.5t-64.5 -32t-75 -10.5q-51 0 -102 20.5t-86 59.5z" />
    <glyph glyph-name="uni0444" unicode="&#x444;" horiz-adv-x="698" 
d="M389 514q5 3 14.5 5.5t21 4.5t23.5 3t21 1q29 0 61 -10.5t58.5 -32.5t44 -54.5t17.5 -75.5v-192q0 -44 -17.5 -76t-44 -54t-58.5 -32.5t-61 -10.5q-9 0 -21 1t-23.5 3t-21 4.5t-14.5 5.5v-185h-80v185q-5 -3 -14.5 -5.5t-21 -4.5t-23.5 -3t-21 -1q-29 0 -61 10.5
t-58.5 32.5t-44 54t-17.5 76v192q0 43 17.5 75.5t44 54.5t58.5 32.5t61 10.5q9 0 21 -1t23.5 -3t21 -4.5t14.5 -5.5v194h80v-194zM309 441q-11 5 -29 7.5t-31 2.5q-20 0 -41.5 -6t-39 -18t-29 -30t-11.5 -42v-192q0 -24 11.5 -42t29 -30t39 -18t41.5 -6q13 0 31 2.5t29 7.5
v364zM389 77q11 -5 29 -7.5t31 -2.5q20 0 41.5 6t39 18t29 30t11.5 42v192q0 24 -11.5 42t-29 30t-39 18t-41.5 6q-13 0 -31 -2.5t-29 -7.5v-364z" />
    <glyph glyph-name="uni0445" unicode="&#x445;" horiz-adv-x="483" 
d="M468 0h-98l-128 195l-129 -195h-98l179 259l-179 259h98l129 -196l128 196h98l-178 -259z" />
    <glyph glyph-name="uni0446" unicode="&#x446;" horiz-adv-x="540" 
d="M430 -107v107h-367v518h80v-441h230v441h80v-441h57v-184h-80z" />
    <glyph glyph-name="uni0447" unicode="&#x447;" horiz-adv-x="489" 
d="M116 328q0 -53 31.5 -75.5t76.5 -23.5q31 0 61.5 6t59.5 20v263h80v-518h-80v185q-28 -18 -58 -26.5t-62 -8.5q-38 0 -72 11t-60 33t-41.5 54.5t-15.5 74.5v195h80v-190z" />
    <glyph glyph-name="uni0448" unicode="&#x448;" horiz-adv-x="728" 
d="M144 518v-441h180v441h80v-441h180v441h80v-518h-600v518h80z" />
    <glyph glyph-name="uni0449" unicode="&#x449;" horiz-adv-x="750" 
d="M143 518v-441h180v441h80v-441h180v441h80v-441h57v-184h-80v107h-577v518h80z" />
    <glyph glyph-name="uni044A" unicode="&#x44a;" horiz-adv-x="565" 
d="M14 445v73h202v-181h161q81 0 121.5 -46t40.5 -126q0 -43 -14.5 -74t-40 -51.5t-60 -30t-73.5 -9.5h-215v445h-122zM347 74q48 0 80 20.5t32 71.5q0 29 -8 47.5t-23 30t-36 16t-46 4.5h-130v-190h131z" />
    <glyph glyph-name="uni044B" unicode="&#x44b;" horiz-adv-x="698" 
d="M305 337q81 0 121.5 -46t40.5 -126q0 -43 -14.5 -74t-40 -51.5t-60 -30t-73.5 -9.5h-215v518h80v-181h161zM554 518h80v-518h-80v518zM275 74q48 0 80 20.5t32 71.5q0 29 -8 47.5t-23 30t-36 16t-46 4.5h-130v-190h131z" />
    <glyph glyph-name="uni044C" unicode="&#x44c;" horiz-adv-x="492" 
d="M305 337q81 0 121.5 -46t40.5 -126q0 -43 -14.5 -74t-40 -51.5t-60 -30t-73.5 -9.5h-215v518h80v-181h161zM275 74q48 0 80 20.5t32 71.5q0 29 -8 47.5t-23 30t-36 16t-46 4.5h-130v-190h131z" />
    <glyph glyph-name="uni044D" unicode="&#x44d;" horiz-adv-x="469" 
d="M342 354q0 24 -10.5 41.5t-27 29t-38.5 17t-44 5.5q-35 0 -67.5 -12.5t-46.5 -39.5l-7 -10l-65 39q29 52 80 77.5t106 25.5q37 0 73 -10.5t64 -32.5t45.5 -54.5t17.5 -75.5v-189q0 -44 -17.5 -76t-45.5 -54t-64 -32.5t-73 -10.5q-30 0 -60 7.5t-56 23.5t-46.5 40
t-31.5 56l73 35q12 -42 47 -62t74 -20q22 0 44 5.5t38.5 17t27 28.5t10.5 40v64h-198v70h198v57z" />
    <glyph glyph-name="uni044E" unicode="&#x44e;" horiz-adv-x="721" 
d="M141 0h-80v518h80v-209h132v46q0 43 17.5 75.5t45.5 54t64 32.5t74 11q37 0 73 -11t64 -32.5t45 -54t17 -75.5v-192q0 -44 -17 -76t-45 -53.5t-64 -32.5t-73 -11q-38 0 -74 11t-64 32.5t-45.5 53.5t-17.5 76v72h-132v-235zM474 448q-22 0 -43.5 -5.5t-39 -16.5t-28 -29
t-10.5 -42v-192q0 -24 10.5 -42t28 -29.5t39 -17t43.5 -5.5q21 0 42 5.5t38.5 17t28 29.5t10.5 42v192q0 24 -10.5 42t-28 29t-38.5 16.5t-42 5.5z" />
    <glyph glyph-name="uni044F" unicode="&#x44f;" horiz-adv-x="502" 
d="M186 212q-29 2 -55 12.5t-45.5 29.5t-30.5 46.5t-11 62.5q0 42 13.5 71t37.5 48t56.5 27.5t70.5 8.5h216v-518h-80v212h-77l-168 -212h-98zM358 445h-135q-47 0 -72.5 -19t-25.5 -64q0 -51 27.5 -70.5t81.5 -19.5h124v173z" />
    <glyph glyph-name="uni0451" unicode="&#x451;" 
d="M107 642q0 23 15 38t37 15t37 -15t15 -38q0 -22 -15 -37t-37 -15t-37 15t-15 37zM288 642q0 23 14.5 38t37.5 15q22 0 37 -15t15 -38q0 -22 -15 -37t-37 -15q-23 0 -37.5 15t-14.5 37zM129 156q0 -24 10 -41t27 -28.5t38.5 -17t44.5 -5.5q35 0 68.5 17t49.5 53l70 -30
q-14 -29 -34.5 -50t-45 -35.5t-52.5 -21.5t-56 -7q-38 0 -74 10.5t-64 32t-45.5 54t-17.5 75.5v194q0 43 17.5 75.5t45.5 54t64 32t74 10.5q37 0 72.5 -10.5t63.5 -32t45 -54t17 -75.5v-137h-318v-63zM371 360q0 23 -11 40.5t-28 29.5t-39 18.5t-44 6.5q-25 0 -47 -6.5
t-38.5 -18.5t-25.5 -30t-9 -42v-72h242v74z" />
    <glyph glyph-name="Wgrave" unicode="&#x1e80;" horiz-adv-x="933" 
d="M440 891l82 -134h-82l-107 134h107zM923 708l-205 -708h-102l-149 471l-150 -471h-102l-205 708h87l170 -608l163 519h74l162 -518l171 607h86z" />
    <glyph glyph-name="wgrave" unicode="&#x1e81;" horiz-adv-x="713" 
d="M329 701l82 -134h-82l-107 134h107zM392 510l106 -431h3l35 149l85 290h78l-155 -518h-96l-55 232l-36 173l-36 -174l-56 -231h-96l-156 518h81l85 -290l35 -149h3l103 431h72z" />
    <glyph glyph-name="Wacute" unicode="&#x1e82;" horiz-adv-x="933" 
d="M598 889l-102 -133h-88l85 133h105zM923 708l-205 -708h-102l-149 471l-150 -471h-102l-205 708h87l170 -608l163 519h74l162 -518l171 607h86z" />
    <glyph glyph-name="wacute" unicode="&#x1e83;" horiz-adv-x="713" 
d="M487 699l-102 -133h-88l85 133h105zM392 510l106 -431h3l35 149l85 290h78l-155 -518h-96l-55 232l-36 173l-36 -174l-56 -231h-96l-156 518h81l85 -290l35 -149h3l103 431h72z" />
    <glyph glyph-name="Wdieresis" unicode="&#x1e84;" horiz-adv-x="933" 
d="M325 822q0 23 15 38t37 15t37 -15t15 -38q0 -22 -15 -37t-37 -15t-37 15t-15 37zM506 822q0 23 14.5 38t37.5 15q22 0 37 -15t15 -38q0 -22 -15 -37t-37 -15q-23 0 -37.5 15t-14.5 37zM923 708l-205 -708h-102l-149 471l-150 -471h-102l-205 708h87l170 -608l163 519h74
l162 -518l171 607h86z" />
    <glyph glyph-name="wdieresis" unicode="&#x1e85;" horiz-adv-x="713" 
d="M214 632q0 23 15 38t37 15t37 -15t15 -38q0 -22 -15 -37t-37 -15t-37 15t-15 37zM395 632q0 23 14.5 38t37.5 15q22 0 37 -15t15 -38q0 -22 -15 -37t-37 -15q-23 0 -37.5 15t-14.5 37zM392 510l106 -431h3l35 149l85 290h78l-155 -518h-96l-55 232l-36 173l-36 -174
l-56 -231h-96l-156 518h81l85 -290l35 -149h3l103 431h72z" />
    <glyph glyph-name="Ygrave" unicode="&#x1ef2;" horiz-adv-x="579" 
d="M263 891l82 -134h-82l-107 134h107zM247 0v276l-246 432h97l192 -343l190 343h98l-247 -432v-276h-84z" />
    <glyph glyph-name="ygrave" unicode="&#x1ef3;" horiz-adv-x="533" 
d="M238 701l82 -134h-82l-107 134h107zM134 -63q21 -26 56.5 -39t70.5 -13q24 0 47 5t41 16.5t29 30t11 45.5v40q-26 -18 -59 -24.5t-65 -7.5q-39 0 -75.5 11.5t-65.5 34t-46.5 56t-17.5 76.5v350h82v-352q0 -24 10.5 -42t27.5 -30.5t38.5 -19.5t44.5 -7q62 0 126 25v426h80
v-536q0 -45 -17 -78t-45.5 -54.5t-64.5 -32t-75 -10.5q-51 0 -102 20.5t-86 59.5z" />
    <glyph glyph-name="endash" unicode="&#x2013;" horiz-adv-x="583" 
d="M525 257h-467v81h467v-81z" />
    <glyph glyph-name="emdash" unicode="&#x2014;" horiz-adv-x="991" 
d="M934 257h-877v81h877v-81z" />
    <glyph glyph-name="quoteleft" unicode="&#x2018;" horiz-adv-x="239" 
d="M122 698h84l-69 -243h-96z" />
    <glyph glyph-name="quoteright" unicode="&#x2019;" horiz-adv-x="236" 
d="M125 455h-83l68 243h97z" />
    <glyph glyph-name="quotesinglbase" unicode="&#x201a;" horiz-adv-x="224" 
d="M88 -131h-82l67 229h98z" />
    <glyph glyph-name="quotedblleft" unicode="&#x201c;" horiz-adv-x="397" 
d="M122 698h82l-67 -243h-97zM282 698h82l-67 -243h-97z" />
    <glyph glyph-name="quotedblright" unicode="&#x201d;" horiz-adv-x="389" 
d="M123 455h-82l67 243h97zM279 455h-83l67 243h97z" />
    <glyph glyph-name="quotedblbase" unicode="&#x201e;" horiz-adv-x="381" 
d="M88 -131h-82l67 225h98zM244 -131h-83l68 225h97z" />
    <glyph glyph-name="dagger" unicode="&#x2020;" horiz-adv-x="499" 
d="M26 514h182v184h83v-184h182v-77h-182v-557h-83v557h-182v77z" />
    <glyph glyph-name="daggerdbl" unicode="&#x2021;" horiz-adv-x="555" 
d="M54 141h182v296h-182v76h182v185h83v-185h182v-76h-182v-296h182v-75h-182v-186h-83v186h-182v75z" />
    <glyph glyph-name="bullet" unicode="&#x2022;" horiz-adv-x="425" 
d="M62 349q0 31 12 59t32 48t47.5 32t59.5 12q31 0 58.5 -12t47.5 -32t32 -48t12 -59t-12 -58.5t-32 -48t-47.5 -32.5t-58.5 -12q-32 0 -59.5 12t-47.5 32.5t-32 48t-12 58.5z" />
    <glyph glyph-name="ellipsis" unicode="&#x2026;" horiz-adv-x="609" 
d="M48 53q0 25 17 42t42 17t42 -17t17 -42t-17 -42t-42 -17t-42 17t-17 42zM246 53q0 25 17 42t42 17t42 -17t17 -42t-17 -42t-42 -17t-42 17t-17 42zM444 53q0 25 16.5 42t41.5 17q26 0 42.5 -17t16.5 -42t-16.5 -42t-42.5 -17q-25 0 -41.5 17t-16.5 42z" />
    <glyph glyph-name="perthousand" unicode="&#x2030;" horiz-adv-x="1110" 
d="M589 743l68 -43l-487 -771l-69 43zM336 525q0 -45 -11.5 -81.5t-31.5 -61.5t-48.5 -38.5t-61.5 -13.5q-74 0 -114 49.5t-40 145.5q0 44 11.5 80t32 61t48.5 38.5t62 13.5q72 0 112.5 -50t40.5 -143zM255 525q0 60 -19.5 86.5t-53.5 26.5q-36 0 -53.5 -27t-17.5 -86
q0 -61 17.5 -87t54.5 -26q72 0 72 113zM741 183q0 -45 -11.5 -81t-32 -61t-48.5 -38t-61 -13q-75 0 -114.5 49.5t-39.5 145.5q0 90 43 141t111 51q72 0 112.5 -50t40.5 -144zM1084 183q0 -45 -11.5 -81t-31.5 -61t-48 -38t-61 -13q-75 0 -114.5 49.5t-39.5 145.5
q0 90 42.5 141t111.5 51q71 0 111.5 -50t40.5 -144zM659 183q0 59 -19.5 87t-53.5 28q-36 0 -53 -27t-17 -86q0 -61 17 -87.5t55 -26.5q35 0 53 27t18 85zM1003 183q0 59 -19.5 87t-53.5 28q-36 0 -53.5 -27t-17.5 -86q0 -61 17.5 -87.5t55.5 -26.5q35 0 53 27t18 85z" />
    <glyph glyph-name="guilsinglleft" unicode="&#x2039;" horiz-adv-x="288" 
d="M244 462l-116 -169q28 -41 58.5 -84.5t57.5 -84.5l-69 -41l-142 210l142 211z" />
    <glyph glyph-name="guilsinglright" unicode="&#x203a;" horiz-adv-x="288" 
d="M44 123l116 170q-28 41 -58.5 84.5t-57.5 84.5l70 42l141 -211l-141 -210z" />
    <glyph glyph-name="fraction" unicode="&#x2044;" horiz-adv-x="522" 
d="M70 -37l-65 40l446 732l66 -40z" />
    <glyph glyph-name="Euro" unicode="&#x20ac;" horiz-adv-x="611" 
d="M95 498q0 54 21 95.5t55.5 69t78 41.5t89.5 14q35 0 69.5 -9t65 -27t56 -44.5t42.5 -61.5l-75 -38q-24 49 -68 72.5t-90 23.5q-31 0 -60 -8.5t-52 -26t-37 -43t-14 -58.5v-52h260l-14 -69h-246v-43h262l-14 -68h-248v-57q0 -34 14 -59.5t36.5 -42.5t51.5 -25.5t59 -8.5
q48 0 92 23.5t68 71.5l75 -36q-17 -36 -43 -62.5t-56.5 -44t-65.5 -26.5t-70 -9q-46 0 -89.5 13.5t-77.5 41t-54.5 68.5t-20.5 96v57h-67l15 68h52v43h-63l14 69h49v52z" />
    <glyph glyph-name="uni2113" unicode="&#x2113;" horiz-adv-x="449" 
d="M430 120q-32 -62 -76.5 -96t-101.5 -34q-40 0 -69 14t-48 38.5t-29 57.5t-12 71l-44 -35l-30 57q26 24 42 40.5t32 32.5v258q0 69 13 115t33.5 73.5t46.5 38.5t52 11q30 0 52.5 -12.5t37.5 -34.5t22.5 -52t7.5 -64q0 -94 -51 -185t-136 -179v-22q0 -41 7.5 -69t19.5 -45
t28 -24t34 -7q34 0 63.5 29t46.5 70zM172 343q49 62 80 124.5t31 129.5q0 34 -9.5 60.5t-37.5 26.5q-11 0 -22.5 -7.5t-20.5 -25t-15 -47.5t-6 -75v-186z" />
    <glyph glyph-name="trademark" unicode="&#x2122;" horiz-adv-x="837" 
d="M153 635h-123v73h322v-73h-123v-323h-76v323zM390 708h79l112 -244q27 60 56.5 122t55.5 122h79v-396h-76l3 240l-89 -196h-59l-87 191l2 -235h-76v396z" />
    <glyph glyph-name="Omega" unicode="&#x2126;" horiz-adv-x="781" 
d="M185 79q-27 25 -50 56.5t-40.5 69t-27.5 80.5t-10 92q0 78 26.5 140.5t72.5 106.5t107.5 68t132.5 24q73 0 133.5 -26.5t103.5 -72t67 -106.5t24 -130q0 -50 -10 -94t-27 -82t-40 -70t-48 -56h137v-79h-285v57q40 22 74.5 55t60 74.5t40 90.5t14.5 104q0 46 -16.5 91.5
t-48 82.5t-77.5 60t-104 23q-55 0 -101.5 -20t-80 -55t-52 -83t-18.5 -105q0 -51 15 -97t40.5 -86.5t60.5 -74.5t76 -60v-57h-289v79h140z" />
    <glyph glyph-name="estimated" unicode="&#x212e;" horiz-adv-x="868" 
d="M210 146q0 -4 4 -12q44 -42 103 -70.5t124 -28.5q72 0 134 31.5t108 83.5h92q-31 -36 -69 -65.5t-81 -50.5t-90 -32.5t-95 -11.5q-83 0 -155.5 28t-126.5 77t-85.5 114t-31.5 140t31.5 140.5t85.5 114.5t126.5 77.5t155.5 28.5t155.5 -28.5t126.5 -77.5t85.5 -114.5
t31.5 -140.5v-23h-629v-180zM671 371v183q0 8 -5 13q-45 43 -102 69t-123 26q-64 0 -123 -27.5t-102 -69.5q-6 -6 -6 -15v-179h461z" />
    <glyph glyph-name="partialdiff" unicode="&#x2202;" horiz-adv-x="506" 
d="M67 680q27 22 67 40t95 18q44 0 86 -21t75 -64.5t53 -110.5t20 -160q0 -86 -15.5 -157.5t-45.5 -124t-75.5 -81.5t-105.5 -29q-45 0 -79 18.5t-56.5 49t-34 70t-11.5 82.5q0 57 17 102.5t45.5 78t65.5 49.5t76 17q49 0 83.5 -19.5t55.5 -41.5q0 55 -11.5 103.5
t-32.5 84.5t-50.5 57t-64.5 21q-38 0 -69.5 -15.5t-54.5 -33.5zM223 70q30 0 57 18t47 48t32.5 70.5t14.5 85.5q-5 15 -16.5 30.5t-28 28.5t-37.5 21.5t-45 8.5q-25 0 -47.5 -13.5t-40 -36.5t-27.5 -53.5t-10 -65.5q0 -65 26.5 -103.5t74.5 -38.5z" />
    <glyph glyph-name="Delta" unicode="&#x2206;" horiz-adv-x="593" 
d="M338 714l230 -657v-57h-543v56l231 658h82zM466 80q-44 128 -86 250t-85 249l-173 -499h344z" />
    <glyph glyph-name="product" unicode="&#x220f;" horiz-adv-x="648" 
d="M442 -66v695h-238v-695h-81v695h-97v79h596v-79h-99v-695h-81z" />
    <glyph glyph-name="summation" unicode="&#x2211;" horiz-adv-x="544" 
d="M281 305l-239 334v58h452v-77h-339l221 -312l-237 -318h370v-73h-479v56z" />
    <glyph glyph-name="minus" unicode="&#x2212;" horiz-adv-x="630" 
d="M570 265h-510v78h510v-78z" />
    <glyph glyph-name="uni2215" unicode="&#x2215;" horiz-adv-x="516" 
d="M67 -37l-65 40l446 732l66 -40z" />
    <glyph glyph-name="uni2219" unicode="&#x2219;" horiz-adv-x="226" 
d="M55 315q0 25 16.5 42t42.5 17q25 0 41.5 -17t16.5 -42t-16.5 -42t-41.5 -17q-26 0 -42.5 17t-16.5 42z" />
    <glyph glyph-name="radical" unicode="&#x221a;" horiz-adv-x="525" 
d="M98 291q-15 -5 -34 -12.5t-32 -11.5l-27 72l144 55l117 -381l165 808h84l-204 -967h-72z" />
    <glyph glyph-name="infinity" unicode="&#x221e;" horiz-adv-x="724" 
d="M681 290q0 -36 -13 -65t-34 -49.5t-49 -31.5t-58 -11q-44 0 -81.5 24.5t-82.5 72.5q-17 -19 -35.5 -36.5t-38.5 -31t-43.5 -21.5t-51.5 -8q-32 0 -59.5 12t-47.5 32.5t-32 48.5t-12 61q0 34 11.5 63.5t32.5 50.5t50 33t63 12q26 0 48.5 -8t43 -22t39 -32t35.5 -37
q18 19 36 37t38 31.5t43.5 22t50.5 8.5q33 0 60 -11.5t46.5 -32t30 -49t10.5 -62.5v-1zM200 209q16 0 31 7t29 18t27.5 24.5t25.5 26.5l3 3q-26 31 -55.5 56.5t-67.5 25.5q-35 0 -53 -25t-18 -58q0 -32 21 -55t56 -23h1zM529 370q-15 0 -30 -7t-29.5 -18t-27 -23.5
t-23.5 -24.5l-6 -7q37 -39 63 -60t54 -21q18 0 31.5 7t22.5 18t14 25t5 28q0 41 -21 62t-53 21z" />
    <glyph glyph-name="integral" unicode="&#x222b;" horiz-adv-x="338" 
d="M310 749q-19 13 -33 18t-23 5q-23 0 -37 -23.5t-13 -63.5l5 -251q1 -59 2.5 -121.5t2.5 -120.5t1.5 -108t0.5 -84q0 -38 -11 -66t-29 -46.5t-42 -27.5t-50 -9q-32 0 -76 19l19 67q32 -13 49 -13q28 0 44.5 21t16.5 56q0 29 -0.5 68t-1.5 85t-2 96t-2 101q-1 50 -2 99.5
t-2 93.5t-1.5 82t-0.5 65q0 39 10.5 68t27.5 48.5t40 29.5t47 10q37 0 78 -26z" />
    <glyph glyph-name="approxequal" unicode="&#x2248;" horiz-adv-x="536" 
d="M483 366q-23 -34 -52 -56.5t-68 -22.5q-29 0 -56 12t-57 29q-18 11 -37.5 19.5t-36.5 8.5q-18 0 -35 -15t-33 -37l-56 45q27 39 60 60.5t70 21.5q31 0 54.5 -11t41.5 -22l-1 1l13 -7q3 -2 9 -5t0 -1q1 -2 6 -3q16 -9 30.5 -15t31.5 -6q30 0 63 51zM484 229
q-23 -35 -53 -57t-68 -22q-30 0 -54 10.5t-60 30.5q-19 11 -37 19.5t-36 8.5t-35 -14.5t-32 -37.5l-57 46q26 40 59 61t71 21q29 0 51.5 -10t41.5 -20l6 -4l-4 3l13 -8l5 -2q19 -11 36 -19t36 -8q15 0 29 11t31 33z" />
    <glyph glyph-name="notequal" unicode="&#x2260;" horiz-adv-x="547" 
d="M496 331h-165l-10.5 -24.5t-9 -20.5t-9.5 -21.5t-12 -26.5h206v-77h-240l-21 -46q-6 -14 -15.5 -34t-14.5 -33l-66 34l37 79h-125v77h159q6 13 10.5 24t9 21t9 21.5t11.5 26.5h-199v77h235l19 45l31 65l65 -30l-37 -80h132v-77z" />
    <glyph glyph-name="lessequal" unicode="&#x2264;" horiz-adv-x="486" 
d="M419 242v-90l-360 203v58l360 206v-91l-259 -145zM432 120v-77h-386v77h386z" />
    <glyph glyph-name="greaterequal" unicode="&#x2265;" horiz-adv-x="485" 
d="M426 352l-360 -203v90l259 141l-259 145v91l360 -206v-58zM439 120v-77h-386v77h386z" />
    <glyph glyph-name="lozenge" unicode="&#x25ca;" horiz-adv-x="540" 
d="M304 -30h-72l-210 380l214 381h71l211 -380zM273 612q1 -2 -1 2t-4 6l-6 -11l-144 -257l150 -268l2 -4q1 3 5 9l147 261z" />
    <glyph glyph-name="i.loclTRK" horiz-adv-x="212" 
d="M48 633q0 24 16.5 40.5t40.5 16.5t40.5 -16.5t16.5 -40.5t-16.5 -40.5t-40.5 -16.5t-40.5 16.5t-16.5 40.5zM148 0h-84v518h84v-518z" />
    <glyph glyph-name="uni0414.loclBGR" horiz-adv-x="676" 
d="M388 708l211 -627h65v-206h-82v125h-487v-125h-83v206h65l207 627h104zM165 81h345l-174 537z" />
    <glyph glyph-name="uni041B.loclBGR" horiz-adv-x="604" 
d="M5 0l246 708h102l247 -708h-88l-210 618l-208 -618h-89z" />
    <glyph glyph-name="uni0432.loclBGR" horiz-adv-x="507" 
d="M62 541q0 38 14 70.5t39.5 56t62.5 37t84 13.5q34 0 67 -8.5t58.5 -27t41 -49t15.5 -74.5q0 -27 -7.5 -50.5t-19.5 -43t-28 -33.5t-32 -23q19 -1 37.5 -9t33.5 -23.5t24.5 -38.5t9.5 -54v-122q0 -43 -17 -75t-44.5 -53.5t-63 -32t-72.5 -11.5q-50 0 -101 10t-102 27v514z
M259 433q105 31 105 122q0 44 -26.5 65.5t-77.5 21.5q-55 0 -86.5 -25.5t-31.5 -78.5v-141zM142 79q29 -9 60.5 -12t62.5 -3q22 0 43 6.5t37.5 19t26.5 30.5t10 42v122q0 20 -9.5 36.5t-26 26.5t-39 13.5t-47.5 -1.5q-29 -6 -59 -15.5t-59 -18.5v-246z" />
    <glyph glyph-name="uni0433.loclBGR" horiz-adv-x="445" 
d="M113 146q0 -47 26.5 -65.5t74.5 -18.5q51 0 87.5 14.5t65.5 45.5l49 -48q-38 -45 -88 -64.5t-113 -19.5q-36 0 -69 9t-58 27.5t-40 46.5t-15 66q0 36 12 61.5t34 43.5t54 30.5t72 23.5q19 5 39 10.5t36 14.5t26.5 24t10.5 39q0 34 -25 49t-65 15q-35 0 -66 -10.5
t-57 -34.5l-53 52q36 35 81 53t91 18q28 0 59 -7t56 -23t41.5 -43.5t16.5 -67.5q0 -42 -15.5 -68.5t-40 -42.5t-55 -25.5t-60.5 -17.5q-23 -6 -43 -12.5t-35.5 -16t-24.5 -23.5t-9 -35z" />
    <glyph glyph-name="uni0434.loclBGR" horiz-adv-x="506" 
d="M48 0zM115 -68q8 -11 22.5 -20t32 -16t36 -11t35.5 -4q23 0 45.5 4t40 14.5t28 28.5t10.5 46v43q-29 -15 -58.5 -21t-59.5 -6q-38 0 -73.5 11t-63.5 32.5t-45 54t-17 74.5v196q0 42 16.5 74t44 53.5t62.5 32t72 10.5q26 0 49.5 -2t47.5 -6.5t49 -12.5t55 -20v-513
q0 -44 -17 -75.5t-44.5 -51.5t-62.5 -30t-72 -10q-51 0 -99 19t-83 57zM365 434q-31 12 -59 16.5t-63 4.5q-22 0 -42.5 -7t-37 -19.5t-26 -31t-9.5 -41.5v-198q0 -45 34.5 -71t82.5 -26q34 0 62 5.5t58 16.5v351z" />
    <glyph glyph-name="uni0436.loclBGR" horiz-adv-x="751" 
d="M415 293l222 225h104l-230 -232l225 -286h-101l-180 232l-40 -36v-196h-79v196l-38 36l-182 -232h-101l227 286l-232 232h104l222 -225v415h79v-415z" />
    <glyph glyph-name="uni0438.loclBGR" horiz-adv-x="521" 
d="M458 28q-36 -13 -66 -20.5t-55 -11.5t-45 -5t-36 -1q-37 0 -72 11t-62.5 32.5t-44.5 53.5t-17 75v356h80v-358q0 -23 10 -40.5t26.5 -29.5t37 -18.5t42.5 -6.5q35 0 65.5 4t56.5 13v436h80v-490z" />
    <glyph glyph-name="uni0439.loclBGR" horiz-adv-x="521" 
d="M263 569q-23 0 -45 8t-40 23.5t-30.5 39t-15.5 54.5h73q6 -26 22.5 -38.5t35.5 -12.5t35.5 12.5t22.5 38.5h73q-3 -31 -15.5 -54.5t-30.5 -39t-40.5 -23.5t-44.5 -8zM458 518h-80v-436q-26 -9 -56.5 -13t-65.5 -4q-22 0 -42.5 6.5t-37 18.5t-26.5 29.5t-10 40.5v358h-80
v-356q0 -43 17 -75t44.5 -53.5t62.5 -32.5t72 -11q16 0 36 1t45 5t55 11.5t66 20.5v490z" />
    <glyph glyph-name="uni043A.loclBGR" horiz-adv-x="498" 
d="M144 278l120 120l120 120h104l-234 -236l229 -282h-101l-184 225l-54 -54v-171h-80v708h80v-430z" />
    <glyph glyph-name="uni043B.loclBGR" horiz-adv-x="458" 
d="M95 0h-85l172 518h103l162 -518h-85l-105 344l-26 103h-2l-26 -104z" />
    <glyph glyph-name="uni043F.loclBGR" horiz-adv-x="519" 
d="M62 485q50 17 101.5 30t100.5 13q37 -1 72 -11.5t62.5 -31.5t44 -52.5t16.5 -74.5v-358h-79v361q0 24 -10.5 41.5t-27 29t-37 17t-41.5 5.5q-35 0 -67.5 -7.5t-54.5 -15.5v-431h-80v485z" />
    <glyph glyph-name="uni0442.loclBGR" horiz-adv-x="794" 
d="M62 481q36 20 82.5 33.5t93.5 13.5q43 0 84.5 -14t71.5 -45q29 30 69.5 44.5t76.5 14.5q42 0 77.5 -10.5t61.5 -31.5t40.5 -53.5t14.5 -77.5v-355h-80v361q0 27 -9.5 45.5t-25.5 29.5t-37 15t-43 4q-18 0 -36.5 -5t-33.5 -14.5t-25 -23.5t-10 -32v-380h-78v374
q0 34 -25.5 52.5t-60.5 24.5t-71 0.5t-57 -20.5v-431h-80v481z" />
    <glyph glyph-name="uni0446.loclBGR" horiz-adv-x="541" 
d="M258 -9q-37 0 -72.5 11t-63.5 32.5t-45.5 53.5t-17.5 75v356h80v-358q0 -23 10 -40.5t26.5 -29.5t37 -18.5t42.5 -6.5q35 0 63 2t54 10v441h80v-423h58v-108l-12 -95h-71l3 130q-35 -15 -81 -23.5t-91 -8.5z" />
    <glyph glyph-name="uni0448.loclBGR" horiz-adv-x="785" 
d="M723 37q-36 -20 -83.5 -33.5t-91.5 -13.5q-43 0 -83 15t-70 46q-29 -30 -66.5 -45.5t-79.5 -15.5q-40 0 -74.5 10.5t-60 31.5t-40 53.5t-14.5 77.5v355h80v-353q0 -55 30.5 -76t74.5 -20q18 0 37 5t35.5 15t27 24t10.5 32v373h78v-373q0 -21 10 -36t26 -25t36.5 -14.5
t42.5 -4.5q27 0 53 6t42 17v430h80v-481z" />
    <glyph glyph-name="uni0449.loclBGR" horiz-adv-x="812" 
d="M782 -12l-12 -95h-69l3 129q-35 -14 -76.5 -23t-79.5 -9q-43 0 -83 15t-70 46q-29 -30 -66.5 -45.5t-79.5 -15.5q-40 0 -74.5 10.5t-60 31.5t-40 53.5t-14.5 77.5v355h80v-353q0 -55 30.5 -76t74.5 -20q18 0 37 5t35.5 15t27 24t10.5 32v373h78v-373q0 -21 10 -36t26 -25
t36.5 -14.5t42.5 -4.5q27 0 53 3.5t42 11.5v438h80v-422h59v-108z" />
    <glyph glyph-name="uni044E.loclBGR" horiz-adv-x="722" 
d="M143 0h-80v708h80v-399h132v46q0 43 17.5 75.5t45.5 54t64 32.5t74 11q37 0 73 -11t64 -32.5t45 -54t17 -75.5v-192q0 -44 -17 -76t-45 -53.5t-64 -32.5t-73 -11q-38 0 -74 11t-64 32.5t-45.5 53.5t-17.5 76v72h-132v-235zM476 448q-22 0 -43.5 -5.5t-39 -16.5t-28 -29
t-10.5 -42v-192q0 -24 10.5 -42t28 -29.5t39 -17t43.5 -5.5q21 0 42 5.5t38.5 17t28 29.5t10.5 42v192q0 24 -10.5 42t-28 29t-38.5 16.5t-42 5.5z" />
    <glyph glyph-name="f_i" horiz-adv-x="490" 
d="M257 631q-54 0 -83.5 -25t-29.5 -70v-67h106v-79h-106v-390h-80v536q0 43 15 75.5t41 54t61 32.5t76 11v-78zM329 662q0 24 16.5 40t39.5 16q24 0 40 -16t16 -40q0 -23 -16 -39.5t-40 -16.5q-23 0 -39.5 16.5t-16.5 39.5zM427 518v-518h-80v518h80z" />
    <glyph glyph-name=".ttfautohint" horiz-adv-x="490" 
d="M0 0z" />
    </font>
</defs>
</svg>
