<?xml version="1.0" standalone="no"?>
<!DOCTYPE svg PUBLIC "-//W3C//DTD SVG 1.1//EN" "http://www.w3.org/Graphics/SVG/1.1/DTD/svg11.dtd" >
<svg xmlns="http://www.w3.org/2000/svg" xmlns:xlink="http://www.w3.org/1999/xlink" version="1.1">
<metadata>
Created by FontForge 20170731 at Fri May 16 14:40:50 2014
 By Aleksey,,,
Copyright (c) 2014 by (c) 2009 Designed by Svetoslav Simov (c) Fontfabric, Inc. All rights reserved.
</metadata>
<defs>
<font id="UniSansLightItalic" horiz-adv-x="519" >
  <font-face 
    font-family="Uni Sans Light Italic"
    font-weight="300"
    font-style="italic"
    font-stretch="normal"
    units-per-em="1000"
    panose-1="0 0 5 0 0 0 0 0 0 0"
    ascent="756"
    descent="-244"
    x-height="517"
    cap-height="708"
    bbox="-103 -254 977.429 921"
    underline-thickness="50"
    underline-position="-150"
    unicode-range="U+0020-FB02"
  />
<missing-glyph horiz-adv-x="563" 
d="M519 0h-480l99 708h480zM331 377l232 301h-378zM161 656l-85 -604l234 298zM346 350l150 -298l85 604zM94 30h378l-148 293z" />
    <glyph glyph-name="fi" unicode="fi" horiz-adv-x="451" 
d="M373 680q2 14 14 24.5t26 10.5t23 -10.5t7 -24.5t-14 -24.5t-26 -10.5t-23 10.5t-7 24.5zM333 -1h-36l73 519h36zM-22 -150q23 19 33.5 44.5t14.5 51.5l86 615q5 37 20 67.5t37.5 51t52 30t65.5 5.5l-5 -31q-28 4 -51 -3.5t-41 -24.5t-29 -41.5t-15 -53.5l-11 -69h112
l-4 -30h-112l-71 -516q-5 -39 -23.5 -69.5t-42.5 -49.5z" />
    <glyph glyph-name="fl" unicode="fl" horiz-adv-x="482" 
d="M431 -10q-66 2 -96.5 40.5t-19.5 113.5l78 564h36l-78 -564q-8 -57 11.5 -87.5t73.5 -30.5zM-22 -150q23 19 33.5 44.5t14.5 51.5l86 615q5 37 20 67.5t37.5 51t52 30t65.5 5.5l-5 -31q-28 4 -51 -3.5t-41 -24.5t-29 -41.5t-15 -53.5l-11 -69h112l-4 -30h-112l-71 -516
q-5 -39 -23.5 -69.5t-42.5 -49.5z" />
    <glyph glyph-name=".notdef" horiz-adv-x="563" 
d="M519 0h-480l99 708h480zM331 377l232 301h-378zM161 656l-85 -604l234 298zM346 350l150 -298l85 604zM94 30h378l-148 293z" />
    <glyph glyph-name=".null" horiz-adv-x="0" 
 />
    <glyph glyph-name="nonmarkingreturn" horiz-adv-x="333" 
 />
    <glyph glyph-name="space" unicode=" " horiz-adv-x="238" 
 />
    <glyph glyph-name="exclam" unicode="!" horiz-adv-x="197" 
d="M136 709h39l-81 -578h-39zM23 34q2 16 15 27t29 11t25 -11t7 -27t-14.5 -27t-28.5 -11t-25.5 11t-7.5 27z" />
    <glyph glyph-name="quotedbl" unicode="&#x22;" horiz-adv-x="267" 
d="M168 708q-6 -27 -11.5 -50t-10.5 -45t-10.5 -45t-11.5 -50h-23l27 190h40zM216 518h-23l27 190h39z" />
    <glyph glyph-name="numbersign" unicode="#" horiz-adv-x="732" 
d="M646 266q-4 -11 -7 -17.5t-7 -16.5h-187q-23 -54 -49.5 -116t-49.5 -116h-38l100 232h-186q-23 -54 -49.5 -116t-49.5 -116h-38l100 232h-158l12 34h162l78 181h-182l13 35h185l98 226h39l-99 -226h185l98 226h40l-100 -226h162l-15 -35h-164l-77 -181h184zM239 266h185
l78 181h-185z" />
    <glyph glyph-name="dollar" unicode="$" horiz-adv-x="573" 
d="M308 384q43 -8 85 -19.5t72 -34.5t43.5 -59.5t0.5 -93.5q-10 -43 -35 -76.5t-59.5 -57t-76.5 -37t-85 -16.5l-14 -101h-29l14 101q-73 5 -130.5 35t-77.5 89l38 15q17 -45 65.5 -70.5t109.5 -30.5l46 325q-41 9 -79.5 20.5t-66 32t-41.5 52t-5 81.5q7 42 30 73.5t56 54
t74 35.5t83 16l14 96h29l-14 -96q77 -2 128.5 -28.5t71.5 -82.5l-37 -14q-19 47 -60.5 65t-107.5 22zM121 537q-8 -37 2.5 -61.5t33 -41t54.5 -27t69 -18.5l41 291q-35 -3 -68.5 -13.5t-60.5 -28t-45.5 -43t-25.5 -58.5zM258 28q36 3 71 13.5t64 29.5t49 45.5t28 60.5
q10 48 1.5 77t-31.5 46.5t-58.5 27.5t-78.5 19z" />
    <glyph glyph-name="percent" unicode="%" horiz-adv-x="711" 
d="M38 -37l611 791l30 -21l-610 -790zM349 525q-6 -42 -20.5 -75.5t-36.5 -56.5t-49 -35.5t-57 -12.5q-66 0 -95.5 46.5t-16.5 135.5q12 88 57.5 133.5t105.5 45.5q65 0 94.5 -47t17.5 -134zM311 525q11 75 -10.5 109.5t-69.5 34.5q-98 0 -118 -142q-11 -77 8 -110.5
t70 -33.5q50 0 80 34t40 108zM652 180q-12 -85 -57 -132t-105 -47q-67 0 -96.5 46t-16.5 135q13 91 57.5 135t105.5 44q64 0 94 -48t18 -133zM615 180q11 75 -11 110t-70 35q-51 0 -79 -35t-39 -108q-11 -77 8.5 -110.5t71.5 -33.5q49 0 78.5 34t40.5 108z" />
    <glyph glyph-name="ampersand" unicode="&#x26;" horiz-adv-x="619" 
d="M513 289l28 -15l-79 -105l98 -133h-47l-75 99q-53 -60 -108 -94.5t-126 -34.5q-42 0 -77 13t-58.5 38t-34.5 59.5t-5 78.5q5 38 23 67.5t43.5 53.5t57.5 44t65 38l-26 38t-22.5 39.5t-14 41.5t-1.5 43q5 35 22.5 62.5t43 47t56.5 30t64 10.5q29 0 54 -10.5t43 -29
t26.5 -44t4.5 -55.5q-5 -35 -21.5 -61t-40.5 -46.5t-53.5 -36.5t-59.5 -31l-17 -9l165 -196zM332 674q-25 0 -48.5 -8t-42 -23t-31.5 -35.5t-17 -45.5q-3 -21 2.5 -41t15.5 -39t22 -36t23 -32q25 12 54 26t54 32t43 41t22 54q7 48 -20.5 77.5t-76.5 29.5zM240 373
q-28 -15 -56.5 -32t-52.5 -38t-41 -47t-22 -59q-10 -72 29 -114t120 -42q30 0 57.5 10.5t53 27t48 38t40.5 43.5l-4 6z" />
    <glyph glyph-name="quotesingle" unicode="'" horiz-adv-x="178" 
d="M130 517h-29l27 191h39z" />
    <glyph glyph-name="parenleft" unicode="(" horiz-adv-x="250" 
d="M278 750q-72 -87 -118 -193t-61.5 -215.5t1 -216t68.5 -195.5q-9 -6 -17.5 -10t-16.5 -9q-55 96 -73 207t-2 225t65 224.5t127 204.5z" />
    <glyph glyph-name="parenright" unicode=")" horiz-adv-x="253" 
d="M-22 -99q78 96 123 204t59 218t-3 217t-63 200q9 6 17 10t16 9q52 -94 70.5 -207t3 -230t-64 -231.5t-129.5 -210.5z" />
    <glyph glyph-name="asterisk" unicode="*" horiz-adv-x="441" 
d="M270 556q36 11 76 23t77 24l5 -29l-155 -46l79 -127l-26 -19l-78 129q-24 -29 -54 -63.5t-56 -64.5q-6 5 -10.5 9.5t-9.5 8.5l114 129l-146 47q6 17 13 28l144 -49l19 153h31z" />
    <glyph glyph-name="plus" unicode="+" horiz-adv-x="587" 
d="M319 585h37l-32 -225h222l-5 -38h-222l-32 -227h-37l32 227h-231l5 38h231z" />
    <glyph glyph-name="comma" unicode="," horiz-adv-x="209" 
d="M101 56q-13 -27 -25 -49t-23.5 -43t-23.5 -43t-25 -49h-36l85 184h48z" />
    <glyph glyph-name="hyphen" unicode="-" horiz-adv-x="424" 
d="M350 281h-283l5 38h283z" />
    <glyph glyph-name="period" unicode="." horiz-adv-x="210" 
d="M31 35q2 16 15 27t29 11t25 -11t7 -27t-14.5 -27t-28.5 -11t-25.5 11t-7.5 27z" />
    <glyph glyph-name="slash" unicode="/" horiz-adv-x="381" 
d="M14 -24q-10 4 -17.5 6t-15.5 5l401 745l32 -11z" />
    <glyph glyph-name="zero" unicode="0" horiz-adv-x="626" 
d="M270 -10q-44 0 -86 12t-74 36t-49 61t-10 87l47 336q7 51 34.5 88t66 61t84 35.5t89.5 11.5q43 0 85 -11.5t73.5 -35.5t48.5 -61t10 -88l-47 -336q-7 -50 -34.5 -87t-65.5 -61t-83.5 -36t-88.5 -12zM90 186q-6 -44 9 -73.5t42 -48.5t62.5 -27t71.5 -8q35 0 73 8t70.5 27
t55.5 48.5t29 73.5l47 336q6 44 -8.5 74t-41.5 48.5t-62.5 26.5t-70.5 8q-36 0 -74 -8t-70.5 -26.5t-56 -48.5t-29.5 -74z" />
    <glyph glyph-name="one" unicode="1" horiz-adv-x="294" 
d="M168 0h-38l93 665l-150 -138l-24 23l172 159h46z" />
    <glyph glyph-name="two" unicode="2" horiz-adv-x="553" 
d="M328 680q-64 2 -116.5 -24.5t-84.5 -78.5l-32 16q42 70 100 97t139 28q49 0 88 -14t65 -39t37.5 -60t5.5 -78q-6 -42 -35 -86t-77 -86l-353 -316h400l-5 -39h-447l-10 32l392 349q86 77 97 147q4 31 -5 58t-30.5 47.5t-54 32.5t-74.5 14z" />
    <glyph glyph-name="three" unicode="3" horiz-adv-x="574" 
d="M49 124q10 -24 28.5 -42t43 -29.5t54 -17.5t61.5 -6q39 0 77.5 10t70.5 30t53.5 50.5t27.5 71.5q13 89 -30.5 133.5t-130.5 43.5h-49l5 34h49q67 0 115 33t58 105q5 37 -6.5 63.5t-34.5 44t-54 26t-64 8.5q-53 0 -102 -20t-80 -60l-29 18q35 51 94.5 74.5t123.5 23.5
q40 0 77 -10.5t64 -32.5t40.5 -55.5t7.5 -79.5q-3 -21 -10 -43t-20 -42.5t-32.5 -38t-47.5 -29.5q34 -13 55 -34t31.5 -47t11.5 -55.5t-3 -60.5q-8 -50 -34.5 -87.5t-64.5 -62.5t-84 -37.5t-92 -12.5q-75 0 -133.5 28t-84.5 89z" />
    <glyph glyph-name="four" unicode="4" horiz-adv-x="570" 
d="M514 229l-5 -34h-59l-27 -195h-39l27 195h-381l-16 34l457 479h51l-67 -479h59zM58 229h359l63 438z" />
    <glyph glyph-name="five" unicode="5" horiz-adv-x="579" 
d="M65 125q20 -45 69 -68t109 -23q39 0 79 11.5t73 34t55.5 55t27.5 74.5l5 48q4 42 -8 74t-36.5 54t-59 33.5t-74.5 11.5q-56 0 -102 -10t-99 -34l-19 -2l46 324h418l-6 -39h-379l-33 -235q49 19 92.5 28t86.5 8q44 0 85.5 -14t71.5 -40.5t46 -66t9 -91.5l-5 -49
q-8 -51 -35 -91t-66 -67.5t-85.5 -42t-92.5 -14.5q-36 0 -68.5 6.5t-60 20t-48.5 35t-34 52.5z" />
    <glyph glyph-name="six" unicode="6" horiz-adv-x="620" 
d="M551 590q-10 22 -28.5 39t-42 28t-51.5 17t-58 6q-41 0 -81 -10t-72.5 -29.5t-54.5 -49.5t-28 -70l-25 -176q26 31 54.5 50t57.5 29.5t58.5 14t57.5 3.5q47 0 89.5 -12.5t73.5 -37t47 -61t10 -85.5l-7 -60q-6 -49 -32 -85.5t-64 -61t-85 -37t-94 -12.5q-48 0 -91.5 12
t-76 36.5t-49 61.5t-9.5 86l46 336q7 49 34 86t66 61.5t86 36.5t95 12q36 0 69 -7t61 -20.5t49 -34t32 -48.5zM519 245q5 40 -8.5 69.5t-39.5 49.5t-62 30t-76 10q-41 0 -81.5 -10t-73.5 -29.5t-55 -49.5t-27 -70l-7 -58q-5 -40 9 -70t41 -49.5t64 -29.5t78 -10
q40 0 79.5 10t71.5 30t53.5 49.5t26.5 69.5z" />
    <glyph glyph-name="seven" unicode="7" horiz-adv-x="497" 
d="M89 708h430l11 -33l-469 -675h-44l466 671h-399z" />
    <glyph glyph-name="eight" unicode="8" horiz-adv-x="616" 
d="M253 -10q-46 0 -88 13.5t-72.5 39t-46 63t-9.5 85.5q9 70 51 120t112 70q-26 9 -43 25t-26.5 37t-12 45t0.5 49q7 45 29.5 78.5t55.5 56t72.5 34t79.5 11.5h19q40 0 76.5 -11.5t63.5 -34t40 -56t7 -78.5q-3 -21 -11.5 -44t-22.5 -43.5t-35.5 -37.5t-49.5 -27
q63 -23 89 -74t15 -120q-8 -48 -34.5 -85.5t-64.5 -63t-84 -39t-92 -13.5h-19zM351 681q-33 0 -66 -8.5t-60 -26.5t-45.5 -45t-23.5 -64q-6 -42 5.5 -68.5t34 -42t53.5 -21t63 -5.5h19q32 0 64 5.5t59 21t46 42t25 68.5q5 37 -6 64t-33 45t-52.5 26.5t-63.5 8.5h-19zM277 27
q36 0 74 10t71 30.5t56.5 51.5t29.5 73q7 51 -5 84t-38 52.5t-62.5 27.5t-76.5 8h-19q-41 0 -79.5 -8t-70 -27.5t-53.5 -52.5t-29 -84q-6 -42 8.5 -73t41.5 -51.5t62 -30.5t71 -10h19z" />
    <glyph glyph-name="nine" unicode="9" horiz-adv-x="620" 
d="M82 118q20 -44 69.5 -67t108.5 -23q41 0 81 10t73 29.5t55 49.5t28 70l24 174q-26 -29 -54.5 -47t-57 -27.5t-57.5 -12.5t-57 -3q-47 0 -90 12.5t-74.5 37t-47.5 61t-9 85.5l8 54q7 49 33 85.5t64 61t84.5 37t93.5 12.5q48 0 91.5 -12t75.5 -36.5t48.5 -61.5t10.5 -86
l-47 -335q-7 -49 -34 -86t-66 -61.5t-86 -36.5t-95 -12q-36 0 -69.5 7t-61 20.5t-48.5 34t-32 48.5zM113 468q-6 -40 7.5 -69.5t40 -49.5t63 -30t76.5 -10q41 0 81 10t72.5 29.5t54.5 49.5t28 70l8 52q6 40 -8 70t-41.5 49.5t-64.5 29.5t-78 10q-40 0 -79 -10t-71 -30
t-54 -49.5t-27 -69.5z" />
    <glyph glyph-name="colon" unicode=":" horiz-adv-x="216" 
d="M88 435q2 16 14.5 27t28.5 11t25.5 -11t7.5 -27t-15 -27t-29 -11t-25 11t-7 27zM35 57q2 16 14.5 27t28.5 11t25.5 -11t7.5 -27t-15 -27t-29 -11t-25 11t-7 27z" />
    <glyph glyph-name="semicolon" unicode=";" horiz-adv-x="263" 
d="M111 420q2 16 14.5 27t28.5 11t25.5 -11t7.5 -27t-15 -27t-29 -11t-25 11t-7 27zM47 -106h-39l73 166h57z" />
    <glyph glyph-name="less" unicode="&#x3c;" horiz-adv-x="437" 
d="M74 303q65 -41 137 -85t137 -86l-6 -42l-304 195l5 36l359 198l-6 -43z" />
    <glyph glyph-name="equal" unicode="=" horiz-adv-x="533" 
d="M466 355h-387l5 34h387zM447 217h-387l5 35h387z" />
    <glyph glyph-name="greater" unicode="&#x3e;" horiz-adv-x="438" 
d="M394 285l-360 -195l6 40l322 173l-274 173l6 43l305 -198z" />
    <glyph glyph-name="question" unicode="?" horiz-adv-x="452" 
d="M72 634q38 38 85.5 57t99.5 19q41 0 78 -12.5t64 -37t40 -61t6 -84.5q-7 -47 -29.5 -83t-54.5 -62t-71 -42t-80 -23q-3 -19 -7.5 -44t-9.5 -51.5t-9.5 -52t-8.5 -44.5h-29l26 224q41 1 81.5 14t73 36t54.5 55.5t27 73.5q5 39 -6.5 68.5t-34 49t-53 29.5t-64.5 10
q-20 0 -41.5 -5t-42.5 -13.5t-40.5 -20t-35.5 -24.5zM156 70q15 0 24 -11t7 -27t-14 -26.5t-27 -10.5q-16 0 -25.5 10.5t-7.5 26.5t14.5 27t28.5 11z" />
    <glyph glyph-name="at" unicode="@" horiz-adv-x="771" 
d="M492 210q-8 -16 -13 -30.5t-6 -19.5t-0.5 -11.5t3.5 -12t9.5 -9t17.5 -3.5q27 0 60 22.5t63 58t52.5 79.5t28.5 87q8 57 -9.5 104t-53 80t-85.5 51.5t-107 18.5q-72 0 -134.5 -26.5t-111.5 -71t-80.5 -103.5t-40.5 -123q-11 -77 14.5 -144.5t77 -113t125 -62t159.5 8.5
q3 -8 5 -14.5t5 -12.5q-62 -20 -119.5 -19t-107 18.5t-89 50.5t-65.5 77t-36.5 98t-1.5 113q10 74 47 138.5t91.5 112.5t122.5 75.5t142 27.5q69 0 125.5 -21.5t94.5 -60t55.5 -90.5t9.5 -112q-8 -59 -37 -111t-67 -90t-79.5 -59.5t-75.5 -19.5q-27 2 -35 20.5t-3 57.5
q-35 -38 -76 -58t-76 -20q-30 0 -51.5 10.5t-34 29t-17 43t-0.5 51.5q7 49 29.5 98.5t56.5 89t78.5 64t95.5 24.5q15 0 32 -5.5t31 -17.5t23.5 -32t9.5 -50q4 7 9.5 18l11.5 23t11.5 24t10.5 20h34zM222 227q-6 -45 15 -74.5t64 -29.5q37 0 73 24t65.5 59.5t49.5 76t25 74.5
q7 52 -10.5 82t-64.5 30q-45 1 -83 -23t-66 -60t-45.5 -79t-22.5 -80z" />
    <glyph glyph-name="A" unicode="A" horiz-adv-x="599" 
d="M544 0h-42l-55 246h-317l-120 -246h-42l360 708h57zM150 285h290l-88 394z" />
    <glyph glyph-name="B" unicode="B" horiz-adv-x="630" 
d="M485 368q30 -12 47.5 -32t25.5 -43.5t8.5 -49.5t-3.5 -51q-8 -53 -31 -90t-56.5 -60t-76 -33t-90.5 -10h-265l100 710h266q39 0 72.5 -11.5t56.5 -34t33.5 -55t4.5 -75.5q-5 -42 -28 -82.5t-65 -63.5l-31 -12zM366 392q67 0 115.5 33.5t58.5 106.5q5 35 -3.5 61.5t-27 44
t-45.5 26.5t-59 9h-227l-39 -281h227zM316 38q41 -1 76.5 6.5t62.5 25.5t45.5 48t24.5 75q12 89 -33 127t-131 37h-227l-45 -319h227z" />
    <glyph glyph-name="C" unicode="C" horiz-adv-x="587" 
d="M98 511q7 51 35 89t68 64t88 39t96 13q35 0 68.5 -6.5t62 -20.5t50 -35t32.5 -50l-37 -18q-21 45 -72.5 68t-111.5 23q-40 0 -80.5 -10.5t-74 -31t-56.5 -51.5t-29 -73l-44 -316q-6 -42 8.5 -73t42 -51.5t65 -31t77.5 -10.5q60 0 118 23t93 68l31 -17q-19 -29 -47 -50
t-60.5 -35t-68.5 -21t-72 -7q-47 0 -91 13t-76.5 38.5t-49 64t-9.5 89.5z" />
    <glyph glyph-name="D" unicode="D" horiz-adv-x="641" 
d="M389 708q48 0 89 -11t70 -35t42 -61.5t6 -89.5l-44 -315q-7 -52 -31 -89t-59 -61t-79.5 -35t-92.5 -11h-246l99 708h246zM295 39q40 0 77 9t66.5 27.5t49 48.5t25.5 72l44 315q6 42 -5 72t-35 49t-58.5 28t-74.5 9h-207l-89 -630h207z" />
    <glyph glyph-name="E" unicode="E" horiz-adv-x="563" 
d="M135 374h359l-6 -40h-359l-41 -295h389l-5 -39h-428l99 708h428l-5 -39h-389z" />
    <glyph glyph-name="F" unicode="F" horiz-adv-x="547" 
d="M177 669l-44 -309h345l-5 -39h-345l-45 -320h-39l99 707h422l-5 -39h-383z" />
    <glyph glyph-name="G" unicode="G" horiz-adv-x="632" 
d="M98 513q7 51 34 89t67 64t87.5 39t95.5 13q35 0 68.5 -7t61.5 -21t49.5 -35t32.5 -50l-37 -18q-10 24 -28.5 41.5t-42.5 28.5t-52.5 16.5t-58.5 5.5q-40 0 -80 -10.5t-73.5 -31t-56 -51.5t-28.5 -73l-43 -315q-6 -42 8.5 -73.5t41.5 -52.5t64 -31.5t78 -10.5
q40 0 80.5 10.5t74.5 31.5t57 52.5t29 73.5l15 105h-217l5 39h256l-20 -144q-8 -52 -35 -91t-67 -65t-87.5 -39t-95.5 -13t-92 13t-76 39t-48.5 65t-9.5 91z" />
    <glyph glyph-name="H" unicode="H" horiz-adv-x="685" 
d="M83 0h-39l99 708h39l-47 -335h433l47 335h39l-99 -708h-39l46 334h-433z" />
    <glyph glyph-name="I" unicode="I" horiz-adv-x="213" 
d="M83 0h-39l99 707h39z" />
    <glyph glyph-name="J" unicode="J" horiz-adv-x="581" 
d="M280 708h275l-72 -514q-7 -51 -33.5 -89t-65 -63.5t-84 -38.5t-91.5 -13q-39 0 -75.5 9.5t-65 29t-47.5 49t-23 68.5l38 8q4 -32 20 -56t41 -40t56 -24t64 -8q38 0 76 10.5t69.5 31.5t53.5 52.5t28 73.5l67 475h-236z" />
    <glyph glyph-name="K" unicode="K" horiz-adv-x="598" 
d="M124 295l464 413h52l-379 -343l279 -364h-49l-262 338l-113 -99l-33 -239h-39l99 707h39z" />
    <glyph glyph-name="L" unicode="L" horiz-adv-x="495" 
d="M44 1l99 708h39l-94 -669h354l-5 -39h-393z" />
    <glyph glyph-name="M" unicode="M" horiz-adv-x="799" 
d="M178 679l-95 -679h-39l99 708h68l167 -556l324 556h66l-99 -708h-39l95 678l-332 -571h-42z" />
    <glyph glyph-name="N" unicode="N" horiz-adv-x="672" 
d="M509 49l93 659h39l-99 -708h-57l-311 648l-91 -648h-39l99 708h49z" />
    <glyph glyph-name="O" unicode="O" horiz-adv-x="679" 
d="M97 511q7 52 35.5 90.5t70.5 64.5t92 39t101 13t97.5 -13t81 -39t52.5 -64.5t11 -90.5l-44 -313q-7 -52 -36 -91t-70.5 -65t-92 -39t-101.5 -13t-97.5 13t-81 39t-52 65t-10.5 91zM92 198q-6 -42 9.5 -74t44.5 -53t69 -31.5t84 -10.5q43 0 86.5 10.5t79 31.5t60 53
t30.5 74l44 313q6 45 -9.5 77t-45.5 52.5t-70.5 30t-83.5 9.5t-86 -10t-78 -31t-59.5 -52.5t-30.5 -75.5z" />
    <glyph glyph-name="P" unicode="P" horiz-adv-x="604" 
d="M44 1l99 707h257q55 -1 94.5 -20t63 -49.5t32.5 -69t3.5 -79t-24.5 -79t-51.5 -68.5t-77 -49t-100.5 -19h-219l-38 -274h-39zM345 314q63 0 108 26.5t71 65.5t32 85t-9.5 85.5t-53 65.5t-98.5 27h-218l-50 -355h218z" />
    <glyph glyph-name="Q" unicode="Q" horiz-adv-x="677" 
d="M526 -15l-38 57q-45 -26 -95 -39t-98 -13q-51 0 -97.5 13t-81 39t-52 65t-10.5 91l42 313q7 52 35 90.5t69.5 64.5t92 39t103.5 13q51 0 97.5 -13t80.5 -39t51.5 -64.5t10.5 -90.5l-42 -313q-6 -40 -26 -73.5t-48 -59.5l41 -60zM501 97q22 23 36 48t18 53l42 313
q6 45 -9.5 77t-45 52.5t-70 30t-83.5 9.5t-86 -10t-78 -31t-59.5 -52.5t-30.5 -75.5l-42 -313q-6 -42 9.5 -74t45 -53t69 -31.5t83.5 -10.5q42 0 86 10.5t83 33.5l-48 79l33 21z" />
    <glyph glyph-name="R" unicode="R" horiz-adv-x="611" 
d="M471 0l-195 310h-150l-43 -310h-39l99 708h257q48 0 87 -11.5t66 -35.5t39.5 -62t6.5 -90q-8 -57 -30 -95t-55 -61.5t-76 -33t-93 -9.5h-23l195 -310h-46zM350 344q93 0 145 37t65 127q6 45 -3.5 76t-31.5 50t-55 27.5t-74 7.5h-219l-46 -325h219z" />
    <glyph glyph-name="S" unicode="S" horiz-adv-x="582" 
d="M126 545q-8 -38 3 -65t36 -46.5t60.5 -32.5t76.5 -21q43 -9 85.5 -22t74 -36.5t46.5 -59.5t5 -90q-8 -45 -34.5 -78.5t-63.5 -56.5t-81.5 -34.5t-89.5 -11.5q-35 0 -70.5 7.5t-65.5 23t-53.5 38.5t-34.5 54l37 16q10 -25 29.5 -44t45.5 -32t56.5 -19.5t62.5 -6.5
q36 0 71 8t65.5 25.5t53 45t33.5 66.5q9 46 -4.5 75.5t-41 48.5t-65.5 29.5t-77 19.5q-40 9 -79 22.5t-68.5 36.5t-44.5 57t-6 84q8 43 33 75.5t60.5 54t78.5 32t87 10.5q36 0 71 -7.5t64.5 -22t52 -37t33.5 -52.5l-37 -15q-9 24 -28.5 42.5t-45 31t-55.5 19t-60 6.5
q-36 0 -71.5 -7t-65 -23.5t-50.5 -43t-29 -64.5z" />
    <glyph glyph-name="T" unicode="T" horiz-adv-x="546" 
d="M579 669h-236l-94 -669h-39l94 669h-236l5 39h511z" />
    <glyph glyph-name="U" unicode="U" horiz-adv-x="676" 
d="M107 201q-6 -43 8 -75t41.5 -53.5t64.5 -32t78 -10.5q40 0 80.5 10.5t74.5 32t57 53.5t29 75l71 507h39l-71 -507q-8 -53 -35 -92.5t-67 -65.5t-87.5 -39.5t-95.5 -13.5t-92 13.5t-76.5 39.5t-49 65.5t-8.5 92.5l71 507h39z" />
    <glyph glyph-name="V" unicode="V" horiz-adv-x="602" 
d="M69 708h43l150 -679l342 678h42l-356 -707h-63z" />
    <glyph glyph-name="W" unicode="W" horiz-adv-x="928" 
d="M966 708l-309 -708h-58l-99 557l-260 -557h-58l-105 708h40l96 -674h4l269 571h41l104 -571h4l291 674h40z" />
    <glyph glyph-name="X" unicode="X" horiz-adv-x="553" 
d="M492 0h-47l-166 325l-257 -325h-47l285 353l-184 354h44l168 -320l256 320h46l-284 -354z" />
    <glyph glyph-name="Y" unicode="Y" horiz-adv-x="536" 
d="M245 0h-39l39 280l-178 427h45l158 -392l267 392h46l-299 -427z" />
    <glyph glyph-name="Z" unicode="Z" horiz-adv-x="556" 
d="M102 708h462l18 -22l-541 -650h436l-5 -36h-473l-14 23l540 649h-428z" />
    <glyph glyph-name="bracketleft" unicode="[" horiz-adv-x="242" 
d="M57 -91h92l-5 -32h-130l124 878h130l-5 -32h-92z" />
    <glyph glyph-name="backslash" unicode="\" horiz-adv-x="394" 
d="M85 746l36 11l203 -783l-37 -12z" />
    <glyph glyph-name="bracketright" unicode="]" horiz-adv-x="244" 
d="M188 720h-90l5 35h130l-125 -886h-129l4 37h90z" />
    <glyph glyph-name="asciicircum" unicode="^" horiz-adv-x="517" 
d="M332 708q40 -66 77.5 -131.5t77.5 -131.5h-45l-132 234q-46 -56 -95.5 -116.5t-96.5 -117.5h-45l223 263h36z" />
    <glyph glyph-name="underscore" unicode="_" horiz-adv-x="604" 
d="M492 -63h-480l5 36h480z" />
    <glyph glyph-name="grave" unicode="`" horiz-adv-x="210" 
d="M122 765l-72 111h48l61 -111h-37z" />
    <glyph glyph-name="a" unicode="a" horiz-adv-x="513" 
d="M368 55q-35 -34 -78 -49.5t-88 -15.5q-33 0 -64 8.5t-54.5 27.5t-35.5 48.5t-6 70.5l31 222q6 45 27.5 76t52 49.5t68 26.5t75.5 8q48 0 91.5 -8.5t76.5 -24.5l-69 -494h-34zM425 468q-25 13 -59 19.5t-70 6.5q-32 0 -63.5 -6.5t-57.5 -21.5t-44 -39t-23 -59l-31 -223
q-5 -33 4.5 -56t28.5 -38t44.5 -21.5t53.5 -6.5q45 0 89 19t76 51z" />
    <glyph glyph-name="b" unicode="b" horiz-adv-x="510" 
d="M137 493q84 35 156 35q35 0 67.5 -10t55.5 -30t35 -49.5t7 -68.5l-30 -215q-6 -39 -26 -69.5t-48.5 -51t-63 -31.5t-69.5 -12q-97 0 -186 29l97 688h36zM75 48q38 -14 76 -18t75 -4q28 0 55.5 8.5t50.5 24.5t39 40t20 54l30 217q4 31 -5.5 54t-28.5 38t-44.5 22.5
t-53.5 7.5q-38 0 -76.5 -10.5t-80.5 -29.5z" />
    <glyph glyph-name="c" unicode="c" horiz-adv-x="454" 
d="M399 433q-17 30 -51 44.5t-75 14.5q-28 0 -56 -7t-51.5 -22t-39.5 -37.5t-20 -53.5l-30 -224q-4 -32 5.5 -55t28.5 -38t45 -22t54 -7q45 0 87.5 19t64.5 57l31 -16q-29 -47 -81 -71.5t-107 -24.5q-35 0 -66.5 10t-55 29.5t-35.5 49t-7 69.5l30 222q5 40 25.5 69.5
t49.5 49t63.5 29.5t69.5 10q49 0 91 -18.5t61 -57.5z" />
    <glyph glyph-name="d" unicode="d" horiz-adv-x="512" 
d="M397 21q-48 -14 -97 -22.5t-98 -8.5q-34 1 -65.5 11t-54.5 29.5t-34.5 49t-6.5 68.5l30 222q5 39 25 68.5t49.5 49.5t64.5 30t70 10q36 0 73.5 -8t73.5 -25l30 213h36zM421 459q-35 17 -72.5 25t-74.5 8q-29 0 -56.5 -7.5t-50.5 -22.5t-39 -37.5t-20 -53.5l-30 -223
q-4 -31 5 -54t27 -38.5t43.5 -23t53.5 -7.5q37 0 76.5 5t81.5 19z" />
    <glyph glyph-name="e" unicode="e" horiz-adv-x="478" 
d="M74 146q-5 -33 5.5 -56t30 -38t46 -22t53.5 -7q42 0 82.5 16t64.5 50l27 -15q-29 -41 -78.5 -62.5t-99.5 -21.5q-35 0 -67 9.5t-55.5 29t-35.5 49t-6 69.5l30 219q6 41 26 71.5t49 50.5t64 30t70 10q34 0 66 -9.5t55 -29t35 -49.5t6 -70q-6 -42 -26 -73.5t-49.5 -52
t-65 -31t-71.5 -10.5q-35 0 -71.5 8t-71.5 25zM91 267q30 -13 70 -22.5t78 -9.5q30 0 58 7.5t51 24t39 42t21 61.5q4 33 -5 56.5t-28 39.5t-45 23.5t-54 7.5q-29 0 -57.5 -8t-52.5 -24t-40.5 -40.5t-20.5 -57.5z" />
    <glyph glyph-name="f" unicode="f" horiz-adv-x="248" 
d="M-22 -150q23 19 33.5 44.5t14.5 51.5l86 615q5 37 20 67.5t37.5 51t52 30t65.5 5.5l-5 -31q-28 4 -51 -3.5t-41 -24.5t-29 -41.5t-15 -53.5l-11 -69h112l-4 -30h-112l-71 -516q-5 -39 -23.5 -69.5t-42.5 -49.5z" />
    <glyph glyph-name="g" unicode="g" horiz-adv-x="507" 
d="M49 -133q23 -21 58.5 -32.5t71.5 -11.5q30 0 58 7t50.5 21t37.5 36.5t20 53.5l14 86q-43 -20 -81 -28.5t-73 -8.5t-67 10t-55 29.5t-34.5 49t-6.5 68.5l31 225q5 39 24.5 68t48 48.5t62.5 29.5t68 10q52 0 93 -10.5t90 -27.5l-79 -548q-6 -40 -25.5 -69t-47.5 -47.5
t-62.5 -27.5t-68.5 -9q-45 0 -85 14t-65 41zM420 463q-25 11 -65.5 20.5t-83.5 9.5q-28 0 -55 -7.5t-49.5 -22.5t-38 -37.5t-19.5 -52.5l-31 -226q-4 -31 5 -54t27 -38.5t43 -23t54 -7.5q24 0 42.5 2.5t36 7t36 11.5t42.5 18z" />
    <glyph glyph-name="h" unicode="h" horiz-adv-x="522" 
d="M140 491q83 37 155 37q35 1 67 -9t55.5 -30t35.5 -49.5t6 -68.5l-53 -371h-36l53 371q4 31 -5.5 53.5t-28.5 37.5t-44.5 22.5t-53.5 7.5q-36 0 -76.5 -8t-79.5 -23l-65 -461h-36l99 708h36z" />
    <glyph glyph-name="i" unicode="i" horiz-adv-x="190" 
d="M108 638q2 13 13 22t24 9t21 -9t6 -22q-2 -14 -12.5 -23t-23.5 -9t-21.5 9t-6.5 23zM143 518l-73 -518h-36l73 518h36z" />
    <glyph glyph-name="j" unicode="j" horiz-adv-x="190" 
d="M110 638q2 13 13 22t24 9t21 -9t6 -22q-2 -14 -12.5 -23t-23.5 -9t-21.5 9t-6.5 23zM-98 -146q55 2 88 32.5t41 91.5l76 540h36l-76 -540q-11 -77 -56.5 -117t-113.5 -43z" />
    <glyph glyph-name="k" unicode="k" horiz-adv-x="469" 
d="M101 221l329 297h44l-256 -233l184 -285h-43l-170 259l-95 -83l-24 -176h-36l99 708h36z" />
    <glyph glyph-name="l" unicode="l" horiz-adv-x="219" 
d="M167 -10q-66 2 -96.5 40.5t-19.5 113.5l78 564h36l-78 -564q-8 -57 11.5 -87.5t73.5 -30.5z" />
    <glyph glyph-name="m" unicode="m" horiz-adv-x="809" 
d="M100 486q35 23 79.5 32.5t88.5 9.5q47 0 87 -14t69 -58q20 21 39.5 35t39 22t39.5 11t40 4q37 1 69.5 -8.5t55 -30t33 -52t4.5 -72.5l-51 -365h-37l50 363q9 42 -7 70t-45 42.5t-65.5 15.5t-70 -10.5t-58 -35.5t-29.5 -60l-54 -385h-35l54 385q6 42 -22 66.5t-70.5 33.5
t-89.5 2.5t-80 -25.5l-65 -462h-37z" />
    <glyph glyph-name="n" unicode="n" 
d="M101 490q47 16 96 27t98 11q34 -1 65.5 -11t54.5 -29.5t34.5 -49t5.5 -68.5l-52 -370h-36l52 370q4 31 -5.5 54t-28 38t-43.5 22t-52 7q-43 0 -86 -9.5t-72 -20.5l-64 -461h-36z" />
    <glyph glyph-name="o" unicode="o" horiz-adv-x="496" 
d="M70 369q5 40 25.5 69.5t49.5 49.5t64 30t70 10t67 -10t55 -30t35 -49.5t7 -69.5l-30 -220q-5 -40 -25 -69.5t-49.5 -49.5t-64.5 -30t-70 -10t-66.5 10t-55 30t-35.5 49.5t-7 69.5zM274 491q-27 0 -55 -7t-51.5 -22t-40.5 -38t-21 -55l-30 -220q-5 -32 5 -55.5t29.5 -38.5
t45.5 -22t53 -7t55 7t51.5 22t40 38.5t21.5 55.5l30 220q4 32 -6 55t-29 38t-45 22t-53 7z" />
    <glyph glyph-name="p" unicode="p" horiz-adv-x="512" 
d="M102 498q27 8 50 14t46 9.5t47 5t51 1.5q34 0 66 -9.5t55 -28.5t35 -48.5t6 -71.5l-30 -220q-5 -39 -25.5 -69t-49.5 -50.5t-64 -30.5t-70 -10q-36 1 -73.5 7t-73.5 24l-29 -202h-36zM77 59q34 -15 72 -23.5t76 -8.5q28 0 56 7.5t51 22.5t39 38t20 53l30 222q4 32 -5 55
t-27.5 37.5t-44 21.5t-53.5 7q-37 0 -75.5 -3.5t-81.5 -17.5z" />
    <glyph glyph-name="q" unicode="q" horiz-adv-x="510" 
d="M360 26q-41 -18 -80 -26.5t-76 -9.5q-35 0 -67 10.5t-55.5 31t-35 51t-6.5 69.5l30 218q5 39 25 68.5t49 49.5t63.5 30t69.5 10q30 0 53 -1.5t43 -5t41 -10t48 -15.5l-95 -677h-36zM423 471q-17 6 -37 10t-40.5 6t-40 3t-34.5 1q-28 0 -55.5 -7.5t-50 -22.5t-38 -37.5
t-19.5 -51.5l-31 -220q-5 -31 4.5 -54t28.5 -38t44.5 -23t54.5 -8q37 0 76 9t81 30z" />
    <glyph glyph-name="r" unicode="r" horiz-adv-x="294" 
d="M239 523q19 4 34.5 3.5t33.5 -2.5l-5 -35q-17 2 -32.5 2t-32.5 -4q-43 -10 -78 -39t-42 -80l-51 -368h-36l51 368q4 32 18.5 58t35.5 45.5t48 32.5t56 19z" />
    <glyph glyph-name="s" unicode="s" horiz-adv-x="435" 
d="M45 103q26 -43 63 -62t83 -18q20 0 43.5 7t44.5 20.5t36 34.5t19 49q4 29 -5 49t-26.5 33t-39.5 20.5t-43 11.5q-29 5 -58 14t-51.5 24.5t-34.5 40t-7 61.5q5 40 26.5 68.5t51 45.5t65 23t69 2t62.5 -17.5t47 -36.5l-26 -26q-22 28 -61.5 40t-80.5 5.5t-74 -32.5t-41 -72
q-4 -31 7.5 -49.5t31 -30t42.5 -16.5t43 -9q28 -5 54.5 -15.5t46.5 -28t30 -43.5t6 -62q-5 -35 -22.5 -61.5t-42.5 -44.5t-55 -27.5t-61 -10.5q-57 -2 -102.5 22t-71.5 72z" />
    <glyph glyph-name="t" unicode="t" horiz-adv-x="260" 
d="M204 -10q-35 0 -65 10t-51.5 30t-32 49t-5.5 68l70 491h34l-16 -120h112l-4 -32h-112l-48 -339q-5 -32 4 -55.5t26.5 -38.5t42 -22.5t50.5 -6.5z" />
    <glyph glyph-name="u" unicode="u" 
d="M406 28q-48 -16 -97 -27t-98 -11q-34 1 -65 11t-54 29.5t-35 49t-6 68.5l52 370h36l-52 -370q-5 -31 5 -54t28.5 -38t43.5 -22t52 -7q43 0 86.5 9.5t71.5 20.5l64 461h36z" />
    <glyph glyph-name="v" unicode="v" horiz-adv-x="463" 
d="M473 518l-258 -518h-53l-112 518h39l103 -490l243 490h38z" />
    <glyph glyph-name="w" unicode="w" horiz-adv-x="715" 
d="M137 0l-83 518h37l78 -499l190 499h55l52 -497l217 497h37l-228 -518h-61l-47 494l-189 -494h-58z" />
    <glyph glyph-name="x" unicode="x" horiz-adv-x="444" 
d="M240 259l132 -259h-44l-116 234l-181 -234h-44l205 259l-133 259h45l115 -234l181 234h44z" />
    <glyph glyph-name="y" unicode="y" 
d="M391 -58q-6 -40 -25.5 -69t-47.5 -47.5t-62.5 -27.5t-68.5 -9q-45 0 -85 14t-65 41l26 22q23 -21 56.5 -32t70.5 -11q28 0 56 7t50.5 21t38.5 36.5t21 53.5l13 86q-43 -20 -81 -28.5t-73 -8.5t-67 10t-55.5 29.5t-35 49t-6.5 68.5l51 370h36l-51 -370q-4 -31 5 -54
t27 -38.5t43.5 -23.5t54.5 -8q24 0 42.5 2.5t36 7t36 12t42.5 17.5l63 455h35z" />
    <glyph glyph-name="z" unicode="z" horiz-adv-x="447" 
d="M79 518h346l12 -24l-396 -459h326l-4 -35h-356l-16 28l395 456h-311z" />
    <glyph glyph-name="braceleft" unicode="{" horiz-adv-x="269" 
d="M261 720q-38 0 -49 -22t-16 -64l-21 -146q-6 -43 -16.5 -74t-23 -51.5t-25 -32t-22.5 -15.5q5 -4 14 -13.5t16.5 -29t10.5 -52t-4 -82.5l-21 -147q-5 -38 2.5 -58t45.5 -20h22l-5 -35h-24q-52 0 -69 30t-9 81l20 146q4 29 4.5 57t-4 50t-16 37t-31.5 18l4 30q21 3 37 18
t27 37.5t18.5 50.5t11.5 57l21 145q3 26 9.5 48t18 37.5t29.5 24.5t46 9h30l-4 -34h-27z" />
    <glyph glyph-name="bar" unicode="|" horiz-adv-x="185" 
d="M8 -168l129 922h36l-129 -922h-36z" />
    <glyph glyph-name="braceright" unicode="}" horiz-adv-x="269" 
d="M132 754q28 0 43.5 -9t23 -24.5t7.5 -37.5t-3 -48l-21 -145q-4 -29 -4.5 -57t5 -50.5t16.5 -37.5t31 -18l-4 -30q-21 -3 -36.5 -18t-26.5 -37t-18.5 -50t-11.5 -57l-20 -146q-8 -51 -33 -81t-77 -30h-24l5 35h22q37 0 51 20t19 58l21 147q7 50 19 82.5t25 52t25 29
t18 13.5q-9 4 -18.5 15.5t-16.5 32t-8.5 51.5t4.5 74l21 146q3 21 4 37t-2.5 27t-13.5 16.5t-29 5.5h-27l4 34h30z" />
    <glyph glyph-name="asciitilde" unicode="~" horiz-adv-x="531" 
d="M463 332q-20 -31 -51 -54.5t-69 -23.5q-25 0 -46.5 10t-38.5 23q-19 13 -36 24t-39 11q-31 0 -54 -18.5t-45 -44.5q-6 5 -8.5 9.5t-7.5 9.5q10 13 22.5 27t27.5 24.5t33 17.5t39 7q28 0 49.5 -12.5t40.5 -26.5q17 -12 33.5 -21t34.5 -9q31 0 54.5 19t44.5 45z" />
    <glyph glyph-name="uni00A0" unicode="&#xa0;" horiz-adv-x="238" 
 />
    <glyph glyph-name="exclamdown" unicode="&#xa1;" horiz-adv-x="193" 
d="M158 480q-2 -16 -14.5 -27t-28.5 -11t-25.5 11t-7.5 27t14.5 27t28.5 11t25.5 -11t7.5 -27zM43 -212h-40l79 563h40z" />
    <glyph glyph-name="cent" unicode="&#xa2;" horiz-adv-x="464" 
d="M398 435q-14 26 -44 40.5t-68 18.5l-64 -458q46 4 83 22t57 54l29 -16q-25 -45 -72.5 -68t-101.5 -28l-14 -95h-31l14 95q-33 4 -61.5 15.5t-49 31t-30.5 47.5t-5 64l30 214q5 36 22.5 63.5t44 47t58.5 31t65 14.5l12 86h31l-12 -86q47 -3 83.5 -21t54.5 -53zM255 493
q-27 -4 -52.5 -13t-45.5 -23.5t-33.5 -35t-17.5 -47.5l-30 -216q-4 -27 4 -48t24 -36t38.5 -24t48.5 -13z" />
    <glyph glyph-name="sterling" unicode="&#xa3;" horiz-adv-x="504" 
d="M161 355h-104l5 34h104l19 135q4 32 18 66.5t40 62.5t65.5 46t94.5 18q35 0 62 -10.5t53 -34.5l-29 -25q-35 36 -94 36q-41 0 -71.5 -14t-51.5 -36.5t-33 -50.5t-16 -55l-20 -138h165l-5 -34h-165l-45 -322h245l-4 -33h-386l4 33h104z" />
    <glyph glyph-name="currency" unicode="&#xa4;" horiz-adv-x="617" 
d="M113 195q-26 34 -34.5 74.5t-2.5 84.5q12 88 84 157q-11 12 -23 27.5t-24 28.5l24 22l46 -55q38 27 81 42t85 15t81 -15t70 -42q11 9 28.5 26.5t30.5 28.5l18 -22l-62 -56q26 -34 35.5 -73.5t3.5 -83.5t-27 -83.5t-57 -73.5q11 -12 25 -27.5t25 -28.5l-26 -22l-46 55
q-38 -27 -81 -41.5t-85 -14.5t-82 13.5t-71 40.5q-11 -9 -28 -25.5t-30 -27.5l-18 22zM110 353q-6 -43 5 -80t35 -64.5t58.5 -43.5t75.5 -16q42 0 81 16t71 43.5t53.5 64.5t27.5 80t-4.5 81t-33.5 65.5t-57 43.5t-76 16q-41 0 -80.5 -16t-72 -43.5t-55 -65.5t-28.5 -81z" />
    <glyph glyph-name="yen" unicode="&#xa5;" horiz-adv-x="575" 
d="M468 299l-12 -35h-162l-9 -62h169l-11 -34h-163l-23 -168h-36l23 168h-166l9 34h162l9 62h-164l11 35h141l-165 410h45l157 -402l272 402h47l-283 -410h149z" />
    <glyph glyph-name="brokenbar" unicode="&#xa6;" horiz-adv-x="197" 
d="M88 366l46 330h38l-46 -330h-38zM18 -134l49 350h38l-49 -350h-38z" />
    <glyph glyph-name="section" unicode="&#xa7;" horiz-adv-x="470" 
d="M39 -12q5 -30 27 -49.5t52 -28t63.5 -6.5t63.5 14.5t51 36t26 58.5q4 25 -5.5 44.5t-26.5 35t-40.5 28t-48.5 24.5q-27 13 -54 28t-48 34.5t-32.5 45t-6.5 60.5q7 47 44 80t87 53q-38 25 -57 53t-14 70q5 36 24.5 63.5t47 46t60 28t65.5 9.5q19 0 40.5 -4t40.5 -13.5
t33.5 -24.5t21.5 -37q-11 -5 -17.5 -9.5t-17.5 -9.5q-13 32 -42.5 47t-66.5 15q-24 0 -49.5 -7.5t-46.5 -21.5t-36 -34.5t-19 -47.5q-3 -24 6 -42.5t26 -33.5t40.5 -27t47.5 -24q26 -13 52 -27.5t46.5 -34t31 -44.5t6.5 -58q-6 -42 -38.5 -79t-74.5 -59q35 -23 51 -55.5
t11 -64.5q-7 -47 -33.5 -80t-63 -51.5t-79 -23t-81 6t-67.5 35t-39 64.5zM268 159q16 8 33.5 20t33.5 26.5t27 32t14 35.5q3 20 -3.5 37.5t-17 32t-24 25.5t-25.5 18l-74 38q-20 -6 -41.5 -15.5t-40.5 -22.5t-32.5 -30.5t-16.5 -40.5q-3 -22 0.5 -38t12.5 -28t21.5 -20.5
t27.5 -16.5z" />
    <glyph glyph-name="dieresis" unicode="&#xa8;" horiz-adv-x="300" 
d="M82 821q2 13 12 21.5t22 8.5q13 0 20.5 -8.5t5.5 -21.5q-2 -12 -11.5 -21t-22.5 -9q-12 0 -20 9t-6 21zM257 821q2 13 11.5 21.5t22.5 8.5q12 0 20 -8.5t6 -21.5q-2 -12 -12 -21t-22 -9q-13 0 -20.5 9t-5.5 21z" />
    <glyph glyph-name="copyright" unicode="&#xa9;" horiz-adv-x="830" 
d="M60 354q10 75 48 140.5t94.5 115t126 78t144.5 28.5t136.5 -28.5t104 -78t61.5 -115t9 -140.5q-11 -75 -48.5 -140.5t-94 -115t-126 -78t-144.5 -28.5t-136.5 28.5t-104 78t-62 115t-8.5 140.5zM94 354q-9 -68 8 -128t55.5 -104.5t94.5 -70t124 -25.5t131.5 25.5
t114.5 70t85 104.5t43 128q10 68 -7.5 128t-55.5 104.5t-94.5 70t-124.5 25.5t-131.5 -25.5t-114 -70t-84.5 -104.5t-44 -128zM576 493q-17 30 -51 44.5t-75 14.5q-28 0 -56 -7t-51 -22t-39.5 -37.5t-20.5 -53.5l-21 -153q-5 -32 5 -55t29 -38t45 -22t54 -7q45 0 87.5 19
t64.5 57l31 -16q-29 -47 -81 -71.5t-107 -24.5q-35 0 -67 10t-55.5 29.5t-35.5 49t-6 69.5l21 151q6 40 26 69.5t49 49t63.5 29.5t69.5 10q49 0 91 -18.5t61 -57.5z" />
    <glyph glyph-name="ordfeminine" unicode="&#xaa;" horiz-adv-x="375" 
d="M313 618q5 35 -20 51t-60 16q-22 0 -46.5 -8t-44.5 -25l-21 22q26 23 57 34t61 11q23 0 44.5 -6.5t37 -19t23.5 -32t4 -45.5l-32 -224q-38 -11 -71 -15t-67 -3q-24 0 -44 8t-33.5 23t-19.5 35.5t-2 46.5q4 28 18 48t34 33t44 18.5t49 5.5q19 0 41 -4.5t42 -13.5zM303 543
q-19 7 -41.5 11.5t-44.5 4.5q-18 0 -35 -3t-31 -11t-24 -22t-13 -36q-5 -38 15 -60t55 -23q23 0 48 2.5t53 7.5z" />
    <glyph glyph-name="guillemotleft" unicode="&#xab;" horiz-adv-x="386" 
d="M197 485q8 -5 14.5 -10t13.5 -10l-139 -170q21 -41 44.5 -85t45.5 -85q-11 -6 -17 -10t-16 -9l-101 189zM321 485q8 -5 14.5 -10t13.5 -10l-141 -170q21 -41 45.5 -85t46.5 -85q-11 -6 -17 -10t-16 -9l-101 189z" />
    <glyph glyph-name="logicalnot" unicode="&#xac;" horiz-adv-x="604" 
d="M81 389h457l-29 -209h-35l24 174h-422z" />
    <glyph glyph-name="uni00AD" unicode="&#xad;" horiz-adv-x="336" 
d="M273 251h-227l5 37h227z" />
    <glyph glyph-name="registered" unicode="&#xae;" horiz-adv-x="830" 
d="M60 354q10 75 48 140.5t94.5 115t126 78t144.5 28.5t136.5 -28.5t104 -78t61.5 -115t9 -140.5q-11 -75 -48.5 -140.5t-94 -115t-126 -78t-144.5 -28.5t-136.5 28.5t-104 78t-62 115t-8.5 140.5zM95 354q-9 -68 8 -127.5t55 -104t94 -70t124 -25.5t131 25.5t114 70t85 104
t43 127.5q10 68 -7.5 127.5t-55.5 104t-94 70t-124 25.5t-131 -25.5t-113.5 -70t-84.5 -104t-44 -127.5zM324 562h143q68 0 98.5 -34t23.5 -83q-8 -55 -45 -85.5t-85 -38.5q23 -40 48.5 -84t50.5 -86h-40l-101 170h-92l-24 -170h-34zM408 353q24 0 48.5 3t44.5 13t34.5 28
t18.5 48q3 23 -4 39.5t-20.5 26.5t-32 14.5t-37.5 4.5h-106l-25 -177h79z" />
    <glyph glyph-name="macron" unicode="&#xaf;" horiz-adv-x="316" 
d="M71 821h225l-5 -33h-225z" />
    <glyph glyph-name="degree" unicode="&#xb0;" horiz-adv-x="354" 
d="M200 464q-26 0 -47 10t-35.5 27t-21 39.5t-3.5 48.5q4 25 17 47.5t32.5 39.5t43 26.5t49.5 9.5q25 0 46.5 -9.5t36 -26.5t21 -39.5t2.5 -47.5q-3 -26 -16 -48.5t-32.5 -39.5t-43.5 -27t-49 -10zM204 494q19 0 37 7.5t32 20t23.5 29.5t12.5 37q3 19 -2 36.5t-15.5 30
t-26.5 20t-35 7.5t-37 -7.5t-32 -20t-23.5 -30t-12.5 -36.5q-3 -20 2 -37t15.5 -29.5t26.5 -20t35 -7.5z" />
    <glyph glyph-name="plusminus" unicode="&#xb1;" horiz-adv-x="566" 
d="M306 605h35l-26 -179h195l-5 -35h-195l-25 -182h-35l25 182h-188l5 35h188zM461 105h-410l5 34h410z" />
    <glyph glyph-name="twosuperior" unicode="&#xb2;" horiz-adv-x="408" 
d="M336 294h-267l-6 24l226 193q22 19 40 48.5t14 57.5q-7 22 -23.5 35t-38 18t-45.5 2.5t-46 -10.5q-17 -7 -29 -15t-23 -22l-27 13q14 19 34.5 34t41.5 23h-1q27 9 57.5 11t57.5 -5.5t47.5 -24.5t28.5 -47q8 -38 -12 -76t-53 -64l-195 -164h223z" />
    <glyph glyph-name="threesuperior" unicode="&#xb3;" horiz-adv-x="391" 
d="M301 529q27 -9 40 -33t13 -52t-13.5 -55.5t-38.5 -44.5q-25 -19 -57 -27.5t-62 -6.5h1q-19 1 -37.5 6t-34.5 14t-28 22.5t-18 31.5l27 13q10 -27 39 -40.5t58 -15.5q22 -2 48 5t48 23q16 11 24 25.5t11 33.5q3 23 -2.5 39.5t-17.5 27t-29.5 15t-37.5 3.5h-20l3 25h20
q15 0 34.5 7t33.5 18q23 20 25.5 48t-11.5 48q-12 16 -31.5 23.5t-41.5 7.5q-29 0 -57.5 -11t-46.5 -36l-22 13q11 16 26.5 27.5t32.5 19t34 11t32 4.5q28 2 55 -8t43 -30q12 -15 16.5 -34t1.5 -39t-14 -38.5t-30 -31.5z" />
    <glyph glyph-name="acute" unicode="&#xb4;" horiz-adv-x="220" 
d="M138 765h-39l78 111h48z" />
    <glyph glyph-name="mu" unicode="&#xb5;" horiz-adv-x="518" 
d="M381 103q-15 -25 -36 -44.5t-46 -33t-52 -20.5t-54 -7q-42 0 -71 14.5t-46 54.5l-40 -285h-37l103 737h38l-46 -329q-4 -27 -2.5 -55t12 -51t33 -37.5t61.5 -14.5q36 0 68.5 12t59 37t45 62.5t25.5 87.5l40 288h38l-69 -519h-36z" />
    <glyph glyph-name="paragraph" unicode="&#xb6;" horiz-adv-x="555" 
d="M260 286q-57 0 -98 18t-66.5 47t-36 66.5t-4.5 76.5q6 40 25.5 78.5t53 68.5t80 48.5t105.5 18.5h217l-116 -824h-33l112 797h-150l-112 -797h-34z" />
    <glyph glyph-name="periodcentered" unicode="&#xb7;" horiz-adv-x="210" 
d="M72 318q2 14 13.5 24t25.5 10t22.5 -10t6.5 -24t-13.5 -24t-25.5 -10t-22.5 10t-6.5 24z" />
    <glyph glyph-name="cedilla" unicode="&#xb8;" horiz-adv-x="244" 
d="M123 -65q38 0 57.5 -21t8.5 -56q-13 -38 -41.5 -52.5t-60.5 -14.5q-28 0 -47.5 7.5t-34.5 18.5l10 28q17 -11 34 -17.5t37 -6.5t38.5 7.5t27.5 31.5q6 18 0.5 28.5t-16.5 15.5t-25.5 4.5t-26.5 -3.5l-5 8l56 97h30z" />
    <glyph glyph-name="onesuperior" unicode="&#xb9;" horiz-adv-x="239" 
d="M76 604l108 105h36l-57 -404h-34l51 359l-80 -80z" />
    <glyph glyph-name="ordmasculine" unicode="&#xba;" horiz-adv-x="409" 
d="M213 372q-26 0 -51 7t-43 21.5t-27.5 36t-5.5 50.5l17 116q4 29 19.5 50.5t37.5 36t49 21.5t53 7t50.5 -7t43 -21.5t28 -36t5.5 -50.5l-17 -116q-4 -29 -19.5 -50.5t-38 -36t-49 -21.5t-52.5 -7zM121 490q-3 -24 4 -40t21.5 -26t33 -14.5t38.5 -4.5q19 0 39.5 4.5
t37.5 14.5t29 26t15 40l15 110q3 24 -4 40t-21.5 26t-33.5 14.5t-38 4.5q-20 0 -40 -4.5t-37 -14.5t-29 -26t-15 -40z" />
    <glyph glyph-name="guillemotright" unicode="&#xbb;" horiz-adv-x="383" 
d="M61 105q-8 5 -14.5 10t-13.5 10l141 170q-21 41 -45.5 85t-46.5 85q11 6 17 10t16 9l101 -189zM183 105q-8 5 -14.5 10t-13.5 10l141 170q-21 41 -45.5 85t-46.5 85q11 6 17 10t16 9l101 -189z" />
    <glyph glyph-name="onequarter" unicode="&#xbc;" horiz-adv-x="669" 
d="M587 728q8 -5 13 -9t12 -9l-549 -730l-25 17zM72 604l108 105h34l-57 -404h-32l51 359l-81 -79zM600 101h-33l-14 -101h-32l14 101h-211l-16 31l256 276h46l-39 -279h33zM343 129h196l38 251z" />
    <glyph glyph-name="onehalf" unicode="&#xbd;" horiz-adv-x="737" 
d="M589 728q8 -5 13 -9t12 -9l-549 -730l-25 17zM71 604l108 105h34l-57 -404h-32l51 359l-81 -79zM650 0h-267l-6 24q57 47 114 100t113 100q36 30 46 54.5t5 52.5q-9 29 -32 42.5t-51.5 13t-57 -13.5t-47.5 -36l-30 14q13 19 33.5 34t42.5 23h-1q26 10 54.5 11.5t54 -6
t44.5 -25t27 -46.5q8 -38 -12 -76t-53 -64l-192 -169h219z" />
    <glyph glyph-name="threequarters" unicode="&#xbe;" horiz-adv-x="727" 
d="M670 728q8 -5 12.5 -9t11.5 -9l-549 -730l-24 17zM284 529q27 -9 40 -33t13 -52t-13.5 -55.5t-38.5 -44.5q-25 -19 -57 -27.5t-62 -6.5h1q-19 1 -37.5 6t-34.5 14t-28 22.5t-18 31.5l27 13q10 -27 39 -40.5t58 -15.5q22 -2 48 5t48 23q16 11 24 25.5t11 33.5
q3 23 -2.5 39.5t-17.5 27t-29.5 15t-37.5 3.5h-20l3 25h20q15 0 34.5 7t33.5 18q23 20 25.5 48t-11.5 48q-12 16 -31.5 23.5t-41.5 7.5q-29 0 -57.5 -11t-46.5 -36l-22 13q11 16 26.5 27.5t32.5 19t34 11t32 4.5q28 2 55 -8t43 -30q12 -15 16.5 -34t1.5 -39t-14 -38.5
t-30 -31.5zM655 101h-33l-14 -101h-32l14 101h-211l-16 31l256 276h46l-39 -279h33zM398 129h196l38 251z" />
    <glyph glyph-name="questiondown" unicode="&#xbf;" horiz-adv-x="449" 
d="M280 447q-15 0 -23.5 11t-6.5 27t14 26.5t27 10.5q16 0 25.5 -10.5t7.5 -26.5t-15 -27t-29 -11zM365 -117q-38 -38 -86 -57t-100 -19q-41 0 -78 12.5t-63.5 37t-39.5 61t-6 84.5q7 47 29 83t54 62t71 42t80 23q3 19 8 44t9.5 51.5t9.5 51.5t8 45h29l-25 -224
q-42 -2 -82 -14.5t-72.5 -35.5t-54.5 -55.5t-27 -73.5q-5 -39 6.5 -68.5t34 -49t53 -29.5t64.5 -10q39 0 83.5 18.5t75.5 44.5z" />
    <glyph glyph-name="Agrave" unicode="&#xc0;" horiz-adv-x="599" 
d="M352 765l-72 111h48l61 -111h-37zM544 0h-42l-55 246h-317l-120 -246h-42l360 708h57zM150 285h290l-88 394z" />
    <glyph glyph-name="Aacute" unicode="&#xc1;" horiz-adv-x="599" 
d="M351 765h-39l78 111h48zM544 0h-42l-55 246h-317l-120 -246h-42l360 708h57zM150 285h290l-88 394z" />
    <glyph glyph-name="Acircumflex" unicode="&#xc2;" horiz-adv-x="599" 
d="M446 765l-67 79l-96 -79h-56l136 111h37l96 -111h-50zM544 0h-42l-55 246h-317l-120 -246h-42l360 708h57zM150 285h290l-88 394z" />
    <glyph glyph-name="Atilde" unicode="&#xc3;" horiz-adv-x="599" 
d="M237 789q7 37 30 58t52 21q22 0 37.5 -10t28 -22t24 -22t26.5 -10q20 0 33 14t21 39l27 -7q-6 -33 -28 -56.5t-54 -23.5q-21 0 -35 10.5t-26.5 23t-25.5 22.5t-31 9q-17 -1 -31 -14.5t-22 -39.5zM544 0h-42l-55 246h-317l-120 -246h-42l360 708h57zM150 285h290l-88 394z
" />
    <glyph glyph-name="Adieresis" unicode="&#xc4;" horiz-adv-x="599" 
d="M253 821q2 13 12 21.5t22 8.5q13 0 20.5 -8.5t5.5 -21.5q-2 -12 -11.5 -21t-22.5 -9q-12 0 -20 9t-6 21zM428 821q2 13 11.5 21.5t22.5 8.5q12 0 20 -8.5t6 -21.5q-2 -12 -12 -21t-22 -9q-13 0 -20.5 9t-5.5 21zM544 0h-42l-55 246h-317l-120 -246h-42l360 708h57z
M150 285h290l-88 394z" />
    <glyph glyph-name="Aring" unicode="&#xc5;" horiz-adv-x="599" 
d="M502 0l-55 246h-317l-120 -246h-42l353 695q-20 8 -29.5 27.5t-5.5 46.5q5 37 30.5 59t61.5 22t54.5 -22t13.5 -59q-4 -28 -19.5 -47.5t-38.5 -27.5l156 -694h-42zM315 769q-4 -24 7.5 -39t34.5 -15t39.5 15t20.5 39q3 24 -8.5 39t-34.5 15t-39.5 -15t-19.5 -39zM352 679
l-202 -394h290z" />
    <glyph glyph-name="AE" unicode="&#xc6;" horiz-adv-x="781" 
d="M784 671h-304l-43 -308h273l-6 -38h-273l-40 -289h304l-5 -36h-341l34 246h-220l-160 -247h-43l456 709h373zM186 283h202l55 392l-8 1z" />
    <glyph glyph-name="Ccedilla" unicode="&#xc7;" horiz-adv-x="587" 
d="M385 716q35 0 68.5 -6.5t62 -20.5t50 -35t32.5 -50l-37 -18q-21 45 -72.5 68t-111.5 23q-40 0 -80.5 -10.5t-74 -31t-56.5 -51.5t-29 -73l-44 -316q-6 -42 8.5 -73t42 -51.5t65 -31t77.5 -10.5q60 0 118 23t93 68l31 -17q-34 -51 -92.5 -78.5t-121.5 -32.5l-32 -57
q38 0 57.5 -21t8.5 -56q-13 -38 -41.5 -52.5t-60.5 -14.5q-28 0 -47.5 7.5t-34.5 18.5l10 28q17 -11 34 -17.5t37 -6.5t38.5 7.5t27.5 31.5q6 18 0.5 28.5t-16.5 15.5t-25.5 4.5t-26.5 -3.5l-5 8l44 77h-2q-47 0 -91 13t-76.5 38.5t-49 64t-9.5 89.5l44 316q7 51 35 89
t68 64t88 39t96 13z" />
    <glyph glyph-name="Egrave" unicode="&#xc8;" horiz-adv-x="563" 
d="M358 765l-72 111h48l61 -111h-37zM135 374h359l-6 -40h-359l-41 -295h389l-5 -39h-428l99 708h428l-5 -39h-389z" />
    <glyph glyph-name="Eacute" unicode="&#xc9;" horiz-adv-x="563" 
d="M357 765h-39l78 111h48zM135 374h359l-6 -40h-359l-41 -295h389l-5 -39h-428l99 708h428l-5 -39h-389z" />
    <glyph glyph-name="Ecircumflex" unicode="&#xca;" horiz-adv-x="563" 
d="M452 765l-67 79l-96 -79h-56l136 111h37l96 -111h-50zM135 374h359l-6 -40h-359l-41 -295h389l-5 -39h-428l99 708h428l-5 -39h-389z" />
    <glyph glyph-name="Edieresis" unicode="&#xcb;" horiz-adv-x="563" 
d="M259 821q2 13 12 21.5t22 8.5q13 0 20.5 -8.5t5.5 -21.5q-2 -12 -11.5 -21t-22.5 -9q-12 0 -20 9t-6 21zM434 821q2 13 11.5 21.5t22.5 8.5q12 0 20 -8.5t6 -21.5q-2 -12 -12 -21t-22 -9q-13 0 -20.5 9t-5.5 21zM135 374h359l-6 -40h-359l-41 -295h389l-5 -39h-428
l99 708h428l-5 -39h-389z" />
    <glyph glyph-name="Igrave" unicode="&#xcc;" horiz-adv-x="213" 
d="M170 765l-72 111h48l61 -111h-37zM83 0h-39l99 707h39z" />
    <glyph glyph-name="Iacute" unicode="&#xcd;" horiz-adv-x="213" 
d="M169 765h-39l78 111h48zM83 0h-39l99 707h39z" />
    <glyph glyph-name="Icircumflex" unicode="&#xce;" horiz-adv-x="213" 
d="M264 765l-67 79l-96 -79h-56l136 111h37l96 -111h-50zM83 0h-39l99 707h39z" />
    <glyph glyph-name="Idieresis" unicode="&#xcf;" horiz-adv-x="213" 
d="M79 821q2 13 12 21.5t22 8.5q13 0 20.5 -8.5t5.5 -21.5q-2 -12 -11.5 -21t-22.5 -9q-12 0 -20 9t-6 21zM226 821q2 13 11.5 21.5t22.5 8.5q12 0 20 -8.5t6 -21.5q-2 -12 -12 -21t-22 -9q-13 0 -20.5 9t-5.5 21zM83 0h-39l99 707h39z" />
    <glyph glyph-name="Eth" unicode="&#xd0;" horiz-adv-x="638" 
d="M146 708h226q48 0 92 -13t76 -38.5t48.5 -64.5t9.5 -91l-42 -295q-7 -52 -34.5 -90.5t-67 -64t-87 -38.5t-95.5 -13h-226l48 335h-63l4 32h63zM278 39q40 0 80.5 10.5t74 31t56 52t28.5 73.5l42 295q6 42 -8 73.5t-41.5 52.5t-65 31.5t-77.5 10.5h-187l-43 -302h125
l-4 -32h-125l-42 -296h187z" />
    <glyph glyph-name="Ntilde" unicode="&#xd1;" horiz-adv-x="672" 
d="M282 789q7 37 30 58t52 21q22 0 37.5 -10t28 -22t24 -22t26.5 -10q20 0 33 14t21 39l27 -7q-6 -33 -28 -56.5t-54 -23.5q-21 0 -35 10.5t-26.5 23t-25.5 22.5t-31 9q-17 -1 -31 -14.5t-22 -39.5zM509 49l93 659h39l-99 -708h-57l-311 648l-91 -648h-39l99 708h49z" />
    <glyph glyph-name="Ograve" unicode="&#xd2;" horiz-adv-x="679" 
d="M403 765l-72 111h48l61 -111h-37zM97 511q7 52 35.5 90.5t70.5 64.5t92 39t101 13t97.5 -13t81 -39t52.5 -64.5t11 -90.5l-44 -313q-7 -52 -36 -91t-70.5 -65t-92 -39t-101.5 -13t-97.5 13t-81 39t-52 65t-10.5 91zM92 198q-6 -42 9.5 -74t44.5 -53t69 -31.5t84 -10.5
q43 0 86.5 10.5t79 31.5t60 53t30.5 74l44 313q6 45 -9.5 77t-45.5 52.5t-70.5 30t-83.5 9.5t-86 -10t-78 -31t-59.5 -52.5t-30.5 -75.5z" />
    <glyph glyph-name="Oacute" unicode="&#xd3;" horiz-adv-x="679" 
d="M402 765h-39l78 111h48zM97 511q7 52 35.5 90.5t70.5 64.5t92 39t101 13t97.5 -13t81 -39t52.5 -64.5t11 -90.5l-44 -313q-7 -52 -36 -91t-70.5 -65t-92 -39t-101.5 -13t-97.5 13t-81 39t-52 65t-10.5 91zM92 198q-6 -42 9.5 -74t44.5 -53t69 -31.5t84 -10.5
q43 0 86.5 10.5t79 31.5t60 53t30.5 74l44 313q6 45 -9.5 77t-45.5 52.5t-70.5 30t-83.5 9.5t-86 -10t-78 -31t-59.5 -52.5t-30.5 -75.5z" />
    <glyph glyph-name="Ocircumflex" unicode="&#xd4;" horiz-adv-x="679" 
d="M497 765l-67 79l-96 -79h-56l136 111h37l96 -111h-50zM97 511q7 52 35.5 90.5t70.5 64.5t92 39t101 13t97.5 -13t81 -39t52.5 -64.5t11 -90.5l-44 -313q-7 -52 -36 -91t-70.5 -65t-92 -39t-101.5 -13t-97.5 13t-81 39t-52 65t-10.5 91zM92 198q-6 -42 9.5 -74t44.5 -53
t69 -31.5t84 -10.5q43 0 86.5 10.5t79 31.5t60 53t30.5 74l44 313q6 45 -9.5 77t-45.5 52.5t-70.5 30t-83.5 9.5t-86 -10t-78 -31t-59.5 -52.5t-30.5 -75.5z" />
    <glyph glyph-name="Otilde" unicode="&#xd5;" horiz-adv-x="679" 
d="M288 789q7 37 30 58t52 21q22 0 37.5 -10t28 -22t24 -22t26.5 -10q20 0 33 14t21 39l27 -7q-6 -33 -28 -56.5t-54 -23.5q-21 0 -35 10.5t-26.5 23t-25.5 22.5t-31 9q-17 -1 -31 -14.5t-22 -39.5zM97 511q7 52 35.5 90.5t70.5 64.5t92 39t101 13t97.5 -13t81 -39
t52.5 -64.5t11 -90.5l-44 -313q-7 -52 -36 -91t-70.5 -65t-92 -39t-101.5 -13t-97.5 13t-81 39t-52 65t-10.5 91zM92 198q-6 -42 9.5 -74t44.5 -53t69 -31.5t84 -10.5q43 0 86.5 10.5t79 31.5t60 53t30.5 74l44 313q6 45 -9.5 77t-45.5 52.5t-70.5 30t-83.5 9.5t-86 -10
t-78 -31t-59.5 -52.5t-30.5 -75.5z" />
    <glyph glyph-name="Odieresis" unicode="&#xd6;" horiz-adv-x="679" 
d="M304 821q2 13 12 21.5t22 8.5q13 0 20.5 -8.5t5.5 -21.5q-2 -12 -11.5 -21t-22.5 -9q-12 0 -20 9t-6 21zM479 821q2 13 11.5 21.5t22.5 8.5q12 0 20 -8.5t6 -21.5q-2 -12 -12 -21t-22 -9q-13 0 -20.5 9t-5.5 21zM97 511q7 52 35.5 90.5t70.5 64.5t92 39t101 13t97.5 -13
t81 -39t52.5 -64.5t11 -90.5l-44 -313q-7 -52 -36 -91t-70.5 -65t-92 -39t-101.5 -13t-97.5 13t-81 39t-52 65t-10.5 91zM92 198q-6 -42 9.5 -74t44.5 -53t69 -31.5t84 -10.5q43 0 86.5 10.5t79 31.5t60 53t30.5 74l44 313q6 45 -9.5 77t-45.5 52.5t-70.5 30t-83.5 9.5
t-86 -10t-78 -31t-59.5 -52.5t-30.5 -75.5z" />
    <glyph glyph-name="multiply" unicode="&#xd7;" horiz-adv-x="494" 
d="M437 523l23 -26l-182 -159l135 -157l-30 -27l-135 157l-183 -161l-23 27l183 160l-140 164l31 26l140 -163z" />
    <glyph glyph-name="Oslash" unicode="&#xd8;" horiz-adv-x="678" 
d="M97 510q7 52 36 90.5t70.5 64.5t91.5 39t101 13q56 0 117 -19l40 71l30 -11l-40 -73q48 -26 76 -70t19 -105l-44 -311q-7 -52 -36 -91t-70.5 -65t-92 -39t-101.5 -13q-26 0 -55 5t-58 14l-39 -74l-32 10l41 77q-50 27 -78 70.5t-20 105.5zM92 199q-6 -48 16 -83t62 -59
l323 607q-53 15 -103 15q-43 0 -86 -10t-78 -31t-59.5 -52.5t-30.5 -75.5zM599 510q7 48 -14.5 83t-60.5 58l-323 -606q49 -15 99 -15q43 0 86 10.5t78.5 31.5t60 53t30.5 74z" />
    <glyph glyph-name="Ugrave" unicode="&#xd9;" horiz-adv-x="676" 
d="M396 765l-72 111h48l61 -111h-37zM107 201q-6 -43 8 -75t41.5 -53.5t64.5 -32t78 -10.5q40 0 80.5 10.5t74.5 32t57 53.5t29 75l71 507h39l-71 -507q-8 -53 -35 -92.5t-67 -65.5t-87.5 -39.5t-95.5 -13.5t-92 13.5t-76.5 39.5t-49 65.5t-8.5 92.5l71 507h39z" />
    <glyph glyph-name="Uacute" unicode="&#xda;" horiz-adv-x="676" 
d="M395 765h-39l78 111h48zM107 201q-6 -43 8 -75t41.5 -53.5t64.5 -32t78 -10.5q40 0 80.5 10.5t74.5 32t57 53.5t29 75l71 507h39l-71 -507q-8 -53 -35 -92.5t-67 -65.5t-87.5 -39.5t-95.5 -13.5t-92 13.5t-76.5 39.5t-49 65.5t-8.5 92.5l71 507h39z" />
    <glyph glyph-name="Ucircumflex" unicode="&#xdb;" horiz-adv-x="676" 
d="M490 765l-67 79l-96 -79h-56l136 111h37l96 -111h-50zM107 201q-6 -43 8 -75t41.5 -53.5t64.5 -32t78 -10.5q40 0 80.5 10.5t74.5 32t57 53.5t29 75l71 507h39l-71 -507q-8 -53 -35 -92.5t-67 -65.5t-87.5 -39.5t-95.5 -13.5t-92 13.5t-76.5 39.5t-49 65.5t-8.5 92.5
l71 507h39z" />
    <glyph glyph-name="Udieresis" unicode="&#xdc;" horiz-adv-x="676" 
d="M297 821q2 13 12 21.5t22 8.5q13 0 20.5 -8.5t5.5 -21.5q-2 -12 -11.5 -21t-22.5 -9q-12 0 -20 9t-6 21zM472 821q2 13 11.5 21.5t22.5 8.5q12 0 20 -8.5t6 -21.5q-2 -12 -12 -21t-22 -9q-13 0 -20.5 9t-5.5 21zM107 201q-6 -43 8 -75t41.5 -53.5t64.5 -32t78 -10.5
q40 0 80.5 10.5t74.5 32t57 53.5t29 75l71 507h39l-71 -507q-8 -53 -35 -92.5t-67 -65.5t-87.5 -39.5t-95.5 -13.5t-92 13.5t-76.5 39.5t-49 65.5t-8.5 92.5l71 507h39z" />
    <glyph glyph-name="Yacute" unicode="&#xdd;" horiz-adv-x="536" 
d="M319 765h-39l78 111h48zM245 0h-39l39 280l-178 427h45l158 -392l267 392h46l-299 -427z" />
    <glyph glyph-name="Thorn" unicode="&#xde;" horiz-adv-x="605" 
d="M44 1l99 707h39l-16 -112h218q74 0 119.5 -32t64 -80t11 -104t-39 -104t-86 -80.5t-129.5 -32.5h-219l-22 -162h-39zM329 202q63 0 107.5 26.5t70 66t31 85.5t-9.5 85.5t-52 65.5t-97 26h-218l-50 -355h218z" />
    <glyph glyph-name="germandbls" unicode="&#xdf;" horiz-adv-x="583" 
d="M243 30q40 -1 80 10.5t73 34t56.5 55.5t29.5 75q6 39 -4 69t-32.5 49.5t-55.5 29t-73 9.5h-104l5 36h104q31 0 61 9t54 27.5t40 45.5t21 63q5 38 -6.5 64.5t-34 43t-52.5 24t-62 7.5t-64.5 -8.5t-60 -26t-47 -45t-24.5 -65.5l-76 -537h-38l76 537q6 44 28 77.5t54.5 56.5
t72.5 35t84 12q40 0 77 -11t64 -32.5t40.5 -54.5t7.5 -77q-6 -46 -34.5 -89.5t-84.5 -72.5q34 -12 56 -31.5t34 -42.5t15 -49.5t-1 -53.5q-8 -52 -35.5 -92t-67 -67.5t-87 -41.5t-93.5 -13q-25 1 -55 9t-52 18l7 41q10 -4 23.5 -9t27.5 -9t28 -7t25 -3z" />
    <glyph glyph-name="agrave" unicode="&#xe0;" horiz-adv-x="513" 
d="M313 585l-72 111h48l61 -111h-37zM368 55q-35 -34 -78 -49.5t-88 -15.5q-33 0 -64 8.5t-54.5 27.5t-35.5 48.5t-6 70.5l31 222q6 45 27.5 76t52 49.5t68 26.5t75.5 8q48 0 91.5 -8.5t76.5 -24.5l-69 -494h-34zM425 468q-25 13 -59 19.5t-70 6.5q-32 0 -63.5 -6.5
t-57.5 -21.5t-44 -39t-23 -59l-31 -223q-5 -33 4.5 -56t28.5 -38t44.5 -21.5t53.5 -6.5q45 0 89 19t76 51z" />
    <glyph glyph-name="aacute" unicode="&#xe1;" horiz-adv-x="513" 
d="M312 585h-39l78 111h48zM368 55q-35 -34 -78 -49.5t-88 -15.5q-33 0 -64 8.5t-54.5 27.5t-35.5 48.5t-6 70.5l31 222q6 45 27.5 76t52 49.5t68 26.5t75.5 8q48 0 91.5 -8.5t76.5 -24.5l-69 -494h-34zM425 468q-25 13 -59 19.5t-70 6.5q-32 0 -63.5 -6.5t-57.5 -21.5
t-44 -39t-23 -59l-31 -223q-5 -33 4.5 -56t28.5 -38t44.5 -21.5t53.5 -6.5q45 0 89 19t76 51z" />
    <glyph glyph-name="acircumflex" unicode="&#xe2;" horiz-adv-x="513" 
d="M407 585l-67 79l-96 -79h-56l136 111h37l96 -111h-50zM368 55q-35 -34 -78 -49.5t-88 -15.5q-33 0 -64 8.5t-54.5 27.5t-35.5 48.5t-6 70.5l31 222q6 45 27.5 76t52 49.5t68 26.5t75.5 8q48 0 91.5 -8.5t76.5 -24.5l-69 -494h-34zM425 468q-25 13 -59 19.5t-70 6.5
q-32 0 -63.5 -6.5t-57.5 -21.5t-44 -39t-23 -59l-31 -223q-5 -33 4.5 -56t28.5 -38t44.5 -21.5t53.5 -6.5q45 0 89 19t76 51z" />
    <glyph glyph-name="atilde" unicode="&#xe3;" horiz-adv-x="513" 
d="M198 609q7 37 30 58t52 21q22 0 37.5 -10t28 -22t24 -22t26.5 -10q20 0 33 14t21 39l27 -7q-6 -33 -28 -56.5t-54 -23.5q-21 0 -35 10.5t-26.5 23t-25.5 22.5t-31 9q-17 -1 -31 -14.5t-22 -39.5zM368 55q-35 -34 -78 -49.5t-88 -15.5q-33 0 -64 8.5t-54.5 27.5
t-35.5 48.5t-6 70.5l31 222q6 45 27.5 76t52 49.5t68 26.5t75.5 8q48 0 91.5 -8.5t76.5 -24.5l-69 -494h-34zM425 468q-25 13 -59 19.5t-70 6.5q-32 0 -63.5 -6.5t-57.5 -21.5t-44 -39t-23 -59l-31 -223q-5 -33 4.5 -56t28.5 -38t44.5 -21.5t53.5 -6.5q45 0 89 19t76 51z
" />
    <glyph glyph-name="adieresis" unicode="&#xe4;" horiz-adv-x="513" 
d="M214 641q2 13 12 21.5t22 8.5q13 0 20.5 -8.5t5.5 -21.5q-2 -12 -11.5 -21t-22.5 -9q-12 0 -20 9t-6 21zM389 641q2 13 11.5 21.5t22.5 8.5q12 0 20 -8.5t6 -21.5q-2 -12 -12 -21t-22 -9q-13 0 -20.5 9t-5.5 21zM368 55q-35 -34 -78 -49.5t-88 -15.5q-33 0 -64 8.5
t-54.5 27.5t-35.5 48.5t-6 70.5l31 222q6 45 27.5 76t52 49.5t68 26.5t75.5 8q48 0 91.5 -8.5t76.5 -24.5l-69 -494h-34zM425 468q-25 13 -59 19.5t-70 6.5q-32 0 -63.5 -6.5t-57.5 -21.5t-44 -39t-23 -59l-31 -223q-5 -33 4.5 -56t28.5 -38t44.5 -21.5t53.5 -6.5
q45 0 89 19t76 51z" />
    <glyph glyph-name="aring" unicode="&#xe5;" horiz-adv-x="513" 
d="M415 653q-5 -37 -30 -59t-61 -22t-55 22t-14 59t30.5 59t61.5 22t54.5 -22t13.5 -59zM386 653q3 24 -8.5 39t-34.5 15t-39.5 -15t-19.5 -39q-4 -24 7.5 -39t34.5 -15t39.5 15t20.5 39zM368 55q-35 -34 -78 -49.5t-88 -15.5q-33 0 -64 8.5t-54.5 27.5t-35.5 48.5t-6 70.5
l31 222q6 45 27.5 76t52 49.5t68 26.5t75.5 8q48 0 91.5 -8.5t76.5 -24.5l-69 -494h-34zM425 468q-25 13 -59 19.5t-70 6.5q-32 0 -63.5 -6.5t-57.5 -21.5t-44 -39t-23 -59l-31 -223q-5 -33 4.5 -56t28.5 -38t44.5 -21.5t53.5 -6.5q45 0 89 19t76 51z" />
    <glyph glyph-name="ae" unicode="&#xe6;" horiz-adv-x="817" 
d="M412 145q-5 -30 5.5 -53t30.5 -38.5t46.5 -23t53.5 -7.5q42 0 82 16t64 50l28 -15q-29 -41 -78.5 -62.5t-99.5 -21.5q-45 0 -83.5 16.5t-60.5 47.5l-6 -54h-35l9 59q-35 -34 -79 -52t-89 -18q-33 0 -64 8.5t-54.5 27.5t-35.5 48.5t-6 70.5l31 223q6 45 28.5 76t54.5 50
t70.5 27t76.5 8q52 0 92.5 -12.5t78.5 -38.5q30 26 69.5 38.5t77.5 12.5q34 0 66 -9.5t55 -29t35 -49.5t6 -70q-6 -42 -26 -73.5t-49.5 -52t-65 -31t-71.5 -10.5q-35 0 -72 8t-72 25zM429 267q30 -13 70.5 -22.5t78.5 -9.5q30 0 58 7.5t51 24t39 42t21 61.5q4 33 -5 57
t-28 39.5t-45 23.5t-54 8q-29 0 -57.5 -8.5t-52.5 -25t-40.5 -42t-21.5 -58.5zM410 363q8 55 37 90q-26 23 -68.5 33t-80.5 10q-32 0 -64.5 -7t-59 -22t-45 -39.5t-23.5 -59.5l-31 -224q-5 -33 4.5 -56t28.5 -38t44.5 -21.5t53.5 -6.5q45 0 89.5 21.5t76.5 53.5z" />
    <glyph glyph-name="ccedilla" unicode="&#xe7;" horiz-adv-x="454" 
d="M76 148q-4 -32 5.5 -55t28.5 -38t45 -22t54 -7q45 0 87.5 19t64.5 57l31 -16q-24 -38 -64.5 -62t-86.5 -31l-31 -56q38 0 57.5 -21t8.5 -56q-13 -38 -41.5 -52.5t-60.5 -14.5q-28 0 -47.5 7.5t-34.5 18.5l10 28q17 -11 34 -17.5t37 -6.5t38.5 7.5t27.5 31.5
q6 18 0.5 28.5t-16.5 15.5t-25.5 4.5t-26.5 -3.5l-5 8l43 75h-5q-35 0 -66.5 10t-55 29.5t-35.5 49t-7 69.5l30 222q5 40 25.5 69.5t49.5 49t63.5 29.5t69.5 10q49 0 91 -18.5t61 -57.5l-31 -19q-17 30 -51 44.5t-75 14.5q-28 0 -56 -7t-51.5 -22t-39.5 -37.5t-20 -53.5z
" />
    <glyph glyph-name="egrave" unicode="&#xe8;" horiz-adv-x="478" 
d="M278 585l-72 111h48l61 -111h-37zM74 146q-5 -33 5.5 -56t30 -38t46 -22t53.5 -7q42 0 82.5 16t64.5 50l27 -15q-29 -41 -78.5 -62.5t-99.5 -21.5q-35 0 -67 9.5t-55.5 29t-35.5 49t-6 69.5l30 219q6 41 26 71.5t49 50.5t64 30t70 10q34 0 66 -9.5t55 -29t35 -49.5t6 -70
q-6 -42 -26 -73.5t-49.5 -52t-65 -31t-71.5 -10.5q-35 0 -71.5 8t-71.5 25zM91 267q30 -13 70 -22.5t78 -9.5q30 0 58 7.5t51 24t39 42t21 61.5q4 33 -5 56.5t-28 39.5t-45 23.5t-54 7.5q-29 0 -57.5 -8t-52.5 -24t-40.5 -40.5t-20.5 -57.5z" />
    <glyph glyph-name="eacute" unicode="&#xe9;" horiz-adv-x="478" 
d="M277 585h-39l78 111h48zM74 146q-5 -33 5.5 -56t30 -38t46 -22t53.5 -7q42 0 82.5 16t64.5 50l27 -15q-29 -41 -78.5 -62.5t-99.5 -21.5q-35 0 -67 9.5t-55.5 29t-35.5 49t-6 69.5l30 219q6 41 26 71.5t49 50.5t64 30t70 10q34 0 66 -9.5t55 -29t35 -49.5t6 -70
q-6 -42 -26 -73.5t-49.5 -52t-65 -31t-71.5 -10.5q-35 0 -71.5 8t-71.5 25zM91 267q30 -13 70 -22.5t78 -9.5q30 0 58 7.5t51 24t39 42t21 61.5q4 33 -5 56.5t-28 39.5t-45 23.5t-54 7.5q-29 0 -57.5 -8t-52.5 -24t-40.5 -40.5t-20.5 -57.5z" />
    <glyph glyph-name="ecircumflex" unicode="&#xea;" horiz-adv-x="478" 
d="M372 585l-67 79l-96 -79h-56l136 111h37l96 -111h-50zM74 146q-5 -33 5.5 -56t30 -38t46 -22t53.5 -7q42 0 82.5 16t64.5 50l27 -15q-29 -41 -78.5 -62.5t-99.5 -21.5q-35 0 -67 9.5t-55.5 29t-35.5 49t-6 69.5l30 219q6 41 26 71.5t49 50.5t64 30t70 10q34 0 66 -9.5
t55 -29t35 -49.5t6 -70q-6 -42 -26 -73.5t-49.5 -52t-65 -31t-71.5 -10.5q-35 0 -71.5 8t-71.5 25zM91 267q30 -13 70 -22.5t78 -9.5q30 0 58 7.5t51 24t39 42t21 61.5q4 33 -5 56.5t-28 39.5t-45 23.5t-54 7.5q-29 0 -57.5 -8t-52.5 -24t-40.5 -40.5t-20.5 -57.5z" />
    <glyph glyph-name="edieresis" unicode="&#xeb;" horiz-adv-x="478" 
d="M179 641q2 13 12 21.5t22 8.5q13 0 20.5 -8.5t5.5 -21.5q-2 -12 -11.5 -21t-22.5 -9q-12 0 -20 9t-6 21zM354 641q2 13 11.5 21.5t22.5 8.5q12 0 20 -8.5t6 -21.5q-2 -12 -12 -21t-22 -9q-13 0 -20.5 9t-5.5 21zM74 146q-5 -33 5.5 -56t30 -38t46 -22t53.5 -7
q42 0 82.5 16t64.5 50l27 -15q-29 -41 -78.5 -62.5t-99.5 -21.5q-35 0 -67 9.5t-55.5 29t-35.5 49t-6 69.5l30 219q6 41 26 71.5t49 50.5t64 30t70 10q34 0 66 -9.5t55 -29t35 -49.5t6 -70q-6 -42 -26 -73.5t-49.5 -52t-65 -31t-71.5 -10.5q-35 0 -71.5 8t-71.5 25zM91 267
q30 -13 70 -22.5t78 -9.5q30 0 58 7.5t51 24t39 42t21 61.5q4 33 -5 56.5t-28 39.5t-45 23.5t-54 7.5q-29 0 -57.5 -8t-52.5 -24t-40.5 -40.5t-20.5 -57.5z" />
    <glyph glyph-name="igrave" unicode="&#xec;" horiz-adv-x="190" 
d="M132 575l-72 111h48l61 -111h-37zM71 0h-37l72 518h37z" />
    <glyph glyph-name="iacute" unicode="&#xed;" horiz-adv-x="190" 
d="M131 575h-39l78 111h48zM71 0h-37l72 518h37z" />
    <glyph glyph-name="icircumflex" unicode="&#xee;" horiz-adv-x="190" 
d="M217 575l-56 79l-88 -79h-54l125 111h38l83 -111h-48zM71 0h-37l72 518h37z" />
    <glyph glyph-name="idieresis" unicode="&#xef;" horiz-adv-x="190" 
d="M44 631q2 13 12 21.5t22 8.5q13 0 20.5 -8.5t5.5 -21.5q-2 -12 -11.5 -21t-22.5 -9q-12 0 -20 9t-6 21zM189 631q2 13 11.5 21.5t22.5 8.5q12 0 20 -8.5t6 -21.5q-2 -12 -12 -21t-22 -9q-13 0 -20.5 9t-5.5 21zM71 0h-37l72 518h37z" />
    <glyph glyph-name="eth" unicode="&#xf0;" horiz-adv-x="505" 
d="M138 653q38 36 90 50t105 6l31 65q8 -3 14.5 -5t12.5 -4l-29 -62q50 -16 80.5 -52t22.5 -95l-76 -536l-50 -15q-36 -10 -71.5 -12t-70.5 -2q-34 0 -65 10.5t-53.5 30t-33.5 48.5t-6 68l23 164q6 38 26 67.5t48.5 50t63 30.5t69.5 10t70.5 -7.5t73.5 -27.5l17 121
q6 45 -19 73t-64 42l-37 -81l-26 10l35 77q-53 6 -90.5 -5t-70.5 -41zM408 399q-73 34 -147 34q-27 0 -54.5 -7.5t-50.5 -22.5t-39 -37.5t-20 -52.5l-23 -165q-4 -31 5 -54t27.5 -38t43.5 -22.5t53 -7.5q42 0 85 7t71 18z" />
    <glyph glyph-name="ntilde" unicode="&#xf1;" 
d="M176 609q7 37 30 58t52 21q22 0 37.5 -10t28 -22t24 -22t26.5 -10q20 0 33 14t21 39l27 -7q-6 -33 -28 -56.5t-54 -23.5q-21 0 -35 10.5t-26.5 23t-25.5 22.5t-31 9q-17 -1 -31 -14.5t-22 -39.5zM101 490q47 16 96 27t98 11q34 -1 65.5 -11t54.5 -29.5t34.5 -49
t5.5 -68.5l-52 -370h-36l52 370q4 31 -5.5 54t-28 38t-43.5 22t-52 7q-43 0 -86 -9.5t-72 -20.5l-64 -461h-36z" />
    <glyph glyph-name="ograve" unicode="&#xf2;" horiz-adv-x="496" 
d="M276 585l-72 111h48l61 -111h-37zM70 369q5 40 25.5 69.5t49.5 49.5t64 30t70 10t67 -10t55 -30t35 -49.5t7 -69.5l-30 -220q-5 -40 -25 -69.5t-49.5 -49.5t-64.5 -30t-70 -10t-66.5 10t-55 30t-35.5 49.5t-7 69.5zM274 491q-27 0 -55 -7t-51.5 -22t-40.5 -38t-21 -55
l-30 -220q-5 -32 5 -55.5t29.5 -38.5t45.5 -22t53 -7t55 7t51.5 22t40 38.5t21.5 55.5l30 220q4 32 -6 55t-29 38t-45 22t-53 7z" />
    <glyph glyph-name="oacute" unicode="&#xf3;" horiz-adv-x="496" 
d="M275 585h-39l78 111h48zM70 369q5 40 25.5 69.5t49.5 49.5t64 30t70 10t67 -10t55 -30t35 -49.5t7 -69.5l-30 -220q-5 -40 -25 -69.5t-49.5 -49.5t-64.5 -30t-70 -10t-66.5 10t-55 30t-35.5 49.5t-7 69.5zM274 491q-27 0 -55 -7t-51.5 -22t-40.5 -38t-21 -55l-30 -220
q-5 -32 5 -55.5t29.5 -38.5t45.5 -22t53 -7t55 7t51.5 22t40 38.5t21.5 55.5l30 220q4 32 -6 55t-29 38t-45 22t-53 7z" />
    <glyph glyph-name="ocircumflex" unicode="&#xf4;" horiz-adv-x="496" 
d="M370 585l-67 79l-96 -79h-56l136 111h37l96 -111h-50zM70 369q5 40 25.5 69.5t49.5 49.5t64 30t70 10t67 -10t55 -30t35 -49.5t7 -69.5l-30 -220q-5 -40 -25 -69.5t-49.5 -49.5t-64.5 -30t-70 -10t-66.5 10t-55 30t-35.5 49.5t-7 69.5zM274 491q-27 0 -55 -7t-51.5 -22
t-40.5 -38t-21 -55l-30 -220q-5 -32 5 -55.5t29.5 -38.5t45.5 -22t53 -7t55 7t51.5 22t40 38.5t21.5 55.5l30 220q4 32 -6 55t-29 38t-45 22t-53 7z" />
    <glyph glyph-name="otilde" unicode="&#xf5;" horiz-adv-x="496" 
d="M161 609q7 37 30 58t52 21q22 0 37.5 -10t28 -22t24 -22t26.5 -10q20 0 33 14t21 39l27 -7q-6 -33 -28 -56.5t-54 -23.5q-21 0 -35 10.5t-26.5 23t-25.5 22.5t-31 9q-17 -1 -31 -14.5t-22 -39.5zM70 369q5 40 25.5 69.5t49.5 49.5t64 30t70 10t67 -10t55 -30t35 -49.5
t7 -69.5l-30 -220q-5 -40 -25 -69.5t-49.5 -49.5t-64.5 -30t-70 -10t-66.5 10t-55 30t-35.5 49.5t-7 69.5zM274 491q-27 0 -55 -7t-51.5 -22t-40.5 -38t-21 -55l-30 -220q-5 -32 5 -55.5t29.5 -38.5t45.5 -22t53 -7t55 7t51.5 22t40 38.5t21.5 55.5l30 220q4 32 -6 55
t-29 38t-45 22t-53 7z" />
    <glyph glyph-name="odieresis" unicode="&#xf6;" horiz-adv-x="496" 
d="M177 641q2 13 12 21.5t22 8.5q13 0 20.5 -8.5t5.5 -21.5q-2 -12 -11.5 -21t-22.5 -9q-12 0 -20 9t-6 21zM352 641q2 13 11.5 21.5t22.5 8.5q12 0 20 -8.5t6 -21.5q-2 -12 -12 -21t-22 -9q-13 0 -20.5 9t-5.5 21zM70 369q5 40 25.5 69.5t49.5 49.5t64 30t70 10t67 -10
t55 -30t35 -49.5t7 -69.5l-30 -220q-5 -40 -25 -69.5t-49.5 -49.5t-64.5 -30t-70 -10t-66.5 10t-55 30t-35.5 49.5t-7 69.5zM274 491q-27 0 -55 -7t-51.5 -22t-40.5 -38t-21 -55l-30 -220q-5 -32 5 -55.5t29.5 -38.5t45.5 -22t53 -7t55 7t51.5 22t40 38.5t21.5 55.5l30 220
q4 32 -6 55t-29 38t-45 22t-53 7z" />
    <glyph glyph-name="divide" unicode="&#xf7;" horiz-adv-x="573" 
d="M278 479q2 17 14 26.5t28 10.5q16 0 25 -10.5t7 -26.5t-14 -26.5t-28 -10.5t-25 10.5t-7 26.5zM500 313h-427l6 38h427zM235 174q2 17 14 26.5t28 10.5q16 0 25 -10.5t7 -26.5t-14 -26.5t-28 -10.5t-25 10.5t-7 26.5z" />
    <glyph glyph-name="oslash" unicode="&#xf8;" horiz-adv-x="496" 
d="M70 369q5 40 25.5 69.5t49.5 49.5t64 30t70 10q41 -2 80 -15l41 75l29 -10l-42 -77q31 -22 46.5 -54.5t9.5 -77.5l-30 -220q-5 -40 -25 -69.5t-49 -49.5t-64 -30t-70 -10q-40 2 -82 16l-44 -76l-26 11l43 77q-30 22 -46 54.5t-10 76.5zM274 491q-27 0 -55 -7t-51.5 -22
t-40.5 -38t-21 -55l-30 -220q-4 -30 6 -54t31 -44l227 429q-38 11 -66 11zM210 26q27 0 55 7t51 22t39.5 38.5t21.5 55.5l30 220q4 30 -7 54t-32 43l-229 -428q37 -12 71 -12z" />
    <glyph glyph-name="ugrave" unicode="&#xf9;" 
d="M288 585l-72 111h48l61 -111h-37zM406 28q-48 -16 -97 -27t-98 -11q-34 1 -65 11t-54 29.5t-35 49t-6 68.5l52 370h36l-52 -370q-5 -31 5 -54t28.5 -38t43.5 -22t52 -7q43 0 86.5 9.5t71.5 20.5l64 461h36z" />
    <glyph glyph-name="uacute" unicode="&#xfa;" 
d="M287 585h-39l78 111h48zM406 28q-48 -16 -97 -27t-98 -11q-34 1 -65 11t-54 29.5t-35 49t-6 68.5l52 370h36l-52 -370q-5 -31 5 -54t28.5 -38t43.5 -22t52 -7q43 0 86.5 9.5t71.5 20.5l64 461h36z" />
    <glyph glyph-name="ucircumflex" unicode="&#xfb;" 
d="M382 585l-67 79l-96 -79h-56l136 111h37l96 -111h-50zM406 28q-48 -16 -97 -27t-98 -11q-34 1 -65 11t-54 29.5t-35 49t-6 68.5l52 370h36l-52 -370q-5 -31 5 -54t28.5 -38t43.5 -22t52 -7q43 0 86.5 9.5t71.5 20.5l64 461h36z" />
    <glyph glyph-name="udieresis" unicode="&#xfc;" 
d="M189 641q2 13 12 21.5t22 8.5q13 0 20.5 -8.5t5.5 -21.5q-2 -12 -11.5 -21t-22.5 -9q-12 0 -20 9t-6 21zM364 641q2 13 11.5 21.5t22.5 8.5q12 0 20 -8.5t6 -21.5q-2 -12 -12 -21t-22 -9q-13 0 -20.5 9t-5.5 21zM406 28q-48 -16 -97 -27t-98 -11q-34 1 -65 11t-54 29.5
t-35 49t-6 68.5l52 370h36l-52 -370q-5 -31 5 -54t28.5 -38t43.5 -22t52 -7q43 0 86.5 9.5t71.5 20.5l64 461h36z" />
    <glyph glyph-name="yacute" unicode="&#xfd;" 
d="M288 585h-39l78 111h48zM391 -58q-6 -40 -25.5 -69t-47.5 -47.5t-62.5 -27.5t-68.5 -9q-45 0 -85 14t-65 41l26 22q23 -21 56.5 -32t70.5 -11q28 0 56 7t50.5 21t38.5 36.5t21 53.5l13 86q-43 -20 -81 -28.5t-73 -8.5t-67 10t-55.5 29.5t-35 49t-6.5 68.5l51 370h36
l-51 -370q-4 -31 5 -54t27 -38.5t43.5 -23.5t54.5 -8q24 0 42.5 2.5t36 7t36 12t42.5 17.5l63 455h35z" />
    <glyph glyph-name="thorn" unicode="&#xfe;" horiz-adv-x="513" 
d="M169 707l-29 -199q43 11 82.5 15.5t74.5 4.5q34 0 66 -10.5t55 -30.5t34.5 -50t6.5 -69l-30 -219q-5 -39 -25.5 -68.5t-49.5 -50t-64 -30.5t-70 -10q-36 1 -73.5 7t-73.5 24l-30 -207h-36l126 893h36zM78 60q36 -17 74 -25t75 -8q28 0 55.5 7.5t50.5 22.5t39 37.5
t20 52.5l30 221q4 31 -5 54t-27.5 38t-44 22.5t-53.5 7.5q-37 0 -75 -3.5t-82 -17.5z" />
    <glyph glyph-name="ydieresis" unicode="&#xff;" 
d="M190 641q2 13 12 21.5t22 8.5q13 0 20.5 -8.5t5.5 -21.5q-2 -12 -11.5 -21t-22.5 -9q-12 0 -20 9t-6 21zM365 641q2 13 11.5 21.5t22.5 8.5q12 0 20 -8.5t6 -21.5q-2 -12 -12 -21t-22 -9q-13 0 -20.5 9t-5.5 21zM391 -58q-6 -40 -25.5 -69t-47.5 -47.5t-62.5 -27.5
t-68.5 -9q-45 0 -85 14t-65 41l26 22q23 -21 56.5 -32t70.5 -11q28 0 56 7t50.5 21t38.5 36.5t21 53.5l13 86q-43 -20 -81 -28.5t-73 -8.5t-67 10t-55.5 29.5t-35 49t-6.5 68.5l51 370h36l-51 -370q-4 -31 5 -54t27 -38.5t43.5 -23.5t54.5 -8q24 0 42.5 2.5t36 7t36 12
t42.5 17.5l63 455h35z" />
    <glyph glyph-name="Amacron" unicode="&#x100;" horiz-adv-x="599" 
d="M250 821h225l-5 -33h-225zM544 0h-42l-55 246h-317l-120 -246h-42l360 708h57zM150 285h290l-88 394z" />
    <glyph glyph-name="amacron" unicode="&#x101;" horiz-adv-x="513" 
d="M211 641h225l-5 -33h-225zM368 55q-35 -34 -78 -49.5t-88 -15.5q-33 0 -64 8.5t-54.5 27.5t-35.5 48.5t-6 70.5l31 222q6 45 27.5 76t52 49.5t68 26.5t75.5 8q48 0 91.5 -8.5t76.5 -24.5l-69 -494h-34zM425 468q-25 13 -59 19.5t-70 6.5q-32 0 -63.5 -6.5t-57.5 -21.5
t-44 -39t-23 -59l-31 -223q-5 -33 4.5 -56t28.5 -38t44.5 -21.5t53.5 -6.5q45 0 89 19t76 51z" />
    <glyph glyph-name="Abreve" unicode="&#x102;" horiz-adv-x="599" 
d="M368 765q-51 0 -78 32.5t-22 78.5h37q-5 -32 13 -54t52 -22q38 0 64.5 22t29.5 54h37q-7 -46 -42.5 -78.5t-90.5 -32.5zM544 0h-42l-55 246h-317l-120 -246h-42l360 708h57zM150 285h290l-88 394z" />
    <glyph glyph-name="abreve" unicode="&#x103;" horiz-adv-x="513" 
d="M329 585q-51 0 -78 32.5t-22 78.5h37q-5 -32 13 -54t52 -22q38 0 64.5 22t29.5 54h37q-7 -46 -42.5 -78.5t-90.5 -32.5zM368 55q-35 -34 -78 -49.5t-88 -15.5q-33 0 -64 8.5t-54.5 27.5t-35.5 48.5t-6 70.5l31 222q6 45 27.5 76t52 49.5t68 26.5t75.5 8q48 0 91.5 -8.5
t76.5 -24.5l-69 -494h-34zM425 468q-25 13 -59 19.5t-70 6.5q-32 0 -63.5 -6.5t-57.5 -21.5t-44 -39t-23 -59l-31 -223q-5 -33 4.5 -56t28.5 -38t44.5 -21.5t53.5 -6.5q45 0 89 19t76 51z" />
    <glyph glyph-name="Aogonek" unicode="&#x104;" horiz-adv-x="598" 
d="M454 -152q3 -12 12.5 -17.5t22.5 -7t27.5 1.5t28.5 9l-4 -31q-44 -18 -78.5 -9t-43.5 41q-8 31 12 74.5t77 90.5h-7l-55 246h-317l-120 -246h-42l360 708h57l159 -708h-4q-50 -48 -71.5 -84.5t-13.5 -67.5zM351 679l-202 -394h290z" />
    <glyph glyph-name="aogonek" unicode="&#x105;" horiz-adv-x="513" 
d="M309 -152q3 -12 12.5 -17.5t22.5 -7t27.5 1.5t28.5 9l-4 -31q-44 -18 -78.5 -9t-43.5 41q-8 31 12 74.5t77 90.5h-2l7 55q-35 -34 -78 -49.5t-88 -15.5q-33 0 -64 8.5t-54.5 27.5t-35.5 48.5t-6 70.5l31 222q6 45 27.5 76t52 49.5t68 26.5t75.5 8q48 0 91.5 -8.5
t76.5 -24.5l-69 -494h-1q-50 -48 -71.5 -84.5t-13.5 -67.5zM208 23q45 0 89 19t76 51l52 375q-25 13 -59 19.5t-70 6.5q-32 0 -63.5 -6.5t-57.5 -21.5t-44 -39t-23 -59l-31 -223q-5 -33 4.5 -56t28.5 -38t44.5 -21.5t53.5 -6.5z" />
    <glyph glyph-name="Cacute" unicode="&#x106;" horiz-adv-x="587" 
d="M392 765h-39l78 111h48zM98 511q7 51 35 89t68 64t88 39t96 13q35 0 68.5 -6.5t62 -20.5t50 -35t32.5 -50l-37 -18q-21 45 -72.5 68t-111.5 23q-40 0 -80.5 -10.5t-74 -31t-56.5 -51.5t-29 -73l-44 -316q-6 -42 8.5 -73t42 -51.5t65 -31t77.5 -10.5q60 0 118 23t93 68
l31 -17q-19 -29 -47 -50t-60.5 -35t-68.5 -21t-72 -7q-47 0 -91 13t-76.5 38.5t-49 64t-9.5 89.5z" />
    <glyph glyph-name="cacute" unicode="&#x107;" horiz-adv-x="454" 
d="M286 585h-39l78 111h48zM399 433q-17 30 -51 44.5t-75 14.5q-28 0 -56 -7t-51.5 -22t-39.5 -37.5t-20 -53.5l-30 -224q-4 -32 5.5 -55t28.5 -38t45 -22t54 -7q45 0 87.5 19t64.5 57l31 -16q-29 -47 -81 -71.5t-107 -24.5q-35 0 -66.5 10t-55 29.5t-35.5 49t-7 69.5
l30 222q5 40 25.5 69.5t49.5 49t63.5 29.5t69.5 10q49 0 91 -18.5t61 -57.5z" />
    <glyph glyph-name="Cdotaccent" unicode="&#x10a;" horiz-adv-x="587" 
d="M372 825q2 14 13.5 24t25.5 10t22.5 -10t6.5 -24t-13 -24t-25 -10t-23 10t-7 24zM98 511q7 51 35 89t68 64t88 39t96 13q35 0 68.5 -6.5t62 -20.5t50 -35t32.5 -50l-37 -18q-21 45 -72.5 68t-111.5 23q-40 0 -80.5 -10.5t-74 -31t-56.5 -51.5t-29 -73l-44 -316
q-6 -42 8.5 -73t42 -51.5t65 -31t77.5 -10.5q60 0 118 23t93 68l31 -17q-19 -29 -47 -50t-60.5 -35t-68.5 -21t-72 -7q-47 0 -91 13t-76.5 38.5t-49 64t-9.5 89.5z" />
    <glyph glyph-name="cdotaccent" unicode="&#x10b;" horiz-adv-x="454" 
d="M266 645q2 14 13.5 24t25.5 10t22.5 -10t6.5 -24t-13 -24t-25 -10t-23 10t-7 24zM399 433q-17 30 -51 44.5t-75 14.5q-28 0 -56 -7t-51.5 -22t-39.5 -37.5t-20 -53.5l-30 -224q-4 -32 5.5 -55t28.5 -38t45 -22t54 -7q45 0 87.5 19t64.5 57l31 -16q-29 -47 -81 -71.5
t-107 -24.5q-35 0 -66.5 10t-55 29.5t-35.5 49t-7 69.5l30 222q5 40 25.5 69.5t49.5 49t63.5 29.5t69.5 10q49 0 91 -18.5t61 -57.5z" />
    <glyph glyph-name="Ccaron" unicode="&#x10c;" horiz-adv-x="587" 
d="M332 876l68 -79l94 79h58l-137 -111h-34l-98 111h49zM98 511q7 51 35 89t68 64t88 39t96 13q35 0 68.5 -6.5t62 -20.5t50 -35t32.5 -50l-37 -18q-21 45 -72.5 68t-111.5 23q-40 0 -80.5 -10.5t-74 -31t-56.5 -51.5t-29 -73l-44 -316q-6 -42 8.5 -73t42 -51.5t65 -31
t77.5 -10.5q60 0 118 23t93 68l31 -17q-19 -29 -47 -50t-60.5 -35t-68.5 -21t-72 -7q-47 0 -91 13t-76.5 38.5t-49 64t-9.5 89.5z" />
    <glyph glyph-name="ccaron" unicode="&#x10d;" horiz-adv-x="454" 
d="M226 696l68 -79l94 79h58l-137 -111h-34l-98 111h49zM399 433q-17 30 -51 44.5t-75 14.5q-28 0 -56 -7t-51.5 -22t-39.5 -37.5t-20 -53.5l-30 -224q-4 -32 5.5 -55t28.5 -38t45 -22t54 -7q45 0 87.5 19t64.5 57l31 -16q-29 -47 -81 -71.5t-107 -24.5q-35 0 -66.5 10
t-55 29.5t-35.5 49t-7 69.5l30 222q5 40 25.5 69.5t49.5 49t63.5 29.5t69.5 10q49 0 91 -18.5t61 -57.5z" />
    <glyph glyph-name="Dcaron" unicode="&#x10e;" horiz-adv-x="641" 
d="M291 876l68 -79l94 79h58l-137 -111h-34l-98 111h49zM389 708q48 0 89 -11t70 -35t42 -61.5t6 -89.5l-44 -315q-7 -52 -31 -89t-59 -61t-79.5 -35t-92.5 -11h-246l99 708h246zM295 39q40 0 77 9t66.5 27.5t49 48.5t25.5 72l44 315q6 42 -5 72t-35 49t-58.5 28t-74.5 9
h-207l-89 -630h207z" />
    <glyph glyph-name="dcaron" unicode="&#x10f;" horiz-adv-x="530" 
d="M396 21q-48 -14 -97 -22.5t-98 -8.5q-34 1 -65.5 11t-54.5 29.5t-34.5 49t-6.5 68.5l30 222q5 39 25 68.5t49.5 49.5t64.5 30t70 10q36 0 73.5 -8t73.5 -25l30 213h36zM554 555h-30l59 145h37zM420 459q-35 17 -72.5 25t-74.5 8q-29 0 -56.5 -7.5t-50.5 -22.5t-39 -37.5
t-20 -53.5l-30 -223q-4 -31 5 -54t27 -38.5t43.5 -23t53.5 -7.5q37 0 76.5 5t81.5 19z" />
    <glyph glyph-name="Dcroat" unicode="&#x110;" horiz-adv-x="638" 
d="M146 708h226q48 0 92 -13t76 -38.5t48.5 -64.5t9.5 -91l-42 -295q-7 -52 -34.5 -90.5t-67 -64t-87 -38.5t-95.5 -13h-226l48 335h-63l4 32h63zM278 39q40 0 80.5 10.5t74 31t56 52t28.5 73.5l42 295q6 42 -8 73.5t-41.5 52.5t-65 31.5t-77.5 10.5h-187l-43 -302h125
l-4 -32h-125l-42 -296h187z" />
    <glyph glyph-name="dcroat" unicode="&#x111;" horiz-adv-x="511" 
d="M479 616l-83 -595q-48 -14 -97 -22.5t-98 -8.5q-34 1 -65.5 11t-54.5 29.5t-34.5 49t-6.5 68.5l30 222q5 39 25 68.5t49.5 49.5t64.5 30t70 10q36 0 73.5 -8t73.5 -25l17 121h-108l3 23h108l10 69h36l-10 -69h60l-3 -23h-60zM420 459q-35 17 -72.5 25t-74.5 8
q-29 0 -56.5 -7.5t-50.5 -22.5t-39 -37.5t-20 -53.5l-30 -223q-4 -31 5 -54t27 -38.5t43.5 -23t53.5 -7.5q37 0 76.5 5t81.5 19z" />
    <glyph glyph-name="Emacron" unicode="&#x112;" horiz-adv-x="563" 
d="M256 821h225l-5 -33h-225zM135 374h359l-6 -40h-359l-41 -295h389l-5 -39h-428l99 708h428l-5 -39h-389z" />
    <glyph glyph-name="emacron" unicode="&#x113;" horiz-adv-x="478" 
d="M176 641h225l-5 -33h-225zM74 146q-5 -33 5.5 -56t30 -38t46 -22t53.5 -7q42 0 82.5 16t64.5 50l27 -15q-29 -41 -78.5 -62.5t-99.5 -21.5q-35 0 -67 9.5t-55.5 29t-35.5 49t-6 69.5l30 219q6 41 26 71.5t49 50.5t64 30t70 10q34 0 66 -9.5t55 -29t35 -49.5t6 -70
q-6 -42 -26 -73.5t-49.5 -52t-65 -31t-71.5 -10.5q-35 0 -71.5 8t-71.5 25zM91 267q30 -13 70 -22.5t78 -9.5q30 0 58 7.5t51 24t39 42t21 61.5q4 33 -5 56.5t-28 39.5t-45 23.5t-54 7.5q-29 0 -57.5 -8t-52.5 -24t-40.5 -40.5t-20.5 -57.5z" />
    <glyph glyph-name="Edotaccent" unicode="&#x116;" horiz-adv-x="563" 
d="M337 825q2 14 13.5 24t25.5 10t22.5 -10t6.5 -24t-13 -24t-25 -10t-23 10t-7 24zM135 374h359l-6 -40h-359l-41 -295h389l-5 -39h-428l99 708h428l-5 -39h-389z" />
    <glyph glyph-name="edotaccent" unicode="&#x117;" horiz-adv-x="478" 
d="M257 645q2 14 13.5 24t25.5 10t22.5 -10t6.5 -24t-13 -24t-25 -10t-23 10t-7 24zM74 146q-5 -33 5.5 -56t30 -38t46 -22t53.5 -7q42 0 82.5 16t64.5 50l27 -15q-29 -41 -78.5 -62.5t-99.5 -21.5q-35 0 -67 9.5t-55.5 29t-35.5 49t-6 69.5l30 219q6 41 26 71.5t49 50.5
t64 30t70 10q34 0 66 -9.5t55 -29t35 -49.5t6 -70q-6 -42 -26 -73.5t-49.5 -52t-65 -31t-71.5 -10.5q-35 0 -71.5 8t-71.5 25zM91 267q30 -13 70 -22.5t78 -9.5q30 0 58 7.5t51 24t39 42t21 61.5q4 33 -5 56.5t-28 39.5t-45 23.5t-54 7.5q-29 0 -57.5 -8t-52.5 -24
t-40.5 -40.5t-20.5 -57.5z" />
    <glyph glyph-name="Eogonek" unicode="&#x118;" horiz-adv-x="562" 
d="M134 374h359l-6 -40h-359l-41 -295h389l-5 -39h-4q-50 -48 -71.5 -84.5t-13.5 -67.5q3 -12 12.5 -17.5t22.5 -7t27.5 1.5t28.5 9l-4 -31q-44 -18 -78.5 -9t-43.5 41q-8 31 12 74.5t77 90.5h-393l99 708h428l-5 -39h-389z" />
    <glyph glyph-name="eogonek" unicode="&#x119;" horiz-adv-x="477" 
d="M279 528q34 0 66 -9.5t55 -29t35 -49.5t6 -70q-6 -42 -26 -73.5t-49.5 -52t-65 -31t-71.5 -10.5q-35 0 -71.5 8t-71.5 25l-13 -88q-5 -32 4.5 -54.5t28.5 -37.5t45 -22t55 -7q42 0 81.5 15.5t63.5 49.5l31 -17q-18 -26 -43.5 -41t-55.5 -33q-20 -12 -39 -30.5
t-33.5 -39.5t-21 -42.5t-1.5 -37.5q4 -13 13.5 -20t22.5 -8.5t28 2t29 10.5l-4 -30q-45 -20 -78.5 -10.5t-44.5 43.5q-5 14 -2 33t13.5 39.5t28.5 42t42 40.5q-10 -2 -17.5 -2.5t-17.5 -0.5q-35 0 -66.5 9.5t-55 29t-35 49t-5.5 69.5l31 219q6 41 26 71.5t49 50.5t64 30
t70 10zM407 370q4 33 -5 56.5t-28 39.5t-45 23.5t-54 7.5q-29 0 -57.5 -8t-52.5 -24t-40.5 -40.5t-20.5 -57.5l-14 -100q30 -13 70 -22.5t78 -9.5q30 0 58 7.5t51 24t39 42t21 61.5z" />
    <glyph glyph-name="Ecaron" unicode="&#x11a;" horiz-adv-x="563" 
d="M297 876l68 -79l94 79h58l-137 -111h-34l-98 111h49zM135 374h359l-6 -40h-359l-41 -295h389l-5 -39h-428l99 708h428l-5 -39h-389z" />
    <glyph glyph-name="ecaron" unicode="&#x11b;" horiz-adv-x="478" 
d="M217 696l68 -79l94 79h58l-137 -111h-34l-98 111h49zM74 146q-5 -33 5.5 -56t30 -38t46 -22t53.5 -7q42 0 82.5 16t64.5 50l27 -15q-29 -41 -78.5 -62.5t-99.5 -21.5q-35 0 -67 9.5t-55.5 29t-35.5 49t-6 69.5l30 219q6 41 26 71.5t49 50.5t64 30t70 10q34 0 66 -9.5
t55 -29t35 -49.5t6 -70q-6 -42 -26 -73.5t-49.5 -52t-65 -31t-71.5 -10.5q-35 0 -71.5 8t-71.5 25zM91 267q30 -13 70 -22.5t78 -9.5q30 0 58 7.5t51 24t39 42t21 61.5q4 33 -5 56.5t-28 39.5t-45 23.5t-54 7.5q-29 0 -57.5 -8t-52.5 -24t-40.5 -40.5t-20.5 -57.5z" />
    <glyph glyph-name="Gbreve" unicode="&#x11e;" horiz-adv-x="632" 
d="M378 765q-51 0 -78 32.5t-22 78.5h37q-5 -32 13 -54t52 -22q38 0 64.5 22t29.5 54h37q-7 -46 -42.5 -78.5t-90.5 -32.5zM98 513q7 51 34 89t67 64t87.5 39t95.5 13q35 0 68.5 -7t61.5 -21t49.5 -35t32.5 -50l-37 -18q-10 24 -28.5 41.5t-42.5 28.5t-52.5 16.5t-58.5 5.5
q-40 0 -80 -10.5t-73.5 -31t-56 -51.5t-28.5 -73l-43 -315q-6 -42 8.5 -73.5t41.5 -52.5t64 -31.5t78 -10.5q40 0 80.5 10.5t74.5 31.5t57 52.5t29 73.5l15 105h-217l5 39h256l-20 -144q-8 -52 -35 -91t-67 -65t-87.5 -39t-95.5 -13t-92 13t-76 39t-48.5 65t-9.5 91z" />
    <glyph glyph-name="gbreve" unicode="&#x11f;" horiz-adv-x="507" 
d="M305 580q-49 0 -75.5 31t-21.5 76h36q-5 -31 12.5 -52t49.5 -21q36 0 62 21t29 52h35q-6 -45 -40 -76t-87 -31zM49 -133q23 -21 58.5 -32.5t71.5 -11.5q30 0 58 7t50.5 21t37.5 36.5t20 53.5l14 86q-43 -20 -81 -28.5t-73 -8.5t-67 10t-55 29.5t-34.5 49t-6.5 68.5
l31 225q5 39 24.5 68t48 48.5t62.5 29.5t68 10q52 0 93 -10.5t90 -27.5l-79 -548q-6 -40 -25.5 -69t-47.5 -47.5t-62.5 -27.5t-68.5 -9q-45 0 -85 14t-65 41zM420 463q-25 11 -65.5 20.5t-83.5 9.5q-28 0 -55 -7.5t-49.5 -22.5t-38 -37.5t-19.5 -52.5l-31 -226q-4 -31 5 -54
t27 -38.5t43 -23t54 -7.5q24 0 42.5 2.5t36 7t36 11.5t42.5 18z" />
    <glyph glyph-name="Gdotaccent" unicode="&#x120;" horiz-adv-x="632" 
d="M341 825q2 14 13.5 24t25.5 10t22.5 -10t6.5 -24t-13 -24t-25 -10t-23 10t-7 24zM98 513q7 51 34 89t67 64t87.5 39t95.5 13q35 0 68.5 -7t61.5 -21t49.5 -35t32.5 -50l-37 -18q-10 24 -28.5 41.5t-42.5 28.5t-52.5 16.5t-58.5 5.5q-40 0 -80 -10.5t-73.5 -31t-56 -51.5
t-28.5 -73l-43 -315q-6 -42 8.5 -73.5t41.5 -52.5t64 -31.5t78 -10.5q40 0 80.5 10.5t74.5 31.5t57 52.5t29 73.5l15 105h-217l5 39h256l-20 -144q-8 -52 -35 -91t-67 -65t-87.5 -39t-95.5 -13t-92 13t-76 39t-48.5 65t-9.5 91z" />
    <glyph glyph-name="gdotaccent" unicode="&#x121;" horiz-adv-x="507" 
d="M277 645q2 14 13.5 24t25.5 10t22.5 -10t6.5 -24t-13 -24t-25 -10t-23 10t-7 24zM49 -133q23 -21 58.5 -32.5t71.5 -11.5q30 0 58 7t50.5 21t37.5 36.5t20 53.5l14 86q-43 -20 -81 -28.5t-73 -8.5t-67 10t-55 29.5t-34.5 49t-6.5 68.5l31 225q5 39 24.5 68t48 48.5
t62.5 29.5t68 10q52 0 93 -10.5t90 -27.5l-79 -548q-6 -40 -25.5 -69t-47.5 -47.5t-62.5 -27.5t-68.5 -9q-45 0 -85 14t-65 41zM420 463q-25 11 -65.5 20.5t-83.5 9.5q-28 0 -55 -7.5t-49.5 -22.5t-38 -37.5t-19.5 -52.5l-31 -226q-4 -31 5 -54t27 -38.5t43 -23t54 -7.5
q24 0 42.5 2.5t36 7t36 11.5t42.5 18z" />
    <glyph glyph-name="Gcommaaccent" unicode="&#x122;" horiz-adv-x="632" 
d="M98 513q7 51 34 89t67 64t87.5 39t95.5 13q35 0 68.5 -7t61.5 -21t49.5 -35t32.5 -50l-37 -18q-10 24 -28.5 41.5t-42.5 28.5t-52.5 16.5t-58.5 5.5q-40 0 -80 -10.5t-73.5 -31t-56 -51.5t-28.5 -73l-43 -315q-6 -42 8.5 -73.5t41.5 -52.5t64 -31.5t78 -10.5
q40 0 80.5 10.5t74.5 31.5t57 52.5t29 73.5l15 105h-217l5 39h256l-20 -144q-8 -52 -35 -91t-67 -65t-87.5 -39t-95.5 -13t-92 13t-76 39t-48.5 65t-9.5 91zM211 -250h-36l66 161h42z" />
    <glyph glyph-name="gcommaaccent" unicode="&#x123;" horiz-adv-x="507" 
d="M306 596h-36l55 111h40zM49 -133q23 -21 58.5 -32.5t71.5 -11.5q30 0 58 7t50.5 21t37.5 36.5t20 53.5l14 86q-43 -20 -81 -28.5t-73 -8.5t-67 10t-55 29.5t-34.5 49t-6.5 68.5l31 225q5 39 24.5 68t48 48.5t62.5 29.5t68 10q52 0 93 -10.5t90 -27.5l-79 -548
q-6 -40 -25.5 -69t-47.5 -47.5t-62.5 -27.5t-68.5 -9q-45 0 -85 14t-65 41zM420 463q-25 11 -65.5 20.5t-83.5 9.5q-28 0 -55 -7.5t-49.5 -22.5t-38 -37.5t-19.5 -52.5l-31 -226q-4 -31 5 -54t27 -38.5t43 -23t54 -7.5q24 0 42.5 2.5t36 7t36 11.5t42.5 18z" />
    <glyph glyph-name="Hbar" unicode="&#x126;" horiz-adv-x="693" 
d="M559 0h-39l47 334h-433l-47 -334h-39l76 534h-77l4 30h77l20 144h39l-20 -144h433l20 144h39l-20 -144h76l-4 -30h-76zM163 534l-23 -161h433l23 161h-433z" />
    <glyph glyph-name="hbar" unicode="&#x127;" horiz-adv-x="522" 
d="M295 528q35 1 67 -9t55.5 -30t35.5 -49.5t6 -68.5l-53 -371h-36l53 371q4 31 -5.5 53.5t-28.5 37.5t-44.5 22.5t-53.5 7.5q-36 0 -76.5 -8t-79.5 -23l-65 -461h-36l85 607h-63l3 26h64l10 75h36l-10 -75h111l-3 -26h-111l-16 -116q83 37 155 37z" />
    <glyph glyph-name="Imacron" unicode="&#x12a;" horiz-adv-x="213" 
d="M68 821h225l-5 -33h-225zM83 0h-39l99 707h39z" />
    <glyph glyph-name="imacron" unicode="&#x12b;" horiz-adv-x="190" 
d="M41 631h209l-5 -33h-209zM71 0h-37l72 518h37z" />
    <glyph glyph-name="Iogonek" unicode="&#x12e;" horiz-adv-x="213" 
d="M-6 -152q3 -12 12.5 -17.5t22.5 -7t27.5 1.5t28.5 9l-4 -31q-44 -18 -78.5 -9t-43.5 41q-8 31 12 74.5t77 90.5h-4l99 707h39l-99 -707h-4q-50 -48 -71.5 -84.5t-13.5 -67.5z" />
    <glyph glyph-name="iogonek" unicode="&#x12f;" horiz-adv-x="190" 
d="M150 669q14 0 22.5 -10t6.5 -24t-13 -24t-25 -10t-23 10t-7 24t13.5 24t25.5 10zM70 0q-50 -48 -71.5 -84.5t-13.5 -67.5q3 -12 12.5 -17.5t22.5 -7t27.5 1.5t28.5 9l-4 -31q-44 -18 -78.5 -9t-43.5 41q-8 31 12 74.5t77 90.5h-5l72 518h37l-72 -518h-1z" />
    <glyph glyph-name="Idotaccent" unicode="&#x130;" horiz-adv-x="213" 
d="M149 825q2 14 13.5 24t25.5 10t22.5 -10t6.5 -24t-13 -24t-25 -10t-23 10t-7 24zM83 0h-39l99 707h39z" />
    <glyph glyph-name="dotlessi" unicode="&#x131;" horiz-adv-x="190" 
d="M71 0h-37l72 518h37z" />
    <glyph glyph-name="IJ" unicode="&#x132;" horiz-adv-x="794" 
d="M83 0h-39l99 707h39zM493 708h275l-72 -514q-7 -51 -33.5 -89t-65 -63.5t-84 -38.5t-91.5 -13q-39 0 -75.5 9.5t-65 29t-47.5 49t-23 68.5l38 8q4 -32 20 -56t41 -40t56 -24t64 -8q38 0 76 10.5t69.5 31.5t53.5 52.5t28 73.5l67 475h-236z" />
    <glyph glyph-name="ij" unicode="&#x133;" horiz-adv-x="380" 
d="M108 638q2 13 13 22t24 9t21 -9t6 -22q-2 -14 -12.5 -23t-23.5 -9t-21.5 9t-6.5 23zM143 518l-73 -518h-36l73 518h36zM300 638q2 13 13 22t24 9t21 -9t6 -22q-2 -14 -12.5 -23t-23.5 -9t-21.5 9t-6.5 23zM92 -146q55 2 88 32.5t41 91.5l76 540h36l-76 -540
q-11 -77 -56.5 -117t-113.5 -43z" />
    <glyph glyph-name="Kcommaaccent" unicode="&#x136;" horiz-adv-x="598" 
d="M124 295l464 413h52l-379 -343l279 -364h-49l-262 338l-113 -99l-33 -239h-39l99 707h39zM209 -254h-36l66 161h42z" />
    <glyph glyph-name="kcommaaccent" unicode="&#x137;" horiz-adv-x="469" 
d="M101 221l329 297h44l-256 -233l184 -285h-43l-170 259l-95 -83l-24 -176h-36l99 708h36zM143 -254h-36l66 161h42z" />
    <glyph glyph-name="Lacute" unicode="&#x139;" horiz-adv-x="495" 
d="M174 765h-39l78 111h48zM44 1l99 708h39l-94 -669h354l-5 -39h-393z" />
    <glyph glyph-name="lacute" unicode="&#x13a;" horiz-adv-x="219" 
d="M145 765h-39l78 111h48zM167 -10q-66 2 -96.5 40.5t-19.5 113.5l78 564h36l-78 -564q-8 -57 11.5 -87.5t73.5 -30.5z" />
    <glyph glyph-name="Lcommaaccent" unicode="&#x13b;" horiz-adv-x="495" 
d="M44 1l99 708h39l-94 -669h354l-5 -39h-393zM178 -254h-36l66 161h42z" />
    <glyph glyph-name="lcommaaccent" unicode="&#x13c;" horiz-adv-x="219" 
d="M167 -10q-66 2 -96.5 40.5t-19.5 113.5l78 564h36l-78 -564q-8 -57 11.5 -87.5t73.5 -30.5zM30 -254h-36l66 161h42z" />
    <glyph glyph-name="Lcaron" unicode="&#x13d;" horiz-adv-x="495" 
d="M44 1l99 708h39l-94 -669h354l-5 -39h-393zM387 558h-36l60 150h39z" />
    <glyph glyph-name="lcaron" unicode="&#x13e;" horiz-adv-x="230" 
d="M167 -10q-66 2 -96.5 40.5t-19.5 113.5l78 564h36l-78 -564q-8 -57 11.5 -87.5t73.5 -30.5zM237 555h-30l59 145h37z" />
    <glyph glyph-name="Ldot" unicode="&#x13f;" horiz-adv-x="495" 
d="M44 1l99 708h39l-94 -669h354l-5 -39h-393zM243 318q2 14 13.5 24t25.5 10t22.5 -10t6.5 -24t-13.5 -24t-25.5 -10t-22.5 10t-6.5 24z" />
    <glyph glyph-name="ldot" unicode="&#x140;" horiz-adv-x="240" 
d="M167 -10q-66 2 -96.5 40.5t-19.5 113.5l78 564h36l-78 -564q-8 -57 11.5 -87.5t73.5 -30.5zM179 318q2 14 13.5 24t25.5 10t22.5 -10t6.5 -24t-13.5 -24t-25.5 -10t-22.5 10t-6.5 24z" />
    <glyph glyph-name="Lslash" unicode="&#x141;" horiz-adv-x="499" 
d="M51 0l40 280l-71 -28l-9 30l85 34l55 392h38l-53 -375l112 49l8 -33l-125 -52l-36 -258h338l-6 -39h-376z" />
    <glyph glyph-name="lslash" unicode="&#x142;" horiz-adv-x="229" 
d="M94 143q-8 -55 11 -85.5t74 -32.5l-5 -36q-67 2 -97 42.5t-19 111.5l27 195l-50 -21l-7 28l62 26l47 338h36l-45 -321l80 34l7 -28l-92 -39z" />
    <glyph glyph-name="Nacute" unicode="&#x143;" horiz-adv-x="672" 
d="M396 765h-39l78 111h48zM509 49l93 659h39l-99 -708h-57l-311 648l-91 -648h-39l99 708h49z" />
    <glyph glyph-name="nacute" unicode="&#x144;" 
d="M290 585h-39l78 111h48zM101 490q47 16 96 27t98 11q34 -1 65.5 -11t54.5 -29.5t34.5 -49t5.5 -68.5l-52 -370h-36l52 370q4 31 -5.5 54t-28 38t-43.5 22t-52 7q-43 0 -86 -9.5t-72 -20.5l-64 -461h-36z" />
    <glyph glyph-name="Ncommaaccent" unicode="&#x145;" horiz-adv-x="672" 
d="M509 49l93 659h39l-99 -708h-57l-311 648l-91 -648h-39l99 708h49zM240 -254h-36l66 161h42z" />
    <glyph glyph-name="ncommaaccent" unicode="&#x146;" 
d="M101 490q47 16 96 27t98 11q34 -1 65.5 -11t54.5 -29.5t34.5 -49t5.5 -68.5l-52 -370h-36l52 370q4 31 -5.5 54t-28 38t-43.5 22t-52 7q-43 0 -86 -9.5t-72 -20.5l-64 -461h-36zM162 -254h-36l66 161h42z" />
    <glyph glyph-name="Ncaron" unicode="&#x147;" horiz-adv-x="672" 
d="M336 876l68 -79l94 79h58l-137 -111h-34l-98 111h49zM509 49l93 659h39l-99 -708h-57l-311 648l-91 -648h-39l99 708h49z" />
    <glyph glyph-name="ncaron" unicode="&#x148;" 
d="M230 696l68 -79l94 79h58l-137 -111h-34l-98 111h49zM101 490q47 16 96 27t98 11q34 -1 65.5 -11t54.5 -29.5t34.5 -49t5.5 -68.5l-52 -370h-36l52 370q4 31 -5.5 54t-28 38t-43.5 22t-52 7q-43 0 -86 -9.5t-72 -20.5l-64 -461h-36z" />
    <glyph glyph-name="Eng" unicode="&#x14a;" horiz-adv-x="671" 
d="M538 -22q-11 -77 -56.5 -117t-113.5 -43l5 36q55 2 88 32.5t41 91.5l3 22h-21l-311 648l-91 -648h-39l99 708h49l317 -659l93 659h39z" />
    <glyph glyph-name="eng" unicode="&#x14b;" horiz-adv-x="517" 
d="M294 528q34 -1 65 -11t54 -29.5t34.5 -49t5.5 -68.5l-55 -392q-11 -77 -56.5 -117t-114.5 -43l5 36q56 2 89 32.5t41 91.5l55 392q4 31 -5 54t-27.5 38t-43.5 22t-52 7q-43 0 -86.5 -9.5t-71.5 -20.5l-65 -461h-36l69 490q48 16 97 27t98 11z" />
    <glyph glyph-name="Omacron" unicode="&#x14c;" horiz-adv-x="679" 
d="M301 821h225l-5 -33h-225zM97 511q7 52 35.5 90.5t70.5 64.5t92 39t101 13t97.5 -13t81 -39t52.5 -64.5t11 -90.5l-44 -313q-7 -52 -36 -91t-70.5 -65t-92 -39t-101.5 -13t-97.5 13t-81 39t-52 65t-10.5 91zM92 198q-6 -42 9.5 -74t44.5 -53t69 -31.5t84 -10.5
q43 0 86.5 10.5t79 31.5t60 53t30.5 74l44 313q6 45 -9.5 77t-45.5 52.5t-70.5 30t-83.5 9.5t-86 -10t-78 -31t-59.5 -52.5t-30.5 -75.5z" />
    <glyph glyph-name="omacron" unicode="&#x14d;" horiz-adv-x="496" 
d="M174 641h225l-5 -33h-225zM70 369q5 40 25.5 69.5t49.5 49.5t64 30t70 10t67 -10t55 -30t35 -49.5t7 -69.5l-30 -220q-5 -40 -25 -69.5t-49.5 -49.5t-64.5 -30t-70 -10t-66.5 10t-55 30t-35.5 49.5t-7 69.5zM274 491q-27 0 -55 -7t-51.5 -22t-40.5 -38t-21 -55l-30 -220
q-5 -32 5 -55.5t29.5 -38.5t45.5 -22t53 -7t55 7t51.5 22t40 38.5t21.5 55.5l30 220q4 32 -6 55t-29 38t-45 22t-53 7z" />
    <glyph glyph-name="Ohungarumlaut" unicode="&#x150;" horiz-adv-x="679" 
d="M353 765h-32l81 111h47zM504 765h-32l81 111h47zM97 511q7 52 35.5 90.5t70.5 64.5t92 39t101 13t97.5 -13t81 -39t52.5 -64.5t11 -90.5l-44 -313q-7 -52 -36 -91t-70.5 -65t-92 -39t-101.5 -13t-97.5 13t-81 39t-52 65t-10.5 91zM92 198q-6 -42 9.5 -74t44.5 -53
t69 -31.5t84 -10.5q43 0 86.5 10.5t79 31.5t60 53t30.5 74l44 313q6 45 -9.5 77t-45.5 52.5t-70.5 30t-83.5 9.5t-86 -10t-78 -31t-59.5 -52.5t-30.5 -75.5z" />
    <glyph glyph-name="ohungarumlaut" unicode="&#x151;" horiz-adv-x="496" 
d="M226 585h-32l81 111h47zM377 585h-32l81 111h47zM70 369q5 40 25.5 69.5t49.5 49.5t64 30t70 10t67 -10t55 -30t35 -49.5t7 -69.5l-30 -220q-5 -40 -25 -69.5t-49.5 -49.5t-64.5 -30t-70 -10t-66.5 10t-55 30t-35.5 49.5t-7 69.5zM274 491q-27 0 -55 -7t-51.5 -22
t-40.5 -38t-21 -55l-30 -220q-5 -32 5 -55.5t29.5 -38.5t45.5 -22t53 -7t55 7t51.5 22t40 38.5t21.5 55.5l30 220q4 32 -6 55t-29 38t-45 22t-53 7z" />
    <glyph glyph-name="OE" unicode="&#x152;" horiz-adv-x="935" 
d="M573 672l-42 -300h333l-5 -37h-333l-42 -298h364l-5 -37h-403l4 33q-43 -21 -83.5 -29.5t-75.5 -7.5q-50 1 -95.5 14.5t-78.5 40t-50 65t-10 89.5l43 302q7 51 35.5 90t70 64.5t91.5 39t100 13.5q32 0 72 -10t71 -33l5 37h403l-5 -36h-364zM529 637q-31 17 -68 28t-75 10
q-43 0 -85.5 -10t-78 -30.5t-59.5 -52t-30 -75.5l-43 -302q-6 -42 9.5 -74t44.5 -53.5t69 -32t83 -10.5q38 0 77.5 9.5t76.5 27.5z" />
    <glyph glyph-name="oe" unicode="&#x153;" horiz-adv-x="815" 
d="M70 369q5 40 25.5 69.5t49.5 49.5t64 30t70 10q51 -1 95 -22.5t61 -64.5q30 44 80 65.5t102 21.5q34 0 66 -9.5t55 -29t35 -49.5t6 -70q-6 -42 -26 -73.5t-49.5 -52t-65 -31t-71.5 -10.5q-35 0 -72 7.5t-71 24.5l-14 -101q-1 -29 10.5 -50t30.5 -34.5t44 -20t51 -6.5
q42 0 82 16t64 50l28 -15q-29 -41 -78.5 -62.5t-99.5 -21.5q-52 0 -96 21.5t-62 64.5q-29 -43 -78.5 -64t-101.5 -22q-35 0 -66.5 10t-55 30t-35.5 49.5t-7 69.5zM429 266q29 -13 69 -22t78 -9q30 0 58 7.5t51 24t39 42t21 61.5q4 33 -5 57t-28 39.5t-45 23.5t-54 8
q-29 0 -56 -7t-50 -22t-39.5 -39.5t-24.5 -60.5zM274 491q-27 0 -55 -7t-51.5 -22t-40.5 -38t-21 -55l-30 -220q-5 -32 5 -55.5t29.5 -38.5t45.5 -22t53 -7t55 7t51.5 22t40 38.5t21.5 55.5l30 220q4 32 -6 55t-29 38t-45 22t-53 7z" />
    <glyph glyph-name="Racute" unicode="&#x154;" horiz-adv-x="611" 
d="M346 765h-39l78 111h48zM471 0l-195 310h-150l-43 -310h-39l99 708h257q48 0 87 -11.5t66 -35.5t39.5 -62t6.5 -90q-8 -57 -30 -95t-55 -61.5t-76 -33t-93 -9.5h-23l195 -310h-46zM350 344q93 0 145 37t65 127q6 45 -3.5 76t-31.5 50t-55 27.5t-74 7.5h-219l-46 -325h219
z" />
    <glyph glyph-name="racute" unicode="&#x155;" horiz-adv-x="294" 
d="M239 584h-39l78 111h48zM239 523q19 4 34.5 3.5t33.5 -2.5l-5 -35q-17 2 -32.5 2t-32.5 -4q-43 -10 -78 -39t-42 -80l-51 -368h-36l51 368q4 32 18.5 58t35.5 45.5t48 32.5t56 19z" />
    <glyph glyph-name="Rcommaaccent" unicode="&#x156;" horiz-adv-x="611" 
d="M471 0l-195 310h-150l-43 -310h-39l99 708h257q48 0 87 -11.5t66 -35.5t39.5 -62t6.5 -90q-8 -57 -30 -95t-55 -61.5t-76 -33t-93 -9.5h-23l195 -310h-46zM350 344q93 0 145 37t65 127q6 45 -3.5 76t-31.5 50t-55 27.5t-74 7.5h-219l-46 -325h219zM194 -254h-36l66 161
h42z" />
    <glyph glyph-name="rcommaaccent" unicode="&#x157;" horiz-adv-x="294" 
d="M239 523q19 4 34.5 3.5t33.5 -2.5l-5 -35q-17 2 -32.5 2t-32.5 -4q-43 -10 -78 -39t-42 -80l-51 -368h-36l51 368q4 32 18.5 58t35.5 45.5t48 32.5t56 19zM-7 -254h-36l66 161h42z" />
    <glyph glyph-name="Rcaron" unicode="&#x158;" horiz-adv-x="611" 
d="M286 876l68 -79l94 79h58l-137 -111h-34l-98 111h49zM471 0l-195 310h-150l-43 -310h-39l99 708h257q48 0 87 -11.5t66 -35.5t39.5 -62t6.5 -90q-8 -57 -30 -95t-55 -61.5t-76 -33t-93 -9.5h-23l195 -310h-46zM350 344q93 0 145 37t65 127q6 45 -3.5 76t-31.5 50
t-55 27.5t-74 7.5h-219l-46 -325h219z" />
    <glyph glyph-name="rcaron" unicode="&#x159;" horiz-adv-x="294" 
d="M171 686l67 -79l94 79h58l-136 -111h-35l-98 111h50zM239 523q19 4 34.5 3.5t33.5 -2.5l-5 -35q-17 2 -32.5 2t-32.5 -4q-43 -10 -78 -39t-42 -80l-51 -368h-36l51 368q4 32 18.5 58t35.5 45.5t48 32.5t56 19z" />
    <glyph glyph-name="Sacute" unicode="&#x15a;" horiz-adv-x="582" 
d="M357 765h-39l78 111h48zM126 545q-8 -38 3 -65t36 -46.5t60.5 -32.5t76.5 -21q43 -9 85.5 -22t74 -36.5t46.5 -59.5t5 -90q-8 -45 -34.5 -78.5t-63.5 -56.5t-81.5 -34.5t-89.5 -11.5q-35 0 -70.5 7.5t-65.5 23t-53.5 38.5t-34.5 54l37 16q10 -25 29.5 -44t45.5 -32
t56.5 -19.5t62.5 -6.5q36 0 71 8t65.5 25.5t53 45t33.5 66.5q9 46 -4.5 75.5t-41 48.5t-65.5 29.5t-77 19.5q-40 9 -79 22.5t-68.5 36.5t-44.5 57t-6 84q8 43 33 75.5t60.5 54t78.5 32t87 10.5q36 0 71 -7.5t64.5 -22t52 -37t33.5 -52.5l-37 -15q-9 24 -28.5 42.5t-45 31
t-55.5 19t-60 6.5q-36 0 -71.5 -7t-65 -23.5t-50.5 -43t-29 -64.5z" />
    <glyph glyph-name="sacute" unicode="&#x15b;" horiz-adv-x="435" 
d="M258 585h-39l78 111h48zM45 103q26 -43 63 -62t83 -18q20 0 43.5 7t44.5 20.5t36 34.5t19 49q4 29 -5 49t-26.5 33t-39.5 20.5t-43 11.5q-29 5 -58 14t-51.5 24.5t-34.5 40t-7 61.5q5 40 26.5 68.5t51 45.5t65 23t69 2t62.5 -17.5t47 -36.5l-26 -26q-22 28 -61.5 40
t-80.5 5.5t-74 -32.5t-41 -72q-4 -31 7.5 -49.5t31 -30t42.5 -16.5t43 -9q28 -5 54.5 -15.5t46.5 -28t30 -43.5t6 -62q-5 -35 -22.5 -61.5t-42.5 -44.5t-55 -27.5t-61 -10.5q-57 -2 -102.5 22t-71.5 72z" />
    <glyph glyph-name="Scedilla" unicode="&#x15e;" horiz-adv-x="582" 
d="M342 683q-36 0 -71.5 -7t-65 -23.5t-50.5 -43t-29 -64.5t3 -65t36 -46.5t60.5 -32.5t76.5 -21q43 -9 85.5 -22t74 -36.5t46.5 -59.5t5 -90q-8 -41 -30.5 -73t-55 -54.5t-72 -35.5t-80.5 -17l-32 -57q38 0 57.5 -21t8.5 -56q-13 -38 -41.5 -52.5t-60.5 -14.5
q-28 0 -47.5 7.5t-34.5 18.5l10 28q17 -11 34 -17.5t37 -6.5t38.5 7.5t27.5 31.5q6 18 0.5 28.5t-16.5 15.5t-25.5 4.5t-26.5 -3.5l-5 8l45 78q-35 0 -70.5 7.5t-65.5 23t-53.5 38.5t-34.5 54l37 16q10 -25 29.5 -44t45.5 -32t56.5 -19.5t62.5 -6.5q36 0 71 8t65.5 25.5
t53 45t33.5 66.5q9 46 -4.5 75.5t-41 48.5t-65.5 29.5t-77 19.5q-40 9 -79 22.5t-68.5 36.5t-44.5 57t-6 84q8 43 33 75.5t60.5 54t78.5 32t87 10.5q36 0 71 -7.5t64.5 -22t52 -37t33.5 -52.5l-37 -15q-9 24 -28.5 42.5t-45 31t-55.5 19t-60 6.5z" />
    <glyph glyph-name="scedilla" unicode="&#x15f;" horiz-adv-x="434" 
d="M231 283q28 -5 54.5 -15.5t46.5 -28t30 -43.5t6 -62q-5 -31 -19.5 -55.5t-36 -42.5t-48 -29t-54.5 -15l-32 -57q38 0 57.5 -21t8.5 -56q-13 -38 -41.5 -52.5t-60.5 -14.5q-28 0 -47.5 7.5t-34.5 18.5l10 28q17 -11 34 -17.5t37 -6.5t38.5 7.5t27.5 31.5q6 18 0.5 28.5
t-16.5 15.5t-25.5 4.5t-26.5 -3.5l-5 8l44 77q-54 1 -97 24.5t-68 69.5l32 19q26 -43 63 -62t83 -18q20 0 43.5 7t44.5 20.5t36 34.5t19 49q4 29 -5 49t-26.5 33t-39.5 20.5t-43 11.5q-29 5 -58 14t-51.5 24.5t-34.5 40t-7 61.5q5 40 26.5 68.5t51 45.5t65 23t69 2
t62.5 -17.5t47 -36.5l-26 -26q-22 28 -61.5 40t-80.5 5.5t-74 -32.5t-41 -72q-4 -31 7.5 -49.5t31 -30t42.5 -16.5t43 -9z" />
    <glyph glyph-name="Scaron" unicode="&#x160;" horiz-adv-x="582" 
d="M297 876l68 -79l94 79h58l-137 -111h-34l-98 111h49zM126 545q-8 -38 3 -65t36 -46.5t60.5 -32.5t76.5 -21q43 -9 85.5 -22t74 -36.5t46.5 -59.5t5 -90q-8 -45 -34.5 -78.5t-63.5 -56.5t-81.5 -34.5t-89.5 -11.5q-35 0 -70.5 7.5t-65.5 23t-53.5 38.5t-34.5 54l37 16
q10 -25 29.5 -44t45.5 -32t56.5 -19.5t62.5 -6.5q36 0 71 8t65.5 25.5t53 45t33.5 66.5q9 46 -4.5 75.5t-41 48.5t-65.5 29.5t-77 19.5q-40 9 -79 22.5t-68.5 36.5t-44.5 57t-6 84q8 43 33 75.5t60.5 54t78.5 32t87 10.5q36 0 71 -7.5t64.5 -22t52 -37t33.5 -52.5l-37 -15
q-9 24 -28.5 42.5t-45 31t-55.5 19t-60 6.5q-36 0 -71.5 -7t-65 -23.5t-50.5 -43t-29 -64.5z" />
    <glyph glyph-name="scaron" unicode="&#x161;" horiz-adv-x="435" 
d="M198 696l68 -79l94 79h58l-137 -111h-34l-98 111h49zM45 103q26 -43 63 -62t83 -18q20 0 43.5 7t44.5 20.5t36 34.5t19 49q4 29 -5 49t-26.5 33t-39.5 20.5t-43 11.5q-29 5 -58 14t-51.5 24.5t-34.5 40t-7 61.5q5 40 26.5 68.5t51 45.5t65 23t69 2t62.5 -17.5t47 -36.5
l-26 -26q-22 28 -61.5 40t-80.5 5.5t-74 -32.5t-41 -72q-4 -31 7.5 -49.5t31 -30t42.5 -16.5t43 -9q28 -5 54.5 -15.5t46.5 -28t30 -43.5t6 -62q-5 -35 -22.5 -61.5t-42.5 -44.5t-55 -27.5t-61 -10.5q-57 -2 -102.5 22t-71.5 72z" />
    <glyph glyph-name="Tcommaaccent" unicode="&#x162;" horiz-adv-x="546" 
d="M68 0zM579 669h-236l-94 -669h-39l94 669h-236l5 39h511zM173 -254h-36l66 161h42z" />
    <glyph glyph-name="tcommaaccent" unicode="&#x163;" horiz-adv-x="260" 
d="M27 0zM63 -254h-36l66 161h42zM204 -10q-35 0 -65 10t-51.5 30t-32 49t-5.5 68l70 491h34l-16 -120h112l-4 -32h-112l-48 -339q-5 -32 4 -55.5t26.5 -38.5t42 -22.5t50.5 -6.5z" />
    <glyph glyph-name="Tcaron" unicode="&#x164;" horiz-adv-x="546" 
d="M278 875l68 -79l94 79h58l-137 -111h-34l-98 111h49zM579 669h-236l-94 -669h-39l94 669h-236l5 39h511z" />
    <glyph glyph-name="tcaron" unicode="&#x165;" horiz-adv-x="260" 
d="M241 559h-31l62 149h37zM204 -10q-35 0 -65 10t-51.5 30t-32 49t-5.5 68l70 491h34l-16 -120h112l-4 -32h-112l-48 -339q-5 -32 4 -55.5t26.5 -38.5t42 -22.5t50.5 -6.5z" />
    <glyph glyph-name="Tbar" unicode="&#x166;" horiz-adv-x="550" 
d="M306 389h103l-4 -29h-103l-51 -360h-39l51 360h-101l4 29h101l39 280h-236l5 39h511l-5 -39h-236z" />
    <glyph glyph-name="tbar" unicode="&#x167;" horiz-adv-x="262" 
d="M207 -10q-35 0 -65 10t-51.5 30t-32 49t-5.5 68l22 157h-48l4 28h48l44 306h34l-16 -120h112l-4 -32h-112l-22 -154h86l-4 -28h-86l-22 -157q-5 -32 4 -55.5t26.5 -38.5t42 -22.5t50.5 -6.5z" />
    <glyph glyph-name="Umacron" unicode="&#x16a;" horiz-adv-x="676" 
d="M294 821h225l-5 -33h-225zM107 201q-6 -43 8 -75t41.5 -53.5t64.5 -32t78 -10.5q40 0 80.5 10.5t74.5 32t57 53.5t29 75l71 507h39l-71 -507q-8 -53 -35 -92.5t-67 -65.5t-87.5 -39.5t-95.5 -13.5t-92 13.5t-76.5 39.5t-49 65.5t-8.5 92.5l71 507h39z" />
    <glyph glyph-name="umacron" unicode="&#x16b;" 
d="M186 641h225l-5 -33h-225zM406 28q-48 -16 -97 -27t-98 -11q-34 1 -65 11t-54 29.5t-35 49t-6 68.5l52 370h36l-52 -370q-5 -31 5 -54t28.5 -38t43.5 -22t52 -7q43 0 86.5 9.5t71.5 20.5l64 461h36z" />
    <glyph glyph-name="Uring" unicode="&#x16e;" horiz-adv-x="676" 
d="M498 833q-5 -37 -30 -59t-61 -22t-55 22t-14 59t30.5 59t61.5 22t54.5 -22t13.5 -59zM469 833q3 24 -8.5 39t-34.5 15t-39.5 -15t-19.5 -39q-4 -24 7.5 -39t34.5 -15t39.5 15t20.5 39zM107 201q-6 -43 8 -75t41.5 -53.5t64.5 -32t78 -10.5q40 0 80.5 10.5t74.5 32
t57 53.5t29 75l71 507h39l-71 -507q-8 -53 -35 -92.5t-67 -65.5t-87.5 -39.5t-95.5 -13.5t-92 13.5t-76.5 39.5t-49 65.5t-8.5 92.5l71 507h39z" />
    <glyph glyph-name="uring" unicode="&#x16f;" 
d="M390 653q-5 -37 -30 -59t-61 -22t-55 22t-14 59t30.5 59t61.5 22t54.5 -22t13.5 -59zM361 653q3 24 -8.5 39t-34.5 15t-39.5 -15t-19.5 -39q-4 -24 7.5 -39t34.5 -15t39.5 15t20.5 39zM406 28q-48 -16 -97 -27t-98 -11q-34 1 -65 11t-54 29.5t-35 49t-6 68.5l52 370h36
l-52 -370q-5 -31 5 -54t28.5 -38t43.5 -22t52 -7q43 0 86.5 9.5t71.5 20.5l64 461h36z" />
    <glyph glyph-name="Uhungarumlaut" unicode="&#x170;" horiz-adv-x="676" 
d="M346 765h-32l81 111h47zM497 765h-32l81 111h47zM107 201q-6 -43 8 -75t41.5 -53.5t64.5 -32t78 -10.5q40 0 80.5 10.5t74.5 32t57 53.5t29 75l71 507h39l-71 -507q-8 -53 -35 -92.5t-67 -65.5t-87.5 -39.5t-95.5 -13.5t-92 13.5t-76.5 39.5t-49 65.5t-8.5 92.5l71 507
h39z" />
    <glyph glyph-name="uhungarumlaut" unicode="&#x171;" 
d="M238 585h-32l81 111h47zM389 585h-32l81 111h47zM406 28q-48 -16 -97 -27t-98 -11q-34 1 -65 11t-54 29.5t-35 49t-6 68.5l52 370h36l-52 -370q-5 -31 5 -54t28.5 -38t43.5 -22t52 -7q43 0 86.5 9.5t71.5 20.5l64 461h36z" />
    <glyph glyph-name="Uogonek" unicode="&#x172;" horiz-adv-x="676" 
d="M579 204q-6 -45 -27 -78t-46.5 -55.5t-50 -37t-39.5 -23.5q-22 -14 -43 -34t-36 -42t-22.5 -44t-2.5 -39q4 -14 14.5 -20.5t24 -7.5t27.5 2.5t24 8.5l-3 -30q-19 -9 -38.5 -12t-36 0.5t-29.5 14.5t-19 30q-5 15 -1 35.5t15.5 42t29.5 43t41 39.5q-15 -4 -33 -5.5
t-35 -1.5q-48 0 -92 13.5t-76 39.5t-48.5 65.5t-8.5 92.5l71 507h39l-71 -507q-6 -43 8 -75t41.5 -53.5t64.5 -32t78 -10.5q43 0 84 12t74 35t55.5 56.5t28.5 76.5l70 498h39z" />
    <glyph glyph-name="uogonek" unicode="&#x173;" horiz-adv-x="520" 
d="M405 28q-61 -54 -91.5 -100t-22.5 -77q3 -13 12.5 -19.5t22.5 -8t27.5 1.5t28.5 9l-4 -30q-44 -19 -78.5 -9t-43.5 43q-4 14 0.5 35.5t17.5 45.5t35 49.5t53 48.5q-36 -14 -76 -20.5t-75 -6.5q-34 1 -65.5 11t-54 29.5t-34 49t-6.5 68.5l52 370h36l-52 -370
q-4 -31 5.5 -54t28 -38t43.5 -22t52 -7q43 0 86 9.5t72 20.5l64 461h36z" />
    <glyph glyph-name="Wcircumflex" unicode="&#x174;" horiz-adv-x="928" 
d="M611 765l-67 79l-96 -79h-56l136 111h37l96 -111h-50zM966 708l-309 -708h-58l-99 557l-260 -557h-58l-105 708h40l96 -674h4l269 571h41l104 -571h4l291 674h40z" />
    <glyph glyph-name="wcircumflex" unicode="&#x175;" horiz-adv-x="715" 
d="M485 585l-67 79l-96 -79h-56l136 111h37l96 -111h-50zM137 0l-83 518h37l78 -499l190 499h55l52 -497l217 497h37l-228 -518h-61l-47 494l-189 -494h-58z" />
    <glyph glyph-name="Ycircumflex" unicode="&#x176;" horiz-adv-x="536" 
d="M414 765l-67 79l-96 -79h-56l136 111h37l96 -111h-50zM245 0h-39l39 280l-178 427h45l158 -392l267 392h46l-299 -427z" />
    <glyph glyph-name="ycircumflex" unicode="&#x177;" 
d="M383 585l-67 79l-96 -79h-56l136 111h37l96 -111h-50zM391 -58q-6 -40 -25.5 -69t-47.5 -47.5t-62.5 -27.5t-68.5 -9q-45 0 -85 14t-65 41l26 22q23 -21 56.5 -32t70.5 -11q28 0 56 7t50.5 21t38.5 36.5t21 53.5l13 86q-43 -20 -81 -28.5t-73 -8.5t-67 10t-55.5 29.5
t-35 49t-6.5 68.5l51 370h36l-51 -370q-4 -31 5 -54t27 -38.5t43.5 -23.5t54.5 -8q24 0 42.5 2.5t36 7t36 12t42.5 17.5l63 455h35z" />
    <glyph glyph-name="Ydieresis" unicode="&#x178;" horiz-adv-x="536" 
d="M221 821q2 13 12 21.5t22 8.5q13 0 20.5 -8.5t5.5 -21.5q-2 -12 -11.5 -21t-22.5 -9q-12 0 -20 9t-6 21zM396 821q2 13 11.5 21.5t22.5 8.5q12 0 20 -8.5t6 -21.5q-2 -12 -12 -21t-22 -9q-13 0 -20.5 9t-5.5 21zM245 0h-39l39 280l-178 427h45l158 -392l267 392h46
l-299 -427z" />
    <glyph glyph-name="Zacute" unicode="&#x179;" horiz-adv-x="556" 
d="M336 765h-39l78 111h48zM102 708h462l18 -22l-541 -650h436l-5 -36h-473l-14 23l540 649h-428z" />
    <glyph glyph-name="zacute" unicode="&#x17a;" horiz-adv-x="447" 
d="M258 585h-39l78 111h48zM79 518h346l12 -24l-396 -459h326l-4 -35h-356l-16 28l395 456h-311z" />
    <glyph glyph-name="Zdotaccent" unicode="&#x17b;" horiz-adv-x="556" 
d="M316 825q2 14 13.5 24t25.5 10t22.5 -10t6.5 -24t-13 -24t-25 -10t-23 10t-7 24zM102 708h462l18 -22l-541 -650h436l-5 -36h-473l-14 23l540 649h-428z" />
    <glyph glyph-name="zdotaccent" unicode="&#x17c;" horiz-adv-x="447" 
d="M238 645q2 14 13.5 24t25.5 10t22.5 -10t6.5 -24t-13 -24t-25 -10t-23 10t-7 24zM79 518h346l12 -24l-396 -459h326l-4 -35h-356l-16 28l395 456h-311z" />
    <glyph glyph-name="Zcaron" unicode="&#x17d;" horiz-adv-x="556" 
d="M276 876l68 -79l94 79h58l-137 -111h-34l-98 111h49zM102 708h462l18 -22l-541 -650h436l-5 -36h-473l-14 23l540 649h-428z" />
    <glyph glyph-name="zcaron" unicode="&#x17e;" horiz-adv-x="447" 
d="M198 696l68 -79l94 79h58l-137 -111h-34l-98 111h49zM79 518h346l12 -24l-396 -459h326l-4 -35h-356l-16 28l395 456h-311z" />
    <glyph glyph-name="florin" unicode="&#x192;" horiz-adv-x="355" 
d="M376 673q-11 5 -22 8t-22 3q-21 0 -37 -9t-27.5 -23.5t-18.5 -32t-10 -33.5l-30 -169h110l-1 -33h-116l-73 -402q-10 -52 -42.5 -84t-90.5 -32q-11 0 -20.5 1t-19.5 4l13 34q21 -5 41 -3.5t36.5 11t28.5 29t18 50.5l70 392h-110l1 33h116l33 170q5 24 14.5 47t24.5 42
t37 30.5t53 11.5t58 -12z" />
    <glyph glyph-name="Scommaaccent" unicode="&#x218;" horiz-adv-x="582" 
d="M126 545q-8 -38 3 -65t36 -46.5t60.5 -32.5t76.5 -21q43 -9 85.5 -22t74 -36.5t46.5 -59.5t5 -90q-8 -45 -34.5 -78.5t-63.5 -56.5t-81.5 -34.5t-89.5 -11.5q-35 0 -70.5 7.5t-65.5 23t-53.5 38.5t-34.5 54l37 16q10 -25 29.5 -44t45.5 -32t56.5 -19.5t62.5 -6.5
q36 0 71 8t65.5 25.5t53 45t33.5 66.5q9 46 -4.5 75.5t-41 48.5t-65.5 29.5t-77 19.5q-40 9 -79 22.5t-68.5 36.5t-44.5 57t-6 84q8 43 33 75.5t60.5 54t78.5 32t87 10.5q36 0 71 -7.5t64.5 -22t52 -37t33.5 -52.5l-37 -15q-9 24 -28.5 42.5t-45 31t-55.5 19t-60 6.5
q-36 0 -71.5 -7t-65 -23.5t-50.5 -43t-29 -64.5zM173 -254h-36l66 161h42z" />
    <glyph glyph-name="scommaaccent" unicode="&#x219;" horiz-adv-x="435" 
d="M45 103q26 -43 63 -62t83 -18q20 0 43.5 7t44.5 20.5t36 34.5t19 49q4 29 -5 49t-26.5 33t-39.5 20.5t-43 11.5q-29 5 -58 14t-51.5 24.5t-34.5 40t-7 61.5q5 40 26.5 68.5t51 45.5t65 23t69 2t62.5 -17.5t47 -36.5l-26 -26q-22 28 -61.5 40t-80.5 5.5t-74 -32.5t-41 -72
q-4 -31 7.5 -49.5t31 -30t42.5 -16.5t43 -9q28 -5 54.5 -15.5t46.5 -28t30 -43.5t6 -62q-5 -35 -22.5 -61.5t-42.5 -44.5t-55 -27.5t-61 -10.5q-57 -2 -102.5 22t-71.5 72zM108 -254h-36l66 161h42z" />
    <glyph glyph-name="uni021A" unicode="&#x21a;" horiz-adv-x="546" 
d="M579 669h-236l-94 -669h-39l94 669h-236l5 39h511zM173 -254h-36l66 161h42z" />
    <glyph glyph-name="uni021B" unicode="&#x21b;" horiz-adv-x="260" 
d="M63 -254h-36l66 161h42zM204 -10q-35 0 -65 10t-51.5 30t-32 49t-5.5 68l70 491h34l-16 -120h112l-4 -32h-112l-48 -339q-5 -32 4 -55.5t26.5 -38.5t42 -22.5t50.5 -6.5z" />
    <glyph glyph-name="circumflex" unicode="&#x2c6;" horiz-adv-x="302" 
d="M245 765l-67 79l-96 -79h-56l136 111h37l96 -111h-50z" />
    <glyph glyph-name="caron" unicode="&#x2c7;" horiz-adv-x="348" 
d="M109 876l68 -79l94 79h58l-137 -111h-34l-98 111h49z" />
    <glyph glyph-name="uni02C9" unicode="&#x2c9;" horiz-adv-x="267" 
d="M71 821h244l-5 -33h-244z" />
    <glyph glyph-name="breve" unicode="&#x2d8;" horiz-adv-x="285" 
d="M141 765q-51 0 -78 32.5t-22 78.5h37q-5 -32 13 -54t52 -22q38 0 64.5 22t29.5 54h37q-7 -46 -42.5 -78.5t-90.5 -32.5z" />
    <glyph glyph-name="dotaccent" unicode="&#x2d9;" horiz-adv-x="240" 
d="M121 825q2 14 13.5 24t25.5 10t22.5 -10t6.5 -24t-13 -24t-25 -10t-23 10t-7 24z" />
    <glyph glyph-name="ring" unicode="&#x2da;" horiz-adv-x="239" 
d="M203 833q-5 -37 -30 -59t-61 -22t-55 22t-14 59t30.5 59t61.5 22t54.5 -22t13.5 -59zM174 833q3 24 -8.5 39t-34.5 15t-39.5 -15t-19.5 -39q-4 -24 7.5 -39t34.5 -15t39.5 15t20.5 39z" />
    <glyph glyph-name="ogonek" unicode="&#x2db;" horiz-adv-x="229" 
d="M180 -197q-44 -18 -78.5 -9t-43.5 41q-8 31 12 75t78 91h31q-51 -48 -72.5 -85t-13.5 -68q3 -12 12.5 -17.5t22.5 -7t27.5 1.5t28.5 9z" />
    <glyph glyph-name="tilde" unicode="&#x2dc;" horiz-adv-x="271" 
d="M-1 789q7 37 30 58t52 21q22 0 37.5 -10t28 -22t24 -22t26.5 -10q20 0 33 14t21 39l27 -7q-6 -33 -28 -56.5t-54 -23.5q-21 0 -35 10.5t-26.5 23t-25.5 22.5t-31 9q-17 -1 -31 -14.5t-22 -39.5z" />
    <glyph glyph-name="hungarumlaut" unicode="&#x2dd;" horiz-adv-x="258" 
d="M69 765h-32l81 111h47zM220 765h-32l81 111h47z" />
    <glyph glyph-name="uni0326" unicode="&#x326;" horiz-adv-x="0" 
d="M74 -254h-36l66 161h42z" />
    <glyph glyph-name="uni03A9" unicode="&#x3a9;" horiz-adv-x="768" 
d="M176 62q-27 25 -49.5 57.5t-37 72.5t-20 86.5t2.5 99.5q10 75 44.5 136.5t85.5 105.5t114 68t131 24q71 0 125.5 -26.5t89.5 -71.5t49.5 -105t5.5 -127q-8 -55 -27.5 -105t-48 -93.5t-63 -79t-71.5 -60.5h176l-5 -34h-248l3 21q45 25 85.5 60t73.5 79.5t55.5 97.5
t31.5 114q7 52 -4 104.5t-41 94.5t-78.5 68t-114.5 26q-62 0 -118.5 -22.5t-100.5 -62.5t-73.5 -95t-38.5 -119q-8 -59 0.5 -109.5t30 -93.5t53 -78t69.5 -63l-3 -22h-252l5 34h182z" />
    <glyph glyph-name="uni03BC" unicode="&#x3bc;" horiz-adv-x="527" 
d="M385 103q-15 -25 -36 -44.5t-46 -33t-52 -20.5t-54 -7q-42 0 -71 14.5t-46 54.5l-40 -285h-37l103 737h38l-46 -329q-4 -27 -2.5 -55t12 -51t33 -37.5t61.5 -14.5q36 0 68.5 12t59 37t45 62.5t25.5 87.5l40 288h38l-69 -519h-36z" />
    <glyph glyph-name="pi" unicode="&#x3c0;" horiz-adv-x="544" 
d="M443 -1q-28 0 -44.5 10t-24.5 27t-9 41t3 51l51 358h-228l-68 -486h-35l68 486q-45 0 -70 -2.5t-41 -7.5l-3 23q17 8 46 14t75 6h379q-3 -11 -4 -18t-3 -15h-78l-52 -358q-8 -47 -0.5 -71.5t42.5 -24.5z" />
    <glyph glyph-name="uni0401" unicode="&#x401;" horiz-adv-x="563" 
d="M259 821q2 13 12 21.5t22 8.5q13 0 20.5 -8.5t5.5 -21.5q-2 -12 -11.5 -21t-22.5 -9q-12 0 -20 9t-6 21zM434 821q2 13 11.5 21.5t22.5 8.5q12 0 20 -8.5t6 -21.5q-2 -12 -12 -21t-22 -9q-13 0 -20.5 9t-5.5 21zM135 374h359l-6 -40h-359l-41 -295h389l-5 -39h-428
l99 708h428l-5 -39h-389z" />
    <glyph glyph-name="uni0410" unicode="&#x410;" horiz-adv-x="599" 
d="M544 0h-42l-55 246h-317l-120 -246h-42l360 708h57zM150 285h290l-88 394z" />
    <glyph glyph-name="uni0411" unicode="&#x411;" horiz-adv-x="616" 
d="M368 400q109 0 158 -49.5t33 -157.5q-8 -55 -31 -92t-56.5 -59.5t-76 -32t-90.5 -9.5h-261l100 708h436l-5 -37h-397l-38 -271h228zM313 38q40 -1 75.5 7t62.5 26.5t45 48.5t24 75q13 88 -30 128t-133 40h-223l-45 -325h224z" />
    <glyph glyph-name="uni0412" unicode="&#x412;" horiz-adv-x="630" 
d="M485 368q30 -12 47.5 -32t25.5 -43.5t8.5 -49.5t-3.5 -51q-8 -53 -31 -90t-56.5 -60t-76 -33t-90.5 -10h-265l100 710h266q39 0 72.5 -11.5t56.5 -34t33.5 -55t4.5 -75.5q-5 -42 -28 -82.5t-65 -63.5l-31 -12zM366 392q67 0 115.5 33.5t58.5 106.5q5 35 -3.5 61.5t-27 44
t-45.5 26.5t-59 9h-227l-39 -281h227zM316 38q41 -1 76.5 6.5t62.5 25.5t45.5 48t24.5 75q12 89 -33 127t-131 37h-227l-45 -319h227z" />
    <glyph glyph-name="uni0413" unicode="&#x413;" horiz-adv-x="514" 
d="M44 0l100 708h408l-6 -39h-369l-95 -669h-38z" />
    <glyph glyph-name="uni0414" unicode="&#x414;" horiz-adv-x="680" 
d="M539 -150l21 150h-553l-21 -150h-40l27 189h24q42 5 73 34.5t55 83.5t44 131.5t41 178.5l50 241h372l-94 -669h67l-26 -189h-40zM241 417q-35 -171 -75 -261.5t-90 -116.5h422l88 630h-293z" />
    <glyph glyph-name="uni0415" unicode="&#x415;" horiz-adv-x="563" 
d="M135 374h359l-6 -40h-359l-41 -295h389l-5 -39h-428l99 708h428l-5 -39h-389z" />
    <glyph glyph-name="uni0416" unicode="&#x416;" horiz-adv-x="873" 
d="M538 344l-89 -84l-37 -260h-38l36 260l-64 84l-319 -344h-51l345 372l-254 336l55 -1l296 -396l56 397h38l-55 -397l407 396l55 1l-348 -336l239 -372h-51z" />
    <glyph glyph-name="uni0417" unicode="&#x417;" horiz-adv-x="532" 
d="M314 718q42 0 75.5 -12t55.5 -35.5t31 -58t3 -79.5q-8 -54 -33.5 -92.5t-88.5 -63.5q37 -11 60 -30t35 -44t14 -53.5t-2 -57.5q-8 -55 -31 -93.5t-57 -62.5t-76.5 -35t-89.5 -11q-74 0 -128.5 26t-85.5 83l37 19q56 -90 184 -90q40 -1 75.5 8.5t63.5 29.5t46 51.5
t24 75.5t-2.5 75.5t-30 51.5t-54.5 29t-75 9h-89l4 35h90q66 0 113.5 33.5t58.5 105.5q5 38 -3 66t-26 46.5t-44.5 27.5t-59.5 9q-54 0 -99.5 -17.5t-79.5 -55.5l-30 17q42 51 95.5 72t119.5 21z" />
    <glyph glyph-name="uni0418" unicode="&#x418;" horiz-adv-x="684" 
d="M609 650h-2l-44 -58l-465 -592h-54l100 708h38l-81 -582l-14 -79h3l57 74l458 587h49l-100 -708h-38l81 573z" />
    <glyph glyph-name="uni0419" unicode="&#x419;" horiz-adv-x="684" 
d="M585 921q-18 -61 -64 -98t-109 -37q-62 0 -98 37t-36 98h38q4 -43 27 -70.5t74 -27.5t82.5 27.5t46.5 70.5h39zM610 650h-3l-61 -79l-448 -571h-54l100 708h38l-81 -583l-13 -78h2l53 69l462 592h49l-100 -708h-38l79 560z" />
    <glyph glyph-name="uni041A" unicode="&#x41a;" horiz-adv-x="598" 
d="M124 295l464 413h52l-379 -343l279 -364h-49l-262 338l-113 -99l-33 -239h-39l99 707h39z" />
    <glyph glyph-name="uni041B" unicode="&#x41b;" horiz-adv-x="663" 
d="M294 669l-56 -268q-16 -75 -35 -147.5t-49.5 -128.5t-76 -90.5t-112.5 -34.5l5 39q52 0 88.5 30t63 81.5t44.5 119.5t34 144l62 294h371l-100 -708h-39l94 669h-294z" />
    <glyph glyph-name="uni041C" unicode="&#x41c;" horiz-adv-x="799" 
d="M178 679l-95 -679h-39l99 708h68l167 -556l324 556h66l-99 -708h-39l95 678l-332 -571h-42z" />
    <glyph glyph-name="uni041D" unicode="&#x41d;" horiz-adv-x="680" 
d="M144 708h38l-47 -335h429l48 335h38l-100 -708h-38l47 334h-429l-48 -334h-38z" />
    <glyph glyph-name="uni041E" unicode="&#x41e;" horiz-adv-x="675" 
d="M98 513q7 51 35.5 89.5t70 64t91 38.5t100.5 13q50 0 96.5 -13t80.5 -38.5t51.5 -64t10.5 -89.5l-44 -316q-7 -51 -35.5 -90t-70 -64.5t-91.5 -38.5t-100 -13q-51 0 -97 13t-80 38.5t-51.5 64.5t-10.5 90zM92 197q-6 -42 9.5 -73.5t44.5 -52.5t69 -31.5t83 -10.5t86 10.5
t78 31.5t59 52.5t30 73.5l45 316q6 44 -9.5 75.5t-45 52t-69.5 30t-83 9.5t-85.5 -10t-77.5 -30.5t-59 -52t-30 -74.5z" />
    <glyph glyph-name="uni041F" unicode="&#x41f;" horiz-adv-x="672" 
d="M144 708h498l-100 -708h-38l94 669h-421l-95 -669h-38z" />
    <glyph glyph-name="uni0420" unicode="&#x420;" horiz-adv-x="604" 
d="M44 1l99 707h257q55 -1 94.5 -20t63 -49.5t32.5 -69t3.5 -79t-24.5 -79t-51.5 -68.5t-77 -49t-100.5 -19h-219l-38 -274h-39zM345 314q63 0 108 26.5t71 65.5t32 85t-9.5 85.5t-53 65.5t-98.5 27h-218l-50 -355h218z" />
    <glyph glyph-name="uni0421" unicode="&#x421;" horiz-adv-x="593" 
d="M98 511q7 51 35 89t68 64t88 39t96 13q35 0 68.5 -6.5t62 -20.5t50 -35t32.5 -50l-37 -18q-21 45 -72.5 68t-111.5 23q-40 0 -80.5 -10.5t-74 -31t-56.5 -51.5t-29 -73l-44 -316q-6 -42 8.5 -73t42 -51.5t65 -31t77.5 -10.5q60 0 118 23t93 68l31 -17q-19 -29 -47 -50
t-60.5 -35t-68.5 -21t-72 -7q-47 0 -91 13t-76.5 38.5t-49 64t-9.5 89.5z" />
    <glyph glyph-name="uni0422" unicode="&#x422;" horiz-adv-x="546" 
d="M579 669h-236l-94 -669h-39l94 669h-236l5 39h511z" />
    <glyph glyph-name="uni0423" unicode="&#x423;" horiz-adv-x="505" 
d="M51 708h47l106 -311l44 -133h1l81 135l183 309h42l-420 -708h-43l131 218z" />
    <glyph glyph-name="uni0424" unicode="&#x424;" horiz-adv-x="721" 
d="M426 627q55 0 106 -7.5t88.5 -27t57 -53.5t11.5 -87l-27 -196q-8 -53 -37 -87t-72 -53.5t-96 -27t-108 -7.5l-12 -81h-39l13 81q-55 0 -106 7.5t-88.5 27t-57.5 53.5t-13 87l28 196q7 53 36.5 87t72.5 53.5t96 27t108 7.5l11 81h39zM382 590q-44 0 -89.5 -5t-83.5 -20
t-64.5 -42t-32.5 -71l-27 -196q-6 -44 12.5 -71t52.5 -42t77.5 -20t87.5 -5zM354 118q44 0 89.5 5t83.5 20t64 42t32 71l28 196q6 44 -12.5 71t-52.5 42t-78 20t-88 5z" />
    <glyph glyph-name="uni0425" unicode="&#x425;" horiz-adv-x="553" 
d="M492 0h-47l-166 325l-257 -325h-47l285 353l-184 354h44l168 -320l256 320h46l-284 -354z" />
    <glyph glyph-name="uni0426" unicode="&#x426;" horiz-adv-x="681" 
d="M540 -150l21 150h-518l100 708h38l-94 -669h412l94 669h40l-94 -669h67l-26 -189h-40z" />
    <glyph glyph-name="uni0427" unicode="&#x427;" horiz-adv-x="600" 
d="M478 330q-43 -40 -94.5 -66t-117.5 -26q-46 0 -85 13t-66 39t-39.5 65.5t-4.5 92.5l37 260h38l-36 -260q-6 -44 4.5 -76t33.5 -53t55 -31.5t68 -10.5q71 0 121 27.5t92 68.5l47 335h39l-100 -708h-39z" />
    <glyph glyph-name="uni0428" unicode="&#x428;" horiz-adv-x="879" 
d="M182 708l-94 -669h295l94 669h39l-95 -669h295l94 669h39l-100 -708h-705l100 708h38z" />
    <glyph glyph-name="uni0429" unicode="&#x429;" horiz-adv-x="897" 
d="M756 -150l20 150h-733l100 708h38l-94 -669h295l94 669h39l-95 -669h295l94 669h40l-95 -669h67l-27 -189h-38z" />
    <glyph glyph-name="uni042A" unicode="&#x42a;" horiz-adv-x="668" 
d="M425 414q107 0 156 -52t33 -167q-8 -56 -31 -93t-56.5 -60t-76 -32.5t-90.5 -9.5h-255l95 671h-133l5 37h171l-41 -294h223zM368 38q40 0 75.5 8t62.5 26.5t45 49t24 74.5q13 97 -29.5 139t-131.5 42h-217l-48 -339h219z" />
    <glyph glyph-name="uni042B" unicode="&#x42b;" horiz-adv-x="813" 
d="M364 414q109 0 157.5 -51.5t31.5 -167.5q-8 -56 -31 -93t-56.5 -60t-76 -32.5t-89.5 -9.5h-256l100 708h39l-41 -294h222zM783 708l-100 -708h-38l100 708h38zM307 38q40 0 75.5 8t62.5 26.5t45.5 49t24.5 74.5q13 97 -29.5 139t-132.5 42h-217l-47 -339h218z" />
    <glyph glyph-name="uni042C" unicode="&#x42c;" horiz-adv-x="607" 
d="M364 414q109 0 157.5 -51.5t31.5 -167.5q-8 -56 -31 -93t-56.5 -60t-76 -32.5t-89.5 -9.5h-256l100 708h39l-41 -294h222zM307 38q40 0 75.5 8t62.5 26.5t45.5 49t24.5 74.5q13 97 -29.5 139t-132.5 42h-217l-47 -339h218z" />
    <glyph glyph-name="uni042D" unicode="&#x42d;" horiz-adv-x="594" 
d="M325 718q50 0 94.5 -13t76 -38.5t47.5 -64t9 -88.5l-45 -320q-7 -51 -34.5 -89t-66.5 -63.5t-86 -38t-94 -12.5q-35 0 -68 7t-61.5 21t-50.5 35t-34 49l36 17q22 -46 73 -68.5t110 -22.5q40 0 80 10.5t73 31t55.5 51.5t28.5 72l19 140h-332l6 40h332l20 140q6 41 -8 72
t-41.5 52t-64.5 31.5t-76 10.5q-30 0 -60 -6t-58 -18t-52 -29.5t-40 -40.5l-31 21q20 28 47.5 48.5t59.5 34.5t66.5 21t69.5 7z" />
    <glyph glyph-name="uni042E" unicode="&#x42e;" horiz-adv-x="920" 
d="M640 718q50 0 96.5 -12.5t81 -38t52 -64t10.5 -90.5l-45 -316q-7 -52 -35.5 -91t-70 -64.5t-91.5 -38t-100 -12.5t-96.5 12.5t-80.5 38t-51.5 64.5t-10.5 91l20 141h-189l-49 -338h-38l100 708h38l-46 -332h189l19 137q7 52 35.5 90.5t70 64t91.5 38t100 12.5zM634 680
q-43 0 -85.5 -10t-77.5 -30.5t-59 -52t-30 -74.5l-45 -316q-6 -42 9.5 -73.5t45 -52.5t69 -31.5t83.5 -10.5q43 0 85.5 10.5t77.5 31.5t59 52.5t30 73.5l45 316q6 44 -9 75.5t-45 52t-70 30t-83 9.5z" />
    <glyph glyph-name="uni042F" unicode="&#x42f;" horiz-adv-x="619" 
d="M342 304l-306 -304h-50l298 302q-45 0 -85.5 12.5t-70 37.5t-44 61.5t-7.5 84.5q7 45 27 83.5t53 66.5t79.5 44t105.5 16h247l-100 -708h-39l45 304h-153zM331 670q-50 0 -88 -13.5t-64.5 -37t-42 -55t-20.5 -66.5q-6 -42 8 -72t40 -48.5t60.5 -27.5t69.5 -9h205l46 329
h-214z" />
    <glyph glyph-name="uni0430" unicode="&#x430;" horiz-adv-x="513" 
d="M368 55q-35 -34 -78 -49.5t-88 -15.5q-33 0 -64 8.5t-54.5 27.5t-35.5 48.5t-6 70.5l31 222q6 45 27.5 76t52 49.5t68 26.5t75.5 8q48 0 91.5 -8.5t76.5 -24.5l-69 -494h-34zM425 468q-25 13 -59 19.5t-70 6.5q-32 0 -63.5 -6.5t-57.5 -21.5t-44 -39t-23 -59l-31 -223
q-5 -33 4.5 -56t28.5 -38t44.5 -21.5t53.5 -6.5q45 0 89 19t76 51z" />
    <glyph glyph-name="uni0431" unicode="&#x431;" horiz-adv-x="504" 
d="M465 687q-35 -21 -74.5 -30t-86.5 -14q-29 -3 -56 -9.5t-49 -18.5t-37 -32t-20 -50l-17 -116q29 25 70 43t90 19q35 0 66.5 -9.5t53.5 -29t33 -49t6 -68.5l-25 -177q-6 -39 -26 -68.5t-48.5 -49t-63 -29.5t-68.5 -10q-35 0 -66.5 10t-55 29.5t-35 49t-6.5 68.5l54 387
q6 39 26 65.5t48.5 43.5t62 26t66.5 12q47 5 82.5 13.5t67.5 25.5zM278 444q-45 0 -81.5 -16.5t-77.5 -46.5l-33 -235q-5 -32 5 -55t29.5 -37.5t45 -21.5t52.5 -7t54.5 7t50.5 21.5t39.5 37.5t20.5 55l25 177q5 32 -4.5 55t-28.5 37.5t-44.5 21.5t-52.5 7z" />
    <glyph glyph-name="uni0432" unicode="&#x432;" horiz-adv-x="496" 
d="M300 528q81 0 114 -33.5t24 -96.5q-7 -46 -34.5 -76.5t-59.5 -44.5q46 -12 66 -45t12 -90q-6 -42 -24 -71t-44.5 -47t-60 -26t-70.5 -8q-53 0 -99 8t-91 25l66 472q51 17 99 25t102 8zM293 495q-23 0 -42 -1t-38 -4t-39 -7.5t-43 -10.5l-27 -185h159q24 0 47 7t42.5 20.5
t32.5 34t17 47.5q7 56 -23 77.5t-86 21.5zM71 45q43 -14 79 -19t80 -4q27 0 53 5.5t47.5 19.5t36 37.5t19.5 59.5q9 63 -22.5 88t-100.5 25h-163z" />
    <glyph glyph-name="uni0433" unicode="&#x433;" horiz-adv-x="441" 
d="M255 528q79 0 113 -33.5t26 -92.5q-5 -31 -20.5 -53t-39.5 -38.5t-56.5 -29t-69.5 -23.5q-72 -23 -108 -50.5t-44 -76.5q-8 -58 23 -84t94 -26q56 1 101 20.5t75 47.5l21 -21q-35 -34 -88.5 -56t-114.5 -22q-85 0 -120 37t-26 104q9 63 54 97.5t122 57.5q65 19 109.5 45
t51.5 71q6 43 -19 67.5t-88 24.5q-45 0 -83.5 -16t-67.5 -41l-20 24q83 67 175 67z" />
    <glyph glyph-name="uni0434" unicode="&#x434;" horiz-adv-x="501" 
d="M305 718q79 0 124 -41t34 -119l-57 -411q-6 -39 -25.5 -68.5t-47.5 -49t-62.5 -29.5t-68.5 -10q-35 0 -66.5 10t-54.5 29t-34.5 48t-5.5 68l27 193q5 39 25 68t48.5 48.5t62.5 29.5t69 10q42 0 80 -18.5t57 -44.5l17 122q5 34 -3.5 58.5t-26.5 40.5t-44.5 24t-57.5 8
q-43 0 -72.5 -9t-59.5 -28l-21 28q21 13 39.5 21t38 13t40.5 7t45 2zM267 459q-26 0 -53.5 -7t-50.5 -22t-39.5 -38t-20.5 -54l-27 -193q-4 -32 6 -54.5t29.5 -37t44.5 -21.5t51 -7t53 7t50 21.5t39 37.5t21 55l35 250q-20 26 -56.5 44.5t-81.5 18.5z" />
    <glyph glyph-name="uni0435" unicode="&#x435;" horiz-adv-x="478" 
d="M74 146q-5 -33 5.5 -56t30 -38t46 -22t53.5 -7q42 0 82.5 16t64.5 50l27 -15q-29 -41 -78.5 -62.5t-99.5 -21.5q-35 0 -67 9.5t-55.5 29t-35.5 49t-6 69.5l30 219q6 41 26 71.5t49 50.5t64 30t70 10q34 0 66 -9.5t55 -29t35 -49.5t6 -70q-6 -42 -26 -73.5t-49.5 -52
t-65 -31t-71.5 -10.5q-35 0 -71.5 8t-71.5 25zM91 267q30 -13 70 -22.5t78 -9.5q30 0 58 7.5t51 24t39 42t21 61.5q4 33 -5 56.5t-28 39.5t-45 23.5t-54 7.5q-29 0 -57.5 -8t-52.5 -24t-40.5 -40.5t-20.5 -57.5z" />
    <glyph glyph-name="uni0436" unicode="&#x436;" horiz-adv-x="705" 
d="M425 262l-69 -61l-29 -201h-35l29 201l-53 61l-243 -262h-43l264 285l-190 233h45l226 -275l38 275h35l-38 -275l302 275h45l-254 -233l182 -285h-43z" />
    <glyph glyph-name="uni0437" unicode="&#x437;" horiz-adv-x="440" 
d="M239 528q44 0 73.5 -10t46 -28.5t21.5 -44.5t1 -57q-6 -46 -34 -74.5t-60 -39.5q45 -11 66.5 -43t13.5 -89q-6 -38 -24 -66.5t-44.5 -47.5t-59 -28.5t-66.5 -9.5q-64 0 -101 20.5t-65 65.5l34 17q23 -35 55 -53t74 -18q29 0 56 7t49 21.5t37 37.5t19 55q10 63 -22 87
t-101 24h-88l4 30h83q24 0 47 6t42 19t32 33t17 47q8 56 -20 81t-88 25q-46 0 -81 -15.5t-64 -49.5l-26 15q35 42 80 62.5t93 20.5z" />
    <glyph glyph-name="uni0438" unicode="&#x438;" 
d="M406 28q-48 -16 -97 -27t-98 -11q-34 1 -65 11t-54 29.5t-35 49t-6 68.5l52 370h36l-52 -370q-5 -31 5 -54t28.5 -38t43.5 -22t52 -7q43 0 86.5 9.5t71.5 20.5l64 461h36z" />
    <glyph glyph-name="uni0439" unicode="&#x439;" horiz-adv-x="515" 
d="M418 683q-14 -44 -48 -67t-69 -23t-62.5 23t-29.5 67h35q3 -26 21 -41t41 -15q22 0 44 15t33 41h35zM401 23q-54 -18 -101 -25.5t-91 -7.5q-34 0 -65 10t-53.5 29.5t-34 48.5t-5.5 68l52 372h36l-53 -373q-4 -30 6 -52.5t28.5 -37.5t43 -23t50.5 -8q39 0 81.5 7.5
t72.5 19.5l66 467h36z" />
    <glyph glyph-name="uni043A" unicode="&#x43a;" horiz-adv-x="468" 
d="M188 259l-93 -82l-25 -177h-36l73 518h36l-41 -294l325 294h45l-255 -234l183 -284h-43z" />
    <glyph glyph-name="uni043B" unicode="&#x43b;" horiz-adv-x="516" 
d="M215 482l-46 -214q-12 -55 -25 -104t-34 -85.5t-53 -57.5t-81 -21l6 37q37 0 61 17.5t41 50t29 80t25 107.5l48 226h283l-73 -518h-35l68 482h-214z" />
    <glyph glyph-name="uni043C" unicode="&#x43c;" horiz-adv-x="629" 
d="M539 464l-53 -83l-186 -294h-31l-94 265l-41 112l-17 -125l-48 -339h-35l73 518h47l136 -389l244 389h48l-73 -518h-36l54 377z" />
    <glyph glyph-name="uni043D" unicode="&#x43d;" horiz-adv-x="520" 
d="M105 253l-36 -253h-35l73 518h35l-32 -228h296l32 228h35l-73 -518h-35l36 253h-296z" />
    <glyph glyph-name="uni043E" unicode="&#x43e;" horiz-adv-x="496" 
d="M70 369q5 40 25.5 69.5t49.5 49.5t64 30t70 10t67 -10t55 -30t35 -49.5t7 -69.5l-30 -220q-5 -40 -25 -69.5t-49.5 -49.5t-64.5 -30t-70 -10t-66.5 10t-55 30t-35.5 49.5t-7 69.5zM274 491q-27 0 -55 -7t-51.5 -22t-40.5 -38t-21 -55l-30 -220q-5 -32 5 -55.5t29.5 -38.5
t45.5 -22t53 -7t55 7t51.5 22t40 38.5t21.5 55.5l30 220q4 32 -6 55t-29 38t-45 22t-53 7z" />
    <glyph glyph-name="uni043F" unicode="&#x43f;" 
d="M101 490q47 16 96 27t98 11q34 -1 65.5 -11t54.5 -29.5t34.5 -49t5.5 -68.5l-52 -370h-36l52 370q4 31 -5.5 54t-28 38t-43.5 22t-52 7q-43 0 -86 -9.5t-72 -20.5l-64 -461h-36z" />
    <glyph glyph-name="uni0440" unicode="&#x440;" horiz-adv-x="511" 
d="M102 498q27 8 50 14t46 9.5t47 5t51 1.5q34 0 66 -9.5t55 -28.5t35 -48.5t6 -71.5l-30 -220q-5 -39 -25.5 -69t-49.5 -50.5t-64 -30.5t-70 -10q-36 1 -73.5 7t-73.5 24l-29 -202h-36zM77 59q34 -15 72 -23.5t76 -8.5q28 0 56 7.5t51 22.5t39 38t20 53l30 222q4 32 -5 55
t-27.5 37.5t-44 21.5t-53.5 7q-37 0 -75.5 -3.5t-81.5 -17.5z" />
    <glyph glyph-name="uni0441" unicode="&#x441;" horiz-adv-x="458" 
d="M399 433q-17 30 -51 44.5t-75 14.5q-28 0 -56 -7t-51.5 -22t-39.5 -37.5t-20 -53.5l-30 -224q-4 -32 5.5 -55t28.5 -38t45 -22t54 -7q45 0 87.5 19t64.5 57l31 -16q-29 -47 -81 -71.5t-107 -24.5q-35 0 -66.5 10t-55 29.5t-35.5 49t-7 69.5l30 222q5 40 25.5 69.5
t49.5 49t63.5 29.5t69.5 10q49 0 91 -18.5t61 -57.5z" />
    <glyph glyph-name="uni0442" unicode="&#x442;" horiz-adv-x="809" 
d="M100 486q35 23 79.5 32.5t88.5 9.5q47 0 87 -14t69 -58q20 21 39.5 35t39 22t39.5 11t40 4q37 1 69.5 -8.5t55 -30t33 -52t4.5 -72.5l-51 -365h-37l50 363q9 42 -7 70t-45 42.5t-65.5 15.5t-70 -10.5t-58 -35.5t-29.5 -60l-54 -385h-35l54 385q6 42 -22 66.5t-70.5 33.5
t-89.5 2.5t-80 -25.5l-65 -462h-37z" />
    <glyph glyph-name="uni0443" unicode="&#x443;" 
d="M37 0zM391 -58q-6 -40 -25.5 -69t-47.5 -47.5t-62.5 -27.5t-68.5 -9q-45 0 -85 14t-65 41l26 22q23 -21 56.5 -32t70.5 -11q28 0 56 7t50.5 21t38.5 36.5t21 53.5l13 86q-43 -20 -81 -28.5t-73 -8.5t-67 10t-55.5 29.5t-35 49t-6.5 68.5l51 370h36l-51 -370q-4 -31 5 -54
t27 -38.5t43.5 -23.5t54.5 -8q24 0 42.5 2.5t36 7t36 12t42.5 17.5l63 455h35z" />
    <glyph glyph-name="uni0444" unicode="&#x444;" horiz-adv-x="689" 
d="M393 515q14 6 40 9.5t45 3.5q33 0 63.5 -10t53 -29.5t34.5 -49t6 -67.5l-31 -226q-5 -38 -25 -67.5t-48.5 -49t-62 -29.5t-66.5 -10q-19 0 -43.5 3.5t-37.5 9.5l-27 -192h-36l26 192q-14 -6 -39.5 -9.5t-44.5 -3.5q-33 0 -63.5 10t-53.5 29.5t-34.5 49t-6.5 67.5l31 226
q6 38 26 67.5t48.5 49t62 29.5t66.5 10q19 0 44 -3.5t37 -9.5l27 193h36zM275 493q-27 0 -55 -8t-51 -23.5t-39.5 -38t-20.5 -51.5l-31 -226q-4 -29 5.5 -51.5t28.5 -38t44.5 -23.5t52.5 -8q19 0 42 3.5t39 9.5l62 442q-14 6 -35.5 9.5t-41.5 3.5zM469 493q-19 0 -42.5 -3.5
t-38.5 -9.5l-63 -442q14 -6 36 -9.5t42 -3.5q27 0 55 8t51 23.5t38.5 38t19.5 51.5l32 226q4 29 -5 51.5t-28 38t-44.5 23.5t-52.5 8z" />
    <glyph glyph-name="uni0445" unicode="&#x445;" horiz-adv-x="444" 
d="M240 259l132 -259h-44l-116 234l-181 -234h-44l205 259l-133 259h45l115 -234l181 234h44z" />
    <glyph glyph-name="uni0446" unicode="&#x446;" horiz-adv-x="534" 
d="M470 61q-8 -50 -18.5 -97.5t-22.5 -89.5h-29l25 151h-37q-40 -18 -86 -26.5t-93 -8.5q-34 0 -65 10t-53.5 29.5t-34 48.5t-6.5 68l53 372h35l-52 -373q-4 -30 5.5 -52.5t28 -37.5t43 -23t50.5 -8q36 0 79 7t73 21l65 466h37l-64 -457h67z" />
    <glyph glyph-name="uni0447" unicode="&#x447;" horiz-adv-x="477" 
d="M352 215q-71 -50 -150 -50q-32 0 -62 8t-52 26.5t-33.5 48.5t-5.5 74l27 196h35l-27 -197q-5 -33 4 -56.5t27 -38t42.5 -21.5t50.5 -7q38 0 76.5 13t72.5 39l38 268h35l-73 -518h-35z" />
    <glyph glyph-name="uni0448" unicode="&#x448;" horiz-adv-x="791" 
d="M677 31q-35 -21 -77 -31t-84 -10q-23 0 -45 3.5t-42.5 12.5t-37 24t-27.5 37q-38 -46 -76 -61.5t-81 -15.5q-36 0 -67.5 10t-53 29.5t-32 49.5t-4.5 71l52 368h36l-51 -366q-5 -34 3.5 -58t26.5 -39.5t42 -22.5t51 -7q24 0 48.5 7t44.5 20.5t34 32.5t18 45l54 388h35
l-54 -388q-4 -26 6.5 -45.5t30 -33t45.5 -20.5t55 -7q32 0 62.5 8.5t54.5 22.5l64 463h37z" />
    <glyph glyph-name="uni0449" unicode="&#x449;" horiz-adv-x="812" 
d="M749 61q-8 -49 -18.5 -96.5t-22.5 -90.5h-29l25 151h-38q-34 -18 -72 -26.5t-79 -8.5q-23 0 -45 3.5t-42.5 12.5t-37 24t-27.5 37q-38 -46 -75 -61.5t-80 -15.5q-37 0 -68.5 10t-53 29.5t-31.5 49.5t-4 71l51 368h36l-51 -366q-5 -34 4 -58t26.5 -39.5t41.5 -22.5t51 -7
q25 0 49 8t44 22t34 33t17 42l54 388h35l-54 -388q-4 -26 6.5 -45.5t30 -33t45.5 -20.5t55 -7q32 0 63.5 8t54.5 21l65 465h36l-63 -457h67z" />
    <glyph glyph-name="uni044A" unicode="&#x44a;" horiz-adv-x="516" 
d="M144 278q34 15 76.5 29t87.5 14q37 0 67.5 -12.5t51 -35t29.5 -54.5t4 -71q-6 -39 -26 -68.5t-48.5 -49.5t-63.5 -30.5t-69 -10.5q-35 0 -66.5 10t-55 29.5t-35.5 49t-6 68.5l47 339h-96l5 33h131zM295 287q-40 0 -83 -14.5t-73 -28.5l-14 -98q-4 -32 6 -55t29.5 -38
t45 -22t52.5 -7t54.5 7.5t50.5 23t39.5 38.5t21.5 55q5 34 -3.5 60t-26.5 43.5t-44 26.5t-55 9z" />
    <glyph glyph-name="uni044B" unicode="&#x44b;" horiz-adv-x="667" 
d="M104 278q34 15 77 29t88 14q37 0 67.5 -12.5t50.5 -35t29 -54.5t4 -71t-25 -68.5t-49 -49.5t-63.5 -30.5t-68.5 -10.5q-35 0 -66.5 10t-55 29.5t-35.5 49t-7 68.5l52 372h35zM622 518l-73 -518h-36l73 518h36zM256 287q-20 0 -41.5 -4t-42 -10.5t-39.5 -14t-34 -14.5
l-13 -98q-5 -32 5.5 -55t29.5 -38t45 -22t53 -7q26 0 53.5 7.5t51 23t40 38.5t21.5 55q4 34 -4.5 60t-26.5 43.5t-43.5 26.5t-54.5 9z" />
    <glyph glyph-name="uni044C" unicode="&#x44c;" horiz-adv-x="476" 
d="M104 278q34 15 77 29t88 14q37 0 67.5 -12.5t50.5 -35t29 -54.5t4 -71t-25 -68.5t-49 -49.5t-63.5 -30.5t-68.5 -10.5q-35 0 -66.5 10t-55 29.5t-35.5 49t-7 68.5l52 372h35zM256 287q-20 0 -41.5 -4t-42 -10.5t-39.5 -14t-34 -14.5l-13 -98q-5 -32 5.5 -55t29.5 -38
t45 -22t53 -7q26 0 53.5 7.5t51 23t40 38.5t21.5 55q4 34 -4.5 60t-26.5 43.5t-43.5 26.5t-54.5 9z" />
    <glyph glyph-name="uni044D" unicode="&#x44d;" horiz-adv-x="457" 
d="M242 528q34 0 66 -10t55 -29.5t34.5 -48.5t5.5 -68l-31 -225q-6 -39 -26 -68.5t-48.5 -49t-63 -29.5t-68.5 -10q-54 0 -98.5 24t-60.5 72l36 16q12 -39 48.5 -57.5t79.5 -18.5q28 0 56 7t50.5 22t38.5 37.5t20 53.5l14 98h-231l5 32h231l14 97q4 31 -5.5 53.5t-28.5 37
t-44.5 21.5t-53.5 7q-41 0 -78 -13t-62 -44l-27 17q32 39 78 57.5t94 18.5z" />
    <glyph glyph-name="uni044E" unicode="&#x44e;" horiz-adv-x="702" 
d="M487 529q34 0 66 -10t55 -29.5t34.5 -49t5.5 -68.5l-31 -226q-6 -39 -26 -68.5t-48.5 -49t-63 -29.5t-68.5 -10q-35 0 -66.5 10t-55 29.5t-35 49t-6.5 68.5l16 110h-161l-36 -256h-36l73 518h36l-31 -227h160l11 81q6 39 26 68.5t48.5 49t63 29.5t69.5 10zM482 492
q-27 0 -55 -7t-51 -21.5t-40 -37t-21 -54.5l-31 -226q-5 -32 5 -55t29.5 -37.5t45 -21.5t52.5 -7t54.5 7t50.5 21.5t39.5 37.5t20.5 55l32 226q4 32 -5.5 54.5t-28.5 37t-44.5 21.5t-52.5 7z" />
    <glyph glyph-name="uni044F" unicode="&#x44f;" horiz-adv-x="491" 
d="M243 221l-207 -221h-45l206 221q-68 1 -107 38.5t-30 104.5q21 154 182 154h202l-73 -518h-36l32 221h-124zM239 483q-60 0 -97 -27t-46 -93q-4 -29 4 -49.5t25 -34t40.5 -19.5t50.5 -6h155l32 229h-164z" />
    <glyph glyph-name="uni0451" unicode="&#x451;" horiz-adv-x="478" 
d="M179 641q2 13 12 21.5t22 8.5q13 0 20.5 -8.5t5.5 -21.5q-2 -12 -11.5 -21t-22.5 -9q-12 0 -20 9t-6 21zM354 641q2 13 11.5 21.5t22.5 8.5q12 0 20 -8.5t6 -21.5q-2 -12 -12 -21t-22 -9q-13 0 -20.5 9t-5.5 21zM74 146q-5 -33 5.5 -56t30 -38t46 -22t53.5 -7
q42 0 82.5 16t64.5 50l27 -15q-29 -41 -78.5 -62.5t-99.5 -21.5q-35 0 -67 9.5t-55.5 29t-35.5 49t-6 69.5l30 219q6 41 26 71.5t49 50.5t64 30t70 10q34 0 66 -9.5t55 -29t35 -49.5t6 -70q-6 -42 -26 -73.5t-49.5 -52t-65 -31t-71.5 -10.5q-35 0 -71.5 8t-71.5 25zM91 267
q30 -13 70 -22.5t78 -9.5q30 0 58 7.5t51 24t39 42t21 61.5q4 33 -5 56.5t-28 39.5t-45 23.5t-54 7.5q-29 0 -57.5 -8t-52.5 -24t-40.5 -40.5t-20.5 -57.5z" />
    <glyph glyph-name="Wgrave" unicode="&#x1e80;" horiz-adv-x="928" 
d="M517 765l-72 111h48l61 -111h-37zM966 708l-309 -708h-58l-99 557l-260 -557h-58l-105 708h40l96 -674h4l269 571h41l104 -571h4l291 674h40z" />
    <glyph glyph-name="wgrave" unicode="&#x1e81;" horiz-adv-x="715" 
d="M391 585l-72 111h48l61 -111h-37zM137 0l-83 518h37l78 -499l190 499h55l52 -497l217 497h37l-228 -518h-61l-47 494l-189 -494h-58z" />
    <glyph glyph-name="Wacute" unicode="&#x1e82;" horiz-adv-x="928" 
d="M516 765h-39l78 111h48zM966 708l-309 -708h-58l-99 557l-260 -557h-58l-105 708h40l96 -674h4l269 571h41l104 -571h4l291 674h40z" />
    <glyph glyph-name="wacute" unicode="&#x1e83;" horiz-adv-x="715" 
d="M390 585h-39l78 111h48zM137 0l-83 518h37l78 -499l190 499h55l52 -497l217 497h37l-228 -518h-61l-47 494l-189 -494h-58z" />
    <glyph glyph-name="Wdieresis" unicode="&#x1e84;" horiz-adv-x="928" 
d="M418 821q2 13 12 21.5t22 8.5q13 0 20.5 -8.5t5.5 -21.5q-2 -12 -11.5 -21t-22.5 -9q-12 0 -20 9t-6 21zM593 821q2 13 11.5 21.5t22.5 8.5q12 0 20 -8.5t6 -21.5q-2 -12 -12 -21t-22 -9q-13 0 -20.5 9t-5.5 21zM966 708l-309 -708h-58l-99 557l-260 -557h-58l-105 708
h40l96 -674h4l269 571h41l104 -571h4l291 674h40z" />
    <glyph glyph-name="wdieresis" unicode="&#x1e85;" horiz-adv-x="715" 
d="M292 641q2 13 12 21.5t22 8.5q13 0 20.5 -8.5t5.5 -21.5q-2 -12 -11.5 -21t-22.5 -9q-12 0 -20 9t-6 21zM467 641q2 13 11.5 21.5t22.5 8.5q12 0 20 -8.5t6 -21.5q-2 -12 -12 -21t-22 -9q-13 0 -20.5 9t-5.5 21zM137 0l-83 518h37l78 -499l190 499h55l52 -497l217 497h37
l-228 -518h-61l-47 494l-189 -494h-58z" />
    <glyph glyph-name="Ygrave" unicode="&#x1ef2;" horiz-adv-x="536" 
d="M320 765l-72 111h48l61 -111h-37zM245 0h-39l39 280l-178 427h45l158 -392l267 392h46l-299 -427z" />
    <glyph glyph-name="ygrave" unicode="&#x1ef3;" 
d="M289 585l-72 111h48l61 -111h-37zM391 -58q-6 -40 -25.5 -69t-47.5 -47.5t-62.5 -27.5t-68.5 -9q-45 0 -85 14t-65 41l26 22q23 -21 56.5 -32t70.5 -11q28 0 56 7t50.5 21t38.5 36.5t21 53.5l13 86q-43 -20 -81 -28.5t-73 -8.5t-67 10t-55.5 29.5t-35 49t-6.5 68.5
l51 370h36l-51 -370q-4 -31 5 -54t27 -38.5t43.5 -23.5t54.5 -8q24 0 42.5 2.5t36 7t36 12t42.5 17.5l63 455h35z" />
    <glyph glyph-name="endash" unicode="&#x2013;" horiz-adv-x="585" 
d="M511 281h-444l5 37h444z" />
    <glyph glyph-name="emdash" unicode="&#x2014;" horiz-adv-x="1017" 
d="M943 281h-876l5 37h876z" />
    <glyph glyph-name="quoteleft" unicode="&#x2018;" horiz-adv-x="214" 
d="M88 518q13 27 25 50t24 45t23.5 45t24.5 50h36l-83 -190h-50z" />
    <glyph glyph-name="quoteright" unicode="&#x2019;" horiz-adv-x="213" 
d="M224 708q-13 -27 -25 -50.5t-24.5 -45.5t-24.5 -45t-25 -50h-37l84 191h52z" />
    <glyph glyph-name="quotesinglbase" unicode="&#x201a;" horiz-adv-x="196" 
d="M3 -128h-38l80 168h51z" />
    <glyph glyph-name="quotedblleft" unicode="&#x201c;" horiz-adv-x="339" 
d="M180 708h38l-78 -191h-52zM307 708h38l-78 -191h-52z" />
    <glyph glyph-name="quotedblright" unicode="&#x201d;" horiz-adv-x="328" 
d="M126 518h-36l72 190h50zM250 518h-36l72 190h50z" />
    <glyph glyph-name="quotedblbase" unicode="&#x201e;" horiz-adv-x="336" 
d="M103 50q-13 -25 -24.5 -46.5t-23 -42.5t-23.5 -42.5t-24 -46.5h-38l81 178h52zM229 50q-13 -25 -24.5 -46.5t-23 -42.5t-23.5 -42.5t-24 -46.5h-38l81 178h52z" />
    <glyph glyph-name="dagger" unicode="&#x2020;" horiz-adv-x="481" 
d="M59 514h192l27 194h35l-27 -194h194l-5 -33h-194l-84 -597h-35l84 597h-192z" />
    <glyph glyph-name="daggerdbl" unicode="&#x2021;" horiz-adv-x="555" 
d="M42 111h192l52 369h-192l4 32h192l28 195h35l-28 -195h193l-4 -32h-193l-52 -369h193l-4 -31h-193l-28 -196h-35l28 196h-192z" />
    <glyph glyph-name="bullet" unicode="&#x2022;" horiz-adv-x="379" 
d="M85 354q3 22 15 42t29 35t38 24t44 9q22 0 41 -9t32 -24t18.5 -35t2.5 -42q-3 -23 -14.5 -43t-28.5 -35t-38.5 -23.5t-43.5 -8.5q-23 0 -41.5 8.5t-31.5 23.5t-19 35t-3 43z" />
    <glyph glyph-name="ellipsis" unicode="&#x2026;" horiz-adv-x="676" 
d="M103 100q25 0 39 -16.5t10 -41.5q-3 -25 -22 -41.5t-44 -16.5t-39 16.5t-11 41.5q4 25 23 41.5t44 16.5zM312 100q25 0 39 -16.5t10 -41.5q-3 -25 -22 -41.5t-44 -16.5t-39 16.5t-11 41.5q4 25 23 41.5t44 16.5zM520 100q25 0 39 -16.5t10 -41.5q-3 -25 -22 -41.5
t-44 -16.5t-39 16.5t-11 41.5q4 25 23 41.5t44 16.5z" />
    <glyph glyph-name="perthousand" unicode="&#x2030;" horiz-adv-x="1026" 
d="M38 -37l611 791l30 -21l-610 -790zM349 525q-6 -42 -20.5 -75.5t-36.5 -56.5t-49 -35.5t-57 -12.5q-66 0 -95.5 46.5t-16.5 135.5q12 88 57.5 133.5t105.5 45.5q65 0 94.5 -47t17.5 -134zM311 525q11 75 -10.5 109.5t-69.5 34.5q-98 0 -118 -142q-11 -77 8 -110.5
t70 -33.5q50 0 80 34t40 108zM651 174q-12 -85 -57 -132t-105 -47q-67 0 -96 46t-17 135q13 91 57.5 135t105.5 44q64 0 94 -48t18 -133zM974 174q-12 -85 -57 -132t-105 -47q-67 0 -96 46t-17 135q13 91 57.5 135t105.5 44q64 0 94 -48t18 -133zM614 174q11 75 -11 110
t-70 35q-51 0 -79 -35t-39 -108q-11 -77 8.5 -110.5t71.5 -33.5q49 0 78.5 34t40.5 108zM937 174q11 75 -11 110t-70 35q-51 0 -79 -35t-39 -108q-11 -77 8.5 -110.5t71.5 -33.5q49 0 78.5 34t40.5 108z" />
    <glyph glyph-name="guilsinglleft" unicode="&#x2039;" horiz-adv-x="262" 
d="M197 485q8 -5 14.5 -10t13.5 -10l-141 -170q21 -41 45.5 -85t46.5 -85q-11 -6 -17 -10t-16 -9l-101 189z" />
    <glyph glyph-name="guilsinglright" unicode="&#x203a;" horiz-adv-x="260" 
d="M61 105q-8 5 -14.5 10t-13.5 10l141 170q-21 41 -45.5 85t-46.5 85q11 6 17 10t16 9l101 -189z" />
    <glyph glyph-name="fraction" unicode="&#x2044;" horiz-adv-x="500" 
d="M518 728q8 -5 13 -9t12 -9l-548 -730l-25 17z" />
    <glyph glyph-name="Euro" unicode="&#x20ac;" horiz-adv-x="602" 
d="M133 511q7 51 32.5 90t62 65.5t80.5 39.5t88 13q65 0 119.5 -28t77.5 -86l-38 -18q-20 50 -65 71t-99 21q-37 0 -74 -11t-67.5 -32t-51.5 -52.5t-27 -72.5l-12 -86h269l-11 -32h-263l-8 -59h269l-8 -32h-265l-13 -105q-5 -42 7 -73.5t36 -52t57.5 -31t69.5 -10.5
q55 0 107.5 21.5t85.5 70.5l33 -18q-19 -29 -45.5 -50.5t-57 -35.5t-63.5 -21t-66 -7q-44 0 -83 13t-67.5 39t-43 64.5t-8.5 90.5l13 105h-64l10 32h58l8 59h-61l11 32h55z" />
    <glyph glyph-name="uni2113" unicode="&#x2113;" horiz-adv-x="383" 
d="M320 51q-26 -22 -56.5 -35t-62.5 -13q-38 0 -63 14.5t-38.5 40t-17 59t1.5 71.5l4 29l-67 -59q-2 5 -5 14.5t-5 14.5q23 18 43 36.5t40 36.5l40 282q9 66 26.5 109.5t39.5 69.5t46.5 36.5t47.5 10.5q26 0 43.5 -11.5t28 -31t13 -46.5t-1.5 -58q-14 -95 -81 -189
t-169 -185l-4 -33q-7 -51 -3 -84.5t16 -53.5t30.5 -28t42.5 -8q25 0 49 11.5t44 27.5zM133 288q42 42 78 83t63.5 82t45 82t23.5 83q3 22 3 43t-5.5 37.5t-18.5 26t-35 9.5q-16 0 -33.5 -9t-33.5 -30.5t-29.5 -57.5t-21.5 -90z" />
    <glyph glyph-name="trademark" unicode="&#x2122;" horiz-adv-x="822" 
d="M164 338l48 341h-130l4 29h292l-4 -29h-130l-48 -341h-32zM470 671q-5 -36 -11 -79t-11.5 -87t-11.5 -87.5t-11 -79.5h-31l52 370h45l92 -290q41 69 86.5 145t87.5 145h45l-52 -370h-32l52 339l-175 -292h-32z" />
    <glyph glyph-name="Omega" unicode="&#x2126;" horiz-adv-x="775" 
d="M179 62q-27 25 -49.5 57.5t-37 72.5t-20 86.5t2.5 99.5q10 75 44.5 136.5t85.5 105.5t114 68t131 24q71 0 125.5 -26.5t89.5 -71.5t49.5 -105t5.5 -127q-8 -55 -27.5 -105t-48 -93.5t-63 -79t-71.5 -60.5h176l-5 -34h-248l3 21q45 25 85.5 60t73.5 79.5t55.5 97.5
t31.5 114q7 52 -4 104.5t-41 94.5t-78.5 68t-114.5 26q-62 0 -118.5 -22.5t-100.5 -62.5t-73.5 -95t-38.5 -119q-8 -59 0.5 -109.5t30 -93.5t53 -78t69.5 -63l-3 -22h-252l5 34h182z" />
    <glyph glyph-name="estimated" unicode="&#x212e;" horiz-adv-x="901" 
d="M216 344q-5 0 -5 -5v-199q0 -12 8 -23q48 -50 112 -79t137 -29q79 0 146.5 33t115.5 88h59q-55 -64 -139 -102.5t-183 -38.5q-84 0 -158 28.5t-129 78t-87 116t-32 142.5t32 142.5t87 116t129 78.5t158 29t158.5 -29t129.5 -78.5t87 -116t32 -142.5v-10h-658zM725 570
q0 14 -10 24q-48 48 -111 76t-136 28q-72 0 -136 -29t-112 -78q-9 -11 -9 -25v-196q0 -2 1.5 -4.5t3.5 -2.5h505q2 0 3 2.5t1 4.5v200z" />
    <glyph glyph-name="partialdiff" unicode="&#x2202;" horiz-adv-x="498" 
d="M132 699q26 17 62.5 30.5t84.5 13.5q61 0 103 -35.5t63 -97.5t18 -146.5t-32 -183.5q-19 -63 -45 -116.5t-59 -92t-73.5 -60t-88.5 -21.5q-42 0 -71 18t-45.5 47.5t-21.5 68t1 79.5q7 54 29.5 98.5t53.5 76t68 49t74 17.5q31 0 56 -9t44 -23.5t32 -32.5t19 -35
q19 52 22.5 115t-12 118t-51 92t-94.5 37q-41 0 -72 -10.5t-54 -25.5zM173 29q36 0 71.5 20.5t65 56t51 82t30.5 98.5q-3 18 -14.5 39t-30 39t-43 29.5t-53.5 11.5q-32 0 -62 -15.5t-55.5 -42.5t-43 -63.5t-23.5 -78.5q-11 -79 18 -127.5t88 -48.5h1z" />
    <glyph glyph-name="Delta" unicode="&#x2206;" horiz-adv-x="580" 
d="M376 715l139 -681l-4 -34h-524l4 33l333 682h52zM34 34h430l-118 645z" />
    <glyph glyph-name="product" unicode="&#x220f;" horiz-adv-x="638" 
d="M415 -60l103 733h-299l-103 -733h-37l103 733h-103l5 36h580l-5 -36h-104l-103 -733h-37z" />
    <glyph glyph-name="summation" unicode="&#x2211;" horiz-adv-x="529" 
d="M303 307q-51 89 -102.5 185.5t-102.5 185.5l4 30h429l-5 -33h-379l9 -17l189 -347l-302 -340l-16 -17h414l-4 -32h-457l4 29z" />
    <glyph glyph-name="minus" unicode="&#x2212;" horiz-adv-x="635" 
d="M560 289h-490l5 35h490z" />
    <glyph glyph-name="uni2215" unicode="&#x2215;" horiz-adv-x="502" 
d="M519 728q8 -5 13 -9t12 -9l-550 -739l-24 17z" />
    <glyph glyph-name="uni2219" unicode="&#x2219;" horiz-adv-x="218" 
d="M72 318q2 16 15 27t29 11t25 -11t7 -27t-14.5 -27t-28.5 -11t-25.5 11t-7.5 27z" />
    <glyph glyph-name="radical" unicode="&#x221a;" horiz-adv-x="514" 
d="M101 323q-17 -5 -37.5 -12.5t-38.5 -13.5l-8 33q29 11 55.5 19.5t55.5 19.5l81 -464q39 111 79 227t80 234t80 234t79 227h38l-342 -971h-38z" />
    <glyph glyph-name="infinity" unicode="&#x221e;" horiz-adv-x="739" 
d="M680 292q-5 -32 -20 -58.5t-37 -45t-48.5 -28.5t-53.5 -10q-22 0 -41 7t-37.5 21.5t-37.5 35.5t-41 49q-23 -21 -46 -41.5t-47 -36.5t-49 -25.5t-52 -9.5q-28 0 -51 10.5t-39 29.5t-23 44.5t-3 54.5q4 31 18.5 57t36 45t49 30t58.5 11q22 0 43.5 -10t41.5 -26t38 -37
t35 -42q22 20 44 40.5t45.5 37t49 27t55.5 10.5q60 -1 90 -39t22 -100v-1zM181 182q19 0 39 8.5t39 21t37 28t33 30.5l21 18q-14 20 -29 40t-32.5 36t-38.5 26t-46 10q-24 0 -44 -9t-35 -24.5t-24.5 -36t-12.5 -42.5q-5 -45 19.5 -75.5t72.5 -30.5h1zM558 400
q-20 0 -39.5 -8t-38 -20.5t-35.5 -27.5t-31 -28l-26 -24q21 -27 38.5 -47.5t34 -34.5t33 -21t35.5 -7q24 0 44.5 9.5t35.5 24.5t24.5 34t12.5 39q4 27 -1 47.5t-17 34.5t-29.5 21.5t-39.5 7.5h-1z" />
    <glyph glyph-name="integral" unicode="&#x222b;" horiz-adv-x="315" 
d="M362 813q-10 5 -21.5 8t-21.5 3q-36 0 -61 -31t-32 -85l-32 -265q-8 -63 -15.5 -128.5t-15 -126.5t-14 -113t-11.5 -89q-10 -68 -49 -100.5t-85 -32.5q-28 0 -49 9l9 26q8 -3 17.5 -4.5t17.5 -1.5q41 0 68.5 28.5t34.5 76.5q4 30 9 71.5t11 89.5t12.5 101t13.5 107
q6 53 12 104.5t12 98.5t11 86.5t9 68.5q10 70 47.5 105.5t80.5 35.5q12 0 26 -4.5t26 -10.5z" />
    <glyph glyph-name="approxequal" unicode="&#x2248;" horiz-adv-x="534" 
d="M471 368q-20 -25 -44 -40t-56 -15q-27 0 -50 10t-54 30q-20 13 -40.5 24t-44.5 11t-44 -13.5t-39 -33.5q-5 6 -10 9.5t-10 8.5q25 29 50.5 43t57.5 14q27 0 49.5 -10.5t38.5 -20.5q38 -24 58.5 -32.5t43.5 -8.5q22 0 40 10t37 31zM452 232q-20 -24 -45 -38.5t-57 -14.5
q-27 0 -49 11t-54 29q-19 12 -40 23t-44 11q-25 0 -45 -12t-37 -32l-21 17q26 29 52 43.5t58 14.5q25 0 46 -10t37 -20q19 -12 33 -20t25.5 -13.5t22.5 -8t24 -2.5q20 0 38 10.5t36 29.5z" />
    <glyph glyph-name="notequal" unicode="&#x2260;" horiz-adv-x="558" 
d="M496 359h-165q-20 -34 -43.5 -73t-44.5 -73h232l-4 -33h-244q-15 -27 -33 -55t-34 -54l-24 13l58 96h-144l4 33h158l88 146h-225l5 33h238l65 108q8 -4 12 -6.5t11 -5.5l-57 -96h152z" />
    <glyph glyph-name="lessequal" unicode="&#x2264;" horiz-adv-x="484" 
d="M120 367q66 -39 137.5 -81.5t137.5 -81.5l-5 -39l-306 186l4 33l359 189l-6 -40zM394 101l-5 -33h-359l5 33h359z" />
    <glyph glyph-name="greaterequal" unicode="&#x2265;" horiz-adv-x="481" 
d="M414 351l-358 -186l5 39l321 163l-275 166l6 40l305 -189zM393 101l-5 -33h-359l5 33h359z" />
    <glyph glyph-name="lozenge" unicode="&#x25ca;" 
d="M187 -22q-39 96 -76.5 189t-77.5 188q67 96 132.5 189.5t132.5 188.5h46l156 -377l-266 -378h-47zM215 10l239 345l-140 349l-235 -347z" />
    <glyph glyph-name="i.loclTRK" horiz-adv-x="190" 
d="M111 635q2 14 13.5 24t25.5 10t22.5 -10t6.5 -24t-13 -24t-25 -10t-23 10t-7 24zM71 0h-37l72 518h37z" />
    <glyph glyph-name="uni0414.loclBGR" horiz-adv-x="664" 
d="M548 -150l21 150h-558l-21 -150h-39l26 189h67l319 669h52l133 -669h66l-27 -189h-39zM85 39h422l-124 630z" />
    <glyph glyph-name="uni041B.loclBGR" horiz-adv-x="585" 
d="M347 678h-5l-33 -68l-299 -610h-41l350 708h60l150 -708h-41l-127 611z" />
    <glyph glyph-name="uni0432.loclBGR" horiz-adv-x="497" 
d="M315 718q91 0 124.5 -40t23.5 -115q-5 -30 -18.5 -56t-32 -47t-39.5 -36.5t-40 -24.5q24 0 44.5 -8.5t35 -25t21 -40t2.5 -53.5l-18 -126q-5 -39 -25 -68.5t-48.5 -49t-63 -29.5t-68.5 -10q-35 0 -66.5 10t-55 29.5t-35.5 48.5t-6 69l59 415q5 38 24 67t47.5 49t63 30.5
t71.5 10.5zM312 683q-28 0 -56 -7.5t-51.5 -22.5t-40 -38.5t-20.5 -55.5l-29 -204q21 7 60 18.5t87 25.5q31 10 59.5 26.5t50.5 37.5t36.5 46.5t18.5 52.5q8 61 -18.5 91t-96.5 30zM256 365q-45 -12 -80.5 -23.5t-64.5 -20.5l-26 -175q-4 -32 6 -55t29.5 -37.5t45 -21.5
t52.5 -7t54.5 7t50.5 21.5t39.5 37.5t20.5 55l17 126q4 28 -5 49.5t-28.5 34t-48 15.5t-62.5 -6z" />
    <glyph glyph-name="uni0433.loclBGR" horiz-adv-x="441" 
d="M255 528q79 0 113 -33.5t26 -92.5q-5 -31 -20.5 -53t-40 -38.5t-56.5 -29t-69 -23.5q-72 -23 -108.5 -50.5t-43.5 -76.5q-8 -58 23 -84t94 -26q56 1 101 20.5t75 47.5l21 -21q-35 -34 -89 -56t-114 -22q-85 0 -120.5 37t-25.5 104q9 63 54 97.5t122 57.5q65 19 109.5 45
t51.5 71q6 43 -19.5 67.5t-88.5 24.5q-45 0 -83 -16t-67 -41l-20 24q83 67 175 67z" />
    <glyph glyph-name="uni0434.loclBGR" horiz-adv-x="506" 
d="M25 0zM48 -133q23 -21 58.5 -32.5t71.5 -11.5q30 0 58 7t50.5 21t37.5 36.5t20 53.5l14 86q-43 -20 -81 -28.5t-73 -8.5t-67 10t-55 29.5t-34.5 49t-6.5 68.5l31 225q5 39 24.5 68t48 48.5t62.5 29.5t68 10q52 0 93 -10.5t90 -27.5l-79 -548q-6 -40 -25.5 -69
t-47.5 -47.5t-62.5 -27.5t-68.5 -9q-45 0 -85 14t-65 41zM419 463q-25 11 -65.5 20.5t-83.5 9.5q-28 0 -55 -7.5t-49.5 -22.5t-38 -37.5t-19.5 -52.5l-31 -226q-4 -31 5 -54t27 -38.5t43 -23t54 -7.5q24 0 42.5 2.5t36 7t36 11.5t42.5 18z" />
    <glyph glyph-name="uni0436.loclBGR" horiz-adv-x="703" 
d="M455 285l181 -285h-42l-168 260l-70 -61l-29 -199h-36l29 199l-53 61l-242 -260h-43l263 285l-190 233h45l227 -275l64 465h36l-65 -465l302 275h45z" />
    <glyph glyph-name="uni0438.loclBGR" 
d="M406 28q-48 -16 -97 -27t-98 -11q-34 1 -65 11t-54 29.5t-35 49t-6 68.5l52 370h36l-52 -370q-5 -31 5 -54t28.5 -38t43.5 -22t52 -7q43 0 86.5 9.5t71.5 20.5l64 461h36z" />
    <glyph glyph-name="uni0439.loclBGR" horiz-adv-x="514" 
d="M420 683q-14 -44 -48 -67t-69 -23t-62.5 23t-29.5 67h35q3 -26 21 -41t41 -15q22 0 44 15t33 41h35zM400 23q-54 -18 -101 -25.5t-90 -7.5q-34 0 -65 10t-53.5 29.5t-34 48.5t-6.5 68l53 372h35l-52 -373q-4 -30 5.5 -52.5t28 -37.5t43 -23t50.5 -8q40 0 82.5 7.5
t72.5 19.5l66 467h35z" />
    <glyph glyph-name="uni043A.loclBGR" horiz-adv-x="469" 
d="M101 221l329 297h44l-256 -233l184 -285h-43l-170 259l-95 -83l-24 -176h-36l99 708h36z" />
    <glyph glyph-name="uni043B.loclBGR" horiz-adv-x="434" 
d="M245 478h-3l-33 -74l-194 -404h-37l247 513h48l96 -513h-37l-76 404z" />
    <glyph glyph-name="uni043F.loclBGR" 
d="M101 490q47 16 96 27t98 11q34 -1 65.5 -11t54.5 -29.5t34.5 -49t5.5 -68.5l-52 -370h-36l52 370q4 31 -5.5 54t-28 38t-43.5 22t-52 7q-43 0 -86 -9.5t-72 -20.5l-64 -461h-36z" />
    <glyph glyph-name="uni0442.loclBGR" horiz-adv-x="809" 
d="M100 486q35 23 79.5 32.5t88.5 9.5q47 0 87 -14t69 -58q20 21 39.5 35t39 22t39.5 11t40 4q37 1 69.5 -8.5t55 -30t33 -52t4.5 -72.5l-51 -365h-37l50 363q9 42 -7 70t-45 42.5t-65.5 15.5t-70 -10.5t-58 -35.5t-29.5 -60l-54 -385h-35l54 385q6 42 -22 66.5t-70.5 33.5
t-89.5 2.5t-80 -25.5l-65 -462h-37z" />
    <glyph glyph-name="uni0446.loclBGR" horiz-adv-x="533" 
d="M470 61q-8 -49 -18.5 -96.5t-22.5 -90.5h-29l25 151h-38q-40 -18 -85.5 -26.5t-92.5 -8.5q-34 0 -65 10t-53.5 29.5t-34 49t-6.5 67.5l53 372h35l-52 -372q-4 -30 5.5 -52.5t28 -37.5t43 -23t50.5 -8q36 0 78.5 6.5t73.5 21.5l65 465h36l-63 -457h67z" />
    <glyph glyph-name="uni0448.loclBGR" horiz-adv-x="790" 
d="M677 31q-35 -21 -76.5 -31t-83.5 -10q-23 0 -45 3.5t-42.5 12.5t-37 24t-27.5 37q-38 -46 -76 -61.5t-81 -15.5q-37 0 -68.5 10t-53 29.5t-31.5 49.5t-4 71l51 368h36l-51 -366q-5 -34 4 -58t26.5 -39.5t41.5 -22.5t51 -7q25 0 49.5 7t44.5 20.5t34 32.5t17 45l54 388h36
l-55 -388q-3 -26 7 -45.5t29.5 -33t46 -20.5t54.5 -7q32 0 63 8.5t54 22.5l65 463h36z" />
    <glyph glyph-name="uni0449.loclBGR" horiz-adv-x="812" 
d="M749 61q-8 -49 -18.5 -96.5t-22.5 -90.5h-29l25 151h-39q-34 -18 -71.5 -26.5t-78.5 -8.5q-23 0 -45 3.5t-42.5 12.5t-37 24t-27.5 37q-38 -46 -75 -61.5t-80 -15.5q-37 0 -68.5 10t-53 29.5t-31.5 49.5t-4 71l51 368h36l-51 -366q-5 -34 4 -58t26.5 -39.5t41.5 -22.5
t51 -7q25 0 49 8t44 22t34 33t17 42l54 388h35l-54 -388q-4 -26 6.5 -45.5t30 -33t45.5 -20.5t55 -7q32 0 63.5 8t54.5 21l65 465h36l-63 -457h67z" />
    <glyph glyph-name="uni044E.loclBGR" horiz-adv-x="703" 
d="M281 372q6 39 26 68.5t49 49t63.5 29.5t69.5 10q34 0 65.5 -10t54.5 -29.5t35 -49t6 -68.5l-32 -226q-5 -39 -25 -68.5t-48.5 -49t-63 -29.5t-68.5 -10q-35 0 -67 10t-55 29.5t-35 49t-7 68.5l16 110h-160l-37 -256h-35l100 708h35l-58 -417h160zM484 492q-27 0 -55 -7
t-51 -21.5t-40 -37t-21 -54.5l-32 -226q-4 -32 6 -55t29.5 -37.5t45 -21.5t52.5 -7q26 0 53.5 7t50.5 21.5t39.5 37.5t20.5 55l32 226q4 32 -5.5 54.5t-28.5 37t-44.5 21.5t-51.5 7z" />
    <glyph glyph-name=".ttfautohint" horiz-adv-x="267" 
d="M0 0z" />
    </font>
</defs>
</svg>
