<?xml version="1.0" standalone="no"?>
<!DOCTYPE svg PUBLIC "-//W3C//DTD SVG 1.1//EN" "http://www.w3.org/Graphics/SVG/1.1/DTD/svg11.dtd" >
<svg xmlns="http://www.w3.org/2000/svg" xmlns:xlink="http://www.w3.org/1999/xlink" version="1.1">
<metadata>
Created by FontForge 20170731 at Fri May 16 14:39:27 2014
 By Aleksey,,,
Copyright (c) 2014 by (c) 2009 Designed by Svetoslav Simov (c) Fontfabric, Inc. All rights reserved.
</metadata>
<defs>
<font id="UniSansLight" horiz-adv-x="488" >
  <font-face 
    font-family="Uni Sans Light"
    font-weight="300"
    font-stretch="normal"
    units-per-em="1000"
    panose-1="0 0 5 0 0 0 0 0 0 0"
    ascent="756"
    descent="-244"
    x-height="517"
    cap-height="708"
    bbox="-36 -254 994 921"
    underline-thickness="50"
    underline-position="-150"
    unicode-range="U+0020-FB02"
  />
<missing-glyph horiz-adv-x="563" 
d="M519 0h-480v708h480v-708zM279 377l189 301h-378zM69 656v-604l192 298zM297 350l192 -298v604zM90 30h378l-189 293z" />
    <glyph glyph-name="fi" unicode="fi" horiz-adv-x="453" 
d="M322 674q0 14 10.5 24.5t24.5 10.5t24.5 -10.5t10.5 -24.5t-10.5 -24.5t-24.5 -10.5t-24.5 10.5t-10.5 24.5zM377 -1h-36v520h36v-520zM232 685q-58 0 -88.5 -34t-30.5 -91v-66h112v-33h-112v-461h-36v560q0 38 12 67.5t32.5 49.5t49 30.5t61.5 10.5v-33z" />
    <glyph glyph-name="fl" unicode="fl" horiz-adv-x="486" 
d="M476 -3q-67 2 -102.5 40.5t-35.5 113.5v557h36v-557q0 -57 24 -87.5t78 -30.5v-36zM231 685q-58 0 -88.5 -34t-30.5 -91v-66h112v-33h-112v-461h-36v560q0 38 12 67.5t32.5 49.5t49 30.5t61.5 10.5v-33z" />
    <glyph glyph-name=".notdef" horiz-adv-x="563" 
d="M519 0h-480v708h480v-708zM279 377l189 301h-378zM69 656v-604l192 298zM297 350l192 -298v604zM90 30h378l-189 293z" />
    <glyph glyph-name=".null" horiz-adv-x="0" 
 />
    <glyph glyph-name="nonmarkingreturn" horiz-adv-x="333" 
 />
    <glyph glyph-name="space" unicode=" " horiz-adv-x="236" 
 />
    <glyph glyph-name="exclam" unicode="!" horiz-adv-x="197" 
d="M79 709h39v-578h-39v578zM61 34q0 16 11 27t27 11t27 -11t11 -27t-11 -27t-27 -11t-27 11t-11 27z" />
    <glyph glyph-name="quotedbl" unicode="&#x22;" horiz-adv-x="266" 
d="M112 708q-2 -27 -4 -50t-4.5 -45t-4.5 -45t-4 -50h-23v190h40zM187 518h-23v190h39z" />
    <glyph glyph-name="numbersign" unicode="#" horiz-adv-x="735" 
d="M653 266q-2 -11 -4.5 -17.5t-4.5 -16.5h-187q-15 -54 -33.5 -116t-33.5 -116h-38l68 232h-186q-15 -54 -33.5 -116t-33.5 -116h-38l68 232h-158l7 34h162l53 181h-182l8 35h185l66 226h39l-67 -226h185l66 226h40l-68 -226h162l-10 -35h-164l-52 -181h184zM246 266h185
l53 181h-185z" />
    <glyph glyph-name="dollar" unicode="$" horiz-adv-x="576" 
d="M299 384q44 -8 86.5 -20.5t75.5 -36.5t52 -62t16 -95q-4 -40 -24 -72t-51.5 -55t-71.5 -36.5t-83 -16.5v-94h-29v94q-37 3 -71.5 11.5t-64.5 24t-53 37.5t-37 51l36 15q12 -22 31.5 -39.5t44.5 -30.5t54 -20.5t60 -10.5v325q-42 9 -82 21t-71 33t-49 53.5t-16 82.5
q1 40 19.5 71t48.5 53t69 35t81 16v96h29v-96q77 -2 132.5 -28.5t83.5 -82.5l-35 -14q-26 47 -70 65t-111 22v-296zM90 541q-2 -37 11.5 -62.5t38.5 -42.5t58.5 -28t71.5 -19v291q-35 -3 -66.5 -13.5t-56 -27.5t-40 -42t-17.5 -56zM299 28q36 3 69 13.5t59.5 28.5t43 43
t19.5 57q4 46 -9.5 76t-38 49.5t-59 30.5t-72.5 19l-12 2v-319z" />
    <glyph glyph-name="percent" unicode="%" horiz-adv-x="714" 
d="M88 -37l500 791l32 -21l-498 -790zM320 525q0 -84 -39 -132t-99 -48q-66 0 -102 46.5t-36 135.5q0 88 39 133.5t99 45.5q65 0 101.5 -47t36.5 -134zM282 525q0 75 -26.5 109.5t-74.5 34.5q-98 0 -98 -142q0 -77 24 -110.5t75 -33.5q50 0 75 34t25 108zM671 180
q0 -85 -38.5 -132t-98.5 -47q-67 0 -102.5 46t-35.5 135q0 91 38.5 135t99.5 44q64 0 100.5 -48t36.5 -133zM634 180q0 75 -26.5 110t-74.5 35q-98 0 -98 -143q0 -77 24 -110.5t76 -33.5q49 0 74 34t25 108z" />
    <glyph glyph-name="ampersand" unicode="&#x26;" horiz-adv-x="623" 
d="M515 289l30 -15l-64 -105l116 -133h-47l-88 99q-45 -60 -95 -94.5t-121 -34.5q-42 0 -79 13t-64 38t-43 59.5t-16 78.5q0 38 13.5 67.5t36 53.5t51.5 44t60 38q-16 19 -31.5 38t-28 39.5t-20 41.5t-7.5 43q0 35 13.5 62.5t36.5 47t52.5 30t62.5 10.5q29 0 55.5 -10.5
t47 -29t32.5 -44t12 -55.5q0 -35 -13 -61t-34 -46.5t-48 -36.5t-55 -31l-16 -9l193 -196zM280 674q-25 0 -47 -8t-39 -23t-27 -35.5t-10 -45.5q0 -21 8 -41t20.5 -39t27 -36t27.5 -32q24 12 50.5 26t49 32t37.5 41t15 54q0 48 -31.5 77.5t-80.5 29.5zM230 373
q-26 -15 -52 -32t-47 -38t-34.5 -47t-13.5 -59q0 -72 45 -114t126 -42q30 0 56 10.5t49 27t42.5 38t34.5 43.5l-5 6z" />
    <glyph glyph-name="quotesingle" unicode="'" horiz-adv-x="177" 
d="M101 517h-29v191h39z" />
    <glyph glyph-name="parenleft" unicode="(" horiz-adv-x="252" 
d="M216 750q-60 -87 -91 -193t-31 -215.5t31.5 -216t95.5 -195.5q-8 -6 -15.5 -10t-15.5 -9q-68 96 -102 207t-34 225t33.5 224.5t98.5 204.5z" />
    <glyph glyph-name="parenright" unicode=")" horiz-adv-x="253" 
d="M35 -99q64 96 94 204t28.5 218t-33.5 217t-91 200q8 6 15.5 10t15.5 9q65 -94 99 -207t35.5 -230t-31 -231.5t-100.5 -210.5z" />
    <glyph glyph-name="asterisk" unicode="*" horiz-adv-x="442" 
d="M237 556q35 11 73.5 23t73.5 24l9 -29l-149 -46l97 -127q-7 -5 -12.5 -9.5t-10.5 -9.5l-96 129q-20 -29 -45.5 -63.5t-46.5 -64.5q-7 5 -12.5 9.5t-10.5 8.5l96 129l-153 47q4 15 9 28l151 -49l-2 153h31z" />
    <glyph glyph-name="plus" unicode="+" horiz-adv-x="591" 
d="M281 585h37v-225h222v-38h-222v-227h-37v227h-231v38h231v225z" />
    <glyph glyph-name="comma" unicode="," horiz-adv-x="208" 
d="M133 56q-9 -27 -18 -49t-18 -43t-18 -43t-18 -49h-36l60 184h48z" />
    <glyph glyph-name="hyphen" unicode="-" horiz-adv-x="423" 
d="M353 281h-283v38h283v-38z" />
    <glyph glyph-name="period" unicode="." horiz-adv-x="212" 
d="M68 35q0 16 11 27t27 11t27 -11t11 -27t-11 -27t-27 -11t-27 11t-11 27z" />
    <glyph glyph-name="slash" unicode="/" horiz-adv-x="382" 
d="M356 721q-75 -189 -147.5 -372.5t-147.5 -372.5q-11 4 -18.5 6t-16.5 5l297 745z" />
    <glyph glyph-name="zero" unicode="0" horiz-adv-x="627" 
d="M314 -10q-44 0 -87.5 12t-79 36t-57.5 61t-22 87v336q0 51 22 88t57.5 61t79 35.5t87.5 11.5q43 0 86.5 -11.5t79 -35.5t57.5 -61t22 -88v-336q0 -50 -22 -87t-57.5 -61t-79 -36t-86.5 -12zM107 186q0 -44 19 -73.5t49 -48.5t66.5 -27t72.5 -8q35 0 71.5 8t66.5 27
t49 48.5t19 73.5v336q0 44 -19 74t-49 48.5t-66.5 26.5t-71.5 8q-36 0 -72.5 -8t-66.5 -26.5t-49 -48.5t-19 -74v-336z" />
    <glyph glyph-name="one" unicode="1" horiz-adv-x="297" 
d="M212 0h-38v664l-131 -138l-27 23l150 159h46v-708z" />
    <glyph glyph-name="two" unicode="2" horiz-adv-x="556" 
d="M276 680q-65 2 -113 -24.5t-74 -78.5l-34 16q32 70 86.5 97t135.5 28q49 0 89.5 -14t70 -39t46 -60t16.5 -78q0 -42 -22.5 -86t-64.5 -86l-310 -316h400v-39h-447l-14 32l344 349q36 37 56 74.5t20 72.5q0 31 -13 58t-37 47.5t-58.5 32.5t-76.5 14z" />
    <glyph glyph-name="three" unicode="3" horiz-adv-x="577" 
d="M76 124q13 -24 34 -42t47.5 -29.5t56.5 -17.5t62 -6q39 0 76 10t66.5 30t47 50.5t17.5 71.5q0 89 -49.5 133.5t-136.5 43.5h-49v34h49q67 0 110.5 33.5t43.5 104.5q0 37 -15.5 63.5t-41 44t-57.5 26t-65 8.5q-53 0 -99 -20t-72 -60l-31 18q13 25 35 43.5t49 30.5t57.5 18
t62.5 6q40 0 78.5 -10.5t68.5 -32.5t48.5 -55.5t18.5 -79.5q0 -21 -4 -43t-14 -42.5t-27.5 -38t-43.5 -29.5q36 -13 60 -34t38 -47t19.5 -55.5t5.5 -60.5q-1 -50 -22.5 -87.5t-56 -62.5t-78.5 -37.5t-90 -12.5q-75 0 -137.5 28t-97.5 89z" />
    <glyph glyph-name="four" unicode="4" horiz-adv-x="570" 
d="M524 229v-34h-59v-195h-39v195h-381l-21 34l390 479h51v-479h59zM68 229h359l1 439z" />
    <glyph glyph-name="five" unicode="5" horiz-adv-x="579" 
d="M91 121q26 -45 78.5 -68t112.5 -23q39 0 76.5 11.5t67.5 34.5t48 56t18 77v38q0 45 -17 79.5t-45 57.5t-64.5 34.5t-76.5 11.5q-56 0 -100.5 -10t-93.5 -34l-19 -2v324h418v-39h-379v-235q91 37 174 36q44 0 87 -14t77.5 -42t55.5 -69.5t22 -96.5v-39q-1 -53 -22.5 -94
t-56.5 -68.5t-79.5 -42t-90.5 -14.5q-72 0 -132 26t-95 88z" />
    <glyph glyph-name="six" unicode="6" horiz-adv-x="622" 
d="M514 590q-13 22 -33.5 39t-46 28t-54 17t-58.5 6q-41 0 -79.5 -10t-68.5 -29.5t-48 -49.5t-18 -70v-186q21 31 47 50t53.5 29.5t56.5 14t57 3.5q47 0 92 -12.5t79.5 -37t55.5 -61t21 -85.5v-50q0 -49 -21 -85.5t-55.5 -61t-79.5 -37t-92 -12.5q-48 0 -93.5 12t-81 36.5
t-57 61.5t-21.5 86v336q0 49 21.5 86t57 61.5t81 36.5t93.5 12q72 0 134 -27t93 -83zM531 235q0 40 -17.5 69.5t-47 49.5t-67 30t-77.5 10q-41 0 -79.5 -10t-68.5 -29.5t-48 -49.5t-18 -70v-48q0 -40 18 -70t48 -49.5t68.5 -29.5t79.5 -10q40 0 77.5 10t67 30t47 49.5
t17.5 69.5v48z" />
    <glyph glyph-name="seven" unicode="7" horiz-adv-x="500" 
d="M36 708h430l16 -33l-375 -675h-44l372 671h-399v37z" />
    <glyph glyph-name="eight" unicode="8" horiz-adv-x="618" 
d="M299 -10q-46 0 -90 13.5t-78 39.5t-55 65t-22 89q0 70 34.5 117t101.5 67q-27 9 -46.5 25t-32 37t-18.5 45t-6 49q0 45 18.5 78.5t48 56t67.5 34t78 11.5h19q40 0 78 -11.5t68 -34t48 -56t18 -78.5q0 -21 -5 -44t-16.5 -43.5t-30.5 -37.5t-46 -27q66 -23 99 -71t33 -117
q-1 -50 -22.5 -89t-55.5 -65t-78 -39.5t-90 -13.5h-19zM299 681q-33 0 -64.5 -8.5t-56 -26.5t-39.5 -45t-15 -64q0 -42 15 -68.5t40 -42t56.5 -21t63.5 -5.5h19q32 0 63.5 5.5t56 21t40 42t15.5 68.5q0 37 -15 64t-39.5 45t-56 26.5t-64.5 8.5h-19zM318 27q36 0 72.5 10.5
t66.5 31.5t49 53t19 76q0 51 -17 83.5t-46 50.5t-66.5 25t-77.5 7h-19q-41 0 -78 -7t-66 -25t-46 -50.5t-17 -83.5q0 -44 19 -76t49 -53t66.5 -31.5t72.5 -10.5h19z" />
    <glyph glyph-name="nine" unicode="9" horiz-adv-x="621" 
d="M109 118q26 -44 79 -67t112 -23q41 0 79.5 10t68.5 29.5t48 49.5t18 70v174q-22 -29 -48 -47t-53.5 -27.5t-56 -12.5t-56.5 -3q-47 0 -92 12.5t-79.5 37t-55.5 61t-21 85.5v54q0 49 21 85.5t55.5 61t79.5 37t92 12.5q48 0 93 -12t80.5 -36.5t57 -61.5t22.5 -86v-335
q0 -49 -21.5 -86t-57 -61.5t-81 -36.5t-93.5 -12q-72 0 -134 27t-93 83zM91 468q0 -40 17.5 -69.5t47 -49.5t67 -30t77.5 -10q41 0 79.5 10t68.5 29.5t48 49.5t18 70v52q0 40 -18 70t-48 49.5t-68.5 29.5t-79.5 10q-40 0 -77.5 -10t-67 -30t-47 -49.5t-17.5 -69.5v-52z" />
    <glyph glyph-name="colon" unicode=":" horiz-adv-x="216" 
d="M70 435q0 16 11 27t27 11t27 -11t11 -27t-11 -27t-27 -11t-27 11t-11 27zM70 57q0 16 11 27t27 11t27 -11t11 -27t-11 -27t-27 -11t-27 11t-11 27z" />
    <glyph glyph-name="semicolon" unicode=";" horiz-adv-x="263" 
d="M94 420q0 16 11 27t27 11t27 -11t11 -27t-11 -27t-27 -11t-27 11t-11 27zM104 -106h-39l50 166h57z" />
    <glyph glyph-name="less" unicode="&#x3c;" horiz-adv-x="439" 
d="M76 303q71 -41 149 -85t149 -86v-42l-332 195v36l332 198v-43z" />
    <glyph glyph-name="equal" unicode="=" horiz-adv-x="533" 
d="M460 355h-387v34h387v-34zM460 217h-387v35h387v-35z" />
    <glyph glyph-name="greater" unicode="&#x3e;" horiz-adv-x="439" 
d="M397 285l-332 -195v40l298 173l-298 173v43l332 -198v-36z" />
    <glyph glyph-name="question" unicode="?" horiz-adv-x="456" 
d="M29 634q33 38 78 57t97 19q41 0 80 -12.5t69 -37t48 -61t18 -84.5q0 -47 -17.5 -83t-46 -62t-65 -42t-76.5 -23l-8 -192h-29l-6 224q41 1 79.5 14t68 36t47 55.5t16.5 73.5q-1 39 -16.5 68.5t-40.5 49t-57 29.5t-66 10q-39 0 -81 -18.5t-70 -44.5zM193 70q15 0 25.5 -11
t10.5 -27t-10.5 -26.5t-25.5 -10.5q-16 0 -27 10.5t-11 26.5t11 27t27 11z" />
    <glyph glyph-name="at" unicode="@" horiz-adv-x="772" 
d="M507 210q-5 -16 -8.5 -30.5t-3.5 -19.5q0 -11 6.5 -23.5t28.5 -12.5q27 0 57 22.5t54.5 58t41 79.5t16.5 87q0 57 -24 104t-64 80t-92.5 51.5t-109.5 18.5q-72 0 -131 -26.5t-101.5 -71t-66 -103.5t-23.5 -123q0 -77 35 -144.5t93 -113t134 -62t158 8.5q8 -17 14 -27
q-89 -30 -173.5 -14.5t-149.5 64.5t-104.5 124t-39.5 164q0 74 27.5 138.5t75 112.5t112 75.5t138.5 27.5q69 0 128.5 -21.5t103 -60t68.5 -90.5t25 -112q0 -59 -21.5 -111t-54 -90t-71 -59.5t-72.5 -19.5q-28 2 -38.5 20.5t-10.5 57.5q-29 -38 -67.5 -58t-73.5 -20
q-30 0 -53 10.5t-38.5 29t-23 43t-7.5 51.5q0 49 15.5 98.5t44 89t69.5 64t92 24.5q15 0 32.5 -5.5t33.5 -17.5t28.5 -32t16.5 -50q3 7 6.5 18t8 23l9 24l7.5 20h34zM235 227q0 -45 25 -74.5t68 -29.5q37 0 69.5 24t57 59.5t39 76t14.5 74.5q0 52 -21.5 82t-68.5 30
q-46 1 -80 -23t-57 -60t-34.5 -79t-11.5 -80z" />
    <glyph glyph-name="A" unicode="A" horiz-adv-x="604" 
d="M590 0h-42l-89 246h-317l-86 -246h-42l259 708h57zM156 285h290l-145 394z" />
    <glyph glyph-name="B" unicode="B" horiz-adv-x="631" 
d="M579 192q-1 -53 -19 -90t-48 -60t-71 -33t-89 -10h-265v709h266q39 0 74 -11.5t61.5 -33.5t41.5 -55t15 -75q0 -27 -3.5 -48.5t-14 -40.5t-30.5 -35.5t-53 -32.5q46 -14 73 -33t41 -42.5t17.5 -51t3.5 -57.5zM353 392q33 0 61.5 8t49.5 25.5t32.5 44t11.5 62.5
q0 35 -12 61t-33 43.5t-49.5 26.5t-60.5 9h-227v-280h227zM353 38q41 -1 75.5 6.5t59 25.5t38.5 48t14 75q0 89 -50.5 127t-136.5 37h-227v-319h227z" />
    <glyph glyph-name="C" unicode="C" horiz-adv-x="591" 
d="M72 513q0 51 22.5 89t58.5 64t82.5 39t94.5 13q35 0 69.5 -6.5t65 -20.5t55 -35t39.5 -50l-35 -18q-14 22 -35 39.5t-47 28.5t-55.5 17t-59.5 6q-40 0 -79 -10.5t-69.5 -31t-49 -51.5t-18.5 -73v-318q0 -42 18.5 -73t49 -51.5t69.5 -31t79 -10.5q30 0 59 6t55.5 17t48 28
t35.5 40l34 -17q-15 -29 -40 -50t-56 -35t-65.5 -21t-70.5 -7q-47 0 -93 13t-82 38.5t-58 64t-22 89.5v318z" />
    <glyph glyph-name="D" unicode="D" horiz-adv-x="643" 
d="M333 708q48 0 90.5 -11t75 -35t51 -61.5t18.5 -89.5v-315q0 -52 -18.5 -89t-51 -61t-75 -35t-90.5 -11h-246v708h246zM333 39q40 0 76 9t62.5 27.5t42 48.5t15.5 72v315q0 42 -15.5 72t-42 49t-62.5 28t-76 9h-207v-630h207z" />
    <glyph glyph-name="E" unicode="E" horiz-adv-x="565" 
d="M126 374h359v-40h-359v-295h389v-39h-428v708h428v-39h-389v-295z" />
    <glyph glyph-name="F" unicode="F" horiz-adv-x="545" 
d="M126 669v-309h345v-39h-345v-320h-39v707h422v-39h-383z" />
    <glyph glyph-name="G" unicode="G" horiz-adv-x="634" 
d="M70 513q0 51 22 89t58 64t81.5 39t93.5 13q35 0 69.5 -7t64.5 -21t54.5 -35t39.5 -50l-35 -18q-13 24 -34 41.5t-46.5 28.5t-55 16.5t-59.5 5.5q-40 0 -78.5 -10.5t-68.5 -31t-48.5 -51.5t-18.5 -73v-315q0 -42 18.5 -73.5t49 -52.5t69 -31.5t79.5 -10.5q40 0 79 10.5
t70 31.5t49.5 52.5t18.5 73.5v108h-217v39h256v-147q0 -52 -22 -91t-58 -65t-82 -39t-94 -13t-94 13t-81.5 39t-57.5 65t-22 91v315z" />
    <glyph glyph-name="H" unicode="H" horiz-adv-x="685" 
d="M126 0h-39v708h39v-335h433v335h39v-708h-39v334h-433v-334z" />
    <glyph glyph-name="I" unicode="I" horiz-adv-x="213" 
d="M126 0h-39v708h39v-708z" />
    <glyph glyph-name="J" unicode="J" horiz-adv-x="584" 
d="M226 708h275v-514q0 -51 -21 -89t-55.5 -63.5t-78.5 -38.5t-90 -13q-39 0 -77 9.5t-69.5 29t-54 49t-32.5 68.5l37 8q8 -32 28 -56t47 -40t59 -24t65 -8q38 0 74.5 10.5t65 31.5t46 52.5t17.5 73.5v475h-236v39z" />
    <glyph glyph-name="K" unicode="K" horiz-adv-x="600" 
d="M126 295l410 413h48l-331 -341l330 -367h-49l-309 339l-99 -99v-240h-39v708h39v-413z" />
    <glyph glyph-name="L" unicode="L" horiz-adv-x="500" 
d="M87 0v708h39v-669h354v-39h-393z" />
    <glyph glyph-name="M" unicode="M" horiz-adv-x="799" 
d="M126 679v-679h-39v708h68l245 -556l246 556h66v-708h-39v678l-252 -571h-42z" />
    <glyph glyph-name="N" unicode="N" horiz-adv-x="672" 
d="M546 49v659h39v-708h-57l-402 648v-648h-39v708h49z" />
    <glyph glyph-name="O" unicode="O" horiz-adv-x="679" 
d="M69 511q0 52 23 90.5t61 64.5t86.5 39t99.5 13t99.5 -13t86.5 -39t61.5 -64.5t23.5 -90.5v-313q0 -52 -23.5 -91t-61.5 -65t-86.5 -39t-99.5 -13t-99.5 13t-86.5 39t-61 65t-23 91v313zM108 198q0 -42 20 -74t52 -53t73.5 -31.5t85.5 -10.5q43 0 85 10.5t74.5 31.5
t52.5 53t20 74v313q0 45 -20 77t-53 52.5t-75 30t-85 9.5t-84.5 -10t-73.5 -31t-52 -52.5t-20 -75.5v-313z" />
    <glyph glyph-name="P" unicode="P" horiz-adv-x="607" 
d="M87 1v707h257q74 0 124 -32t75 -80t25.5 -104t-24.5 -104t-74.5 -80.5t-124.5 -32.5h-219v-274h-39zM344 314q63 0 104 26.5t60.5 66t18.5 85.5t-21.5 85.5t-61.5 65.5t-100 26h-218v-355h218z" />
    <glyph glyph-name="Q" unicode="Q" horiz-adv-x="678" 
d="M571 -15l-46 57q-42 -26 -90 -39t-96 -13q-51 0 -99.5 13t-86.5 39t-61 65t-23 91v313q0 52 23 90.5t61 64.5t86.5 39t99.5 13t99.5 -13t86.5 -39t61 -64.5t23 -90.5v-313q0 -38 -14.5 -72t-40.5 -61l49 -60zM530 97q19 23 29.5 48t10.5 53v313q0 45 -20 77t-52.5 52.5
t-74.5 30t-85 9.5t-84.5 -10t-73.5 -31t-52 -52.5t-20 -75.5v-313q0 -42 20 -74t52 -53t73.5 -31.5t85.5 -10.5q42 0 84.5 10.5t78.5 33.5l-60 79l30 21z" />
    <glyph glyph-name="R" unicode="R" horiz-adv-x="613" 
d="M514 0l-238 310h-150v-310h-39v708h257q48 0 89 -11.5t71 -35.5t48 -62t19 -90q0 -57 -16.5 -95t-46.5 -61.5t-71.5 -33t-91.5 -9.5h-23l238 -310h-46zM345 344q93 0 140 37t47 127q0 45 -14 76t-38.5 50t-59 27.5t-75.5 7.5h-219v-325h219z" />
    <glyph glyph-name="S" unicode="S" horiz-adv-x="584" 
d="M94 545q-3 -38 12 -65t43 -46.5t65 -32.5t79 -21q45 -9 89 -22t78.5 -36.5t55 -59.5t17.5 -90q-2 -45 -23.5 -78.5t-55.5 -56.5t-76.5 -34.5t-87.5 -11.5q-35 0 -71.5 7.5t-69 23t-59 38.5t-42.5 54l35 16q13 -25 36 -44t50.5 -32t59 -19.5t63.5 -6.5q36 0 70 8
t61.5 25.5t46.5 45t24 66.5q3 46 -14.5 75.5t-48 48.5t-70 29.5t-79.5 19.5q-41 9 -82 22.5t-74 36.5t-52.5 57t-17.5 84q1 43 21.5 75.5t53.5 54t74.5 32t85.5 10.5q36 0 72 -7.5t67.5 -22t57 -37t40.5 -52.5l-35 -15q-13 24 -35 42.5t-49 31t-57.5 19t-60.5 6.5
q-36 0 -70.5 -7t-61.5 -23.5t-44.5 -43t-20.5 -64.5z" />
    <glyph glyph-name="T" unicode="T" horiz-adv-x="551" 
d="M531 669h-236v-669h-39v669h-236v39h511v-39z" />
    <glyph glyph-name="U" unicode="U" horiz-adv-x="677" 
d="M122 201q0 -43 18.5 -75t49 -53.5t69 -32t79.5 -10.5q40 0 79 10.5t70 32t49.5 53.5t18.5 75v507h39v-507q0 -53 -22 -92.5t-58 -65.5t-82 -39.5t-94 -13.5t-94 13.5t-81.5 39.5t-57.5 65.5t-22 92.5v507h39v-507z" />
    <glyph glyph-name="V" unicode="V" horiz-adv-x="605" 
d="M13 708h43l247 -687l245 686h42l-257 -717h-59z" />
    <glyph glyph-name="W" unicode="W" horiz-adv-x="932" 
d="M911 708l-208 -709h-57l-180 557l-181 -557h-57l-206 709h40l193 -683h4l186 580h42l186 -580h4l194 683h40z" />
    <glyph glyph-name="X" unicode="X" horiz-adv-x="556" 
d="M536 0h-47l-211 325l-212 -325h-47l236 353l-234 354h44l213 -320l211 320h46l-234 -354z" />
    <glyph glyph-name="Y" unicode="Y" horiz-adv-x="540" 
d="M289 0h-39v280l-238 427h45l213 -391l212 391h46l-239 -427v-280z" />
    <glyph glyph-name="Z" unicode="Z" horiz-adv-x="559" 
d="M47 708h462l21 -22l-450 -650h436v-36h-473l-17 23l449 649h-428v36z" />
    <glyph glyph-name="bracketleft" unicode="[" horiz-adv-x="243" 
d="M112 -91h92v-32h-130v878h130v-32h-92v-814z" />
    <glyph glyph-name="backslash" unicode="\" horiz-adv-x="395" 
d="M24 746l34 11l313 -783l-35 -12z" />
    <glyph glyph-name="bracketright" unicode="]" horiz-adv-x="244" 
d="M130 720h-90v35h130v-886h-130v37h90v814z" />
    <glyph glyph-name="asciicircum" unicode="^" horiz-adv-x="522" 
d="M276 708q49 -66 96 -131.5t96 -131.5h-45l-165 234q-38 -56 -79.5 -116.5t-79.5 -117.5h-45l186 263h36z" />
    <glyph glyph-name="underscore" unicode="_" horiz-adv-x="606" 
d="M543 -63h-480v36h480v-36z" />
    <glyph glyph-name="grave" unicode="`" horiz-adv-x="210" 
d="M114 765l-78 111h49l66 -111h-37z" />
    <glyph glyph-name="a" unicode="a" horiz-adv-x="487" 
d="M379 376q0 31 -13 53.5t-34.5 37t-49 21t-56.5 6.5q-74 0 -129 -51l-22 24q32 33 72 47t85 14q35 0 68 -9.5t58.5 -28.5t41 -47.5t15.5 -66.5v-357q-48 -16 -99 -23t-103 -6q-36 0 -67 10.5t-54 31t-36.5 50t-13.5 67.5q0 43 16 73t42.5 49t61 27.5t71.5 8.5
q34 0 72.5 -6.5t73.5 -22.5v98zM379 246q-30 12 -69.5 21t-77.5 9q-30 0 -58 -6t-49.5 -21t-34.5 -39.5t-13 -60.5q0 -33 10.5 -57t29.5 -39.5t44 -23t55 -7.5q42 -1 79.5 3.5t83.5 16.5v204z" />
    <glyph glyph-name="b" unicode="b" horiz-adv-x="511" 
d="M111 494q78 35 151 35q35 0 68.5 -10t60 -30t42.5 -49.5t16 -68.5v-217q0 -39 -16 -69.5t-41.5 -51t-59 -31.5t-67.5 -12q-98 0 -190 29v689h36v-214zM111 47q40 -14 78.5 -18t75.5 -4q28 0 54.5 8.5t47 24.5t33 40t12.5 54v219q0 31 -12.5 54t-33.5 38t-48 22.5t-55 7.5
q-38 0 -75 -10.5t-77 -29.5v-406z" />
    <glyph glyph-name="c" unicode="c" horiz-adv-x="460" 
d="M382 433q-20 30 -56.5 44.5t-77.5 14.5q-28 0 -55 -7t-48 -22t-34 -37.5t-13 -53.5v-224q0 -32 13 -55t34 -38t48 -22t55 -7q45 0 85 19t57 57l33 -16q-22 -47 -71 -71.5t-104 -24.5q-35 0 -68 10t-59.5 29.5t-42.5 49t-16 69.5v222q0 40 16 69.5t42.5 49t59.5 29.5
t68 10q49 0 93.5 -18.5t69.5 -57.5z" />
    <glyph glyph-name="d" unicode="d" horiz-adv-x="512" 
d="M436 21q-45 -14 -93 -22.5t-97 -8.5q-35 1 -68 11t-58.5 29.5t-41.5 49t-16 68.5v222q0 39 16 68.5t42 49.5t60 30t69 10q36 0 74.5 -8t76.5 -25v213h36v-687zM400 459q-38 17 -76.5 25t-75.5 8q-29 0 -55.5 -7.5t-47.5 -22.5t-33.5 -37.5t-12.5 -53.5v-223
q0 -31 12.5 -54t33 -38.5t47 -23t54.5 -7.5q37 0 75.5 5t78.5 19v410z" />
    <glyph glyph-name="e" unicode="e" 
d="M99 148q0 -32 12.5 -54.5t33.5 -37.5t48 -22t56 -7q42 0 79 15.5t57 49.5l33 -17q-12 -22 -30 -38t-40.5 -26.5t-47.5 -15.5t-51 -5q-35 0 -68.5 10t-60 29.5t-42.5 49t-16 69.5v222q0 40 16 69.5t42.5 49t60 29.5t68.5 10q34 0 67.5 -10t60 -29.5t42.5 -49t16 -69.5
v-136h-336v-86zM399 372q0 31 -13 53.5t-34 37.5t-48 22.5t-55 7.5q-29 0 -56 -7.5t-48 -22.5t-33.5 -37.5t-12.5 -53.5v-105h300v105z" />
    <glyph glyph-name="f" unicode="f" horiz-adv-x="251" 
d="M232 685q-58 0 -88.5 -34t-30.5 -91v-66h112v-33h-112v-461h-36v560q0 38 12 67.5t32.5 49.5t49 30.5t61.5 10.5v-33z" />
    <glyph glyph-name="g" unicode="g" horiz-adv-x="506" 
d="M113 -119q26 -21 61.5 -32t72.5 -11q29 0 56 6.5t47.5 21t33 37t12.5 53.5v71q-40 -20 -77 -28.5t-72 -8.5t-68 10t-59 29.5t-42 49t-16 68.5v225q0 39 15.5 68t41 48.5t58 29.5t66.5 10q52 0 94.5 -10.5t93.5 -27.5v-533q0 -40 -15.5 -69t-41.5 -47.5t-59 -27.5t-67 -9
q-45 0 -86.5 14t-70.5 41zM396 464q-26 11 -68 20t-85 9q-28 0 -54 -7.5t-46.5 -22.5t-32.5 -37.5t-12 -52.5v-226q0 -31 12.5 -53.5t33 -37.5t47 -22.5t54.5 -8.5q21 0 39 2.5t35.5 7t36 11.5t40.5 16v402z" />
    <glyph glyph-name="h" unicode="h" horiz-adv-x="523" 
d="M113 491q79 37 150 37q35 1 68.5 -9t59.5 -30t42 -49.5t16 -68.5v-371h-36v371q0 31 -13 53.5t-34 37.5t-47.5 22.5t-54.5 7.5q-36 0 -75 -8t-76 -23v-461h-36v708h36v-217z" />
    <glyph glyph-name="i" unicode="i" horiz-adv-x="190" 
d="M61 638q0 13 9.5 22t22.5 9t22.5 -9t9.5 -22q0 -14 -9.5 -23t-22.5 -9t-22.5 9t-9.5 23zM113 518v-518h-36v518h36z" />
    <glyph glyph-name="j" unicode="j" horiz-adv-x="190" 
d="M63 638q0 14 9 23.5t23 9.5t23 -9.5t9 -23.5q0 -13 -9 -22.5t-23 -9.5t-23 9.5t-9 22.5zM-36 -146q113 3 113 124v540h36v-540q0 -77 -40 -117t-109 -43v36z" />
    <glyph glyph-name="k" unicode="k" horiz-adv-x="472" 
d="M113 221l288 297h44l-224 -233l224 -285h-43l-206 259l-83 -83v-176h-36v708h36v-487z" />
    <glyph glyph-name="l" unicode="l" horiz-adv-x="222" 
d="M212 -10q-67 2 -102.5 40.5t-35.5 113.5v564h36v-564q0 -57 24 -87.5t78 -30.5v-36z" />
    <glyph glyph-name="m" unicode="m" horiz-adv-x="810" 
d="M76 486q32 23 75 32.5t87 9.5q47 0 89 -14t77 -58q17 23 35 37t36.5 21.5t38 10t39.5 3.5q37 1 70.5 -8.5t58.5 -30t40 -52t15 -72.5v-365h-37v363q3 42 -17 70t-51 42.5t-68 15.5t-68.5 -10.5t-53 -35.5t-21.5 -60v-385h-35v385q0 42 -31.5 66.5t-75 33.5t-90 2.5
t-76.5 -25.5v-462h-37v486z" />
    <glyph glyph-name="n" unicode="n" horiz-adv-x="520" 
d="M75 490q45 16 92.5 27t96.5 11q34 -1 67 -11t58.5 -29.5t41 -49t15.5 -68.5v-370h-36v370q0 31 -13 54t-33.5 38t-46.5 22t-53 7q-43 0 -85 -9.5t-68 -20.5v-461h-36v490z" />
    <glyph glyph-name="o" unicode="o" horiz-adv-x="497" 
d="M62 369q0 40 16 69.5t42.5 49.5t60 30t68.5 10t68.5 -10t59.5 -30t42 -49.5t16 -69.5v-220q0 -40 -16 -69.5t-42 -49.5t-59.5 -30t-68.5 -10t-68.5 10t-60 30t-42.5 49.5t-16 69.5v220zM249 491q-27 0 -54 -7t-48.5 -22t-35 -38t-13.5 -55v-220q0 -32 13.5 -55.5
t35 -38.5t48.5 -22t54 -7t54 7t48 22t34.5 38.5t13.5 55.5v220q0 32 -13.5 55t-34.5 38t-48 22t-54 7z" />
    <glyph glyph-name="p" unicode="p" horiz-adv-x="511" 
d="M75 498q25 8 48 14t45.5 9.5t46 5t50.5 1.5q34 0 67.5 -9.5t59 -28.5t41.5 -48.5t16 -71.5v-220q0 -39 -16 -69t-42.5 -50.5t-60 -30.5t-68.5 -10q-36 1 -74.5 7t-76.5 24v-202h-36v679zM111 59q36 -15 75 -23.5t77 -8.5q28 0 55 7.5t48 22.5t33.5 38t12.5 53v222
q0 32 -12.5 55t-33 37.5t-47 21.5t-54.5 7q-37 0 -75 -3.5t-79 -17.5v-411z" />
    <glyph glyph-name="q" unicode="q" horiz-adv-x="512" 
d="M400 26q-38 -18 -76.5 -26.5t-74.5 -9.5q-35 0 -69 10.5t-60 31t-42 51t-16 69.5v218q0 39 16 68.5t41.5 49.5t58.5 30t68 10q30 0 53 -1.5t44 -5t42.5 -10t50.5 -15.5v-677h-36v207zM400 471q-17 6 -37.5 10t-41.5 6t-40.5 3t-34.5 1q-28 0 -54.5 -7.5t-47.5 -22.5
t-33 -37.5t-12 -51.5v-220q0 -31 12.5 -54t33.5 -38t47.5 -23t55.5 -8q37 0 75.5 9t76.5 30v403z" />
    <glyph glyph-name="r" unicode="r" horiz-adv-x="294" 
d="M211 526q18 3 33.5 3t33.5 -2v-35q-17 2 -32 1.5t-32 -3.5q-42 -8 -73 -38t-31 -81v-371h-36v371q0 32 10.5 58.5t29.5 46t43.5 32.5t53.5 18z" />
    <glyph glyph-name="s" unicode="s" horiz-adv-x="435" 
d="M73 104q32 -43 72 -62.5t86 -17.5q21 0 43.5 7t41.5 20.5t30.5 34.5t11.5 49q0 29 -12 48.5t-31 32.5t-41.5 20.5t-44.5 11.5q-30 5 -60.5 14t-55 25t-40 40.5t-15.5 61.5q0 39 17 67t44.5 45t62 23.5t68.5 3t65 -17t52 -36.5l-22 -26q-26 28 -68 40t-82 5.5t-70 -32.5
t-32 -72q0 -31 14.5 -50t36 -30t46 -16.5t45.5 -9.5q29 -5 57 -15.5t50 -28t36 -43t14 -61.5q0 -35 -13.5 -61.5t-36 -45.5t-51.5 -28.5t-60 -9.5q-57 0 -106 23.5t-81 71.5z" />
    <glyph glyph-name="t" unicode="t" horiz-adv-x="260" 
d="M247 -9q-35 -2 -66.5 6t-55 27.5t-37.5 50.5t-14 74v485h33l3 -116h112v-34h-112v-335q0 -35 12.5 -59.5t32 -39.5t44 -21t48.5 -4v-34z" />
    <glyph glyph-name="u" unicode="u" horiz-adv-x="519" 
d="M444 28q-45 -16 -92.5 -27t-96.5 -11q-34 1 -67 11t-58.5 29.5t-41 49t-15.5 68.5v370h36v-370q0 -31 13 -54t33.5 -38t46.5 -22t53 -7q43 0 85 9.5t68 20.5v461h36v-490z" />
    <glyph glyph-name="v" unicode="v" horiz-adv-x="467" 
d="M445 518l-185 -518h-53l-185 518h39l173 -490l173 490h38z" />
    <glyph glyph-name="w" unicode="w" horiz-adv-x="716" 
d="M182 0l-157 518h37l148 -488l120 488h55l122 -486l147 486h37l-157 -518h-56l-120 494l-122 -494h-54z" />
    <glyph glyph-name="x" unicode="x" horiz-adv-x="445" 
d="M247 259l168 -259h-44l-148 234l-149 -234h-44l169 259l-169 259h45l148 -234l148 234h44z" />
    <glyph glyph-name="y" unicode="y" horiz-adv-x="520" 
d="M443 -43q0 -40 -15.5 -69t-41.5 -47.5t-59 -27.5t-67 -9q-45 0 -86.5 14t-70.5 41l22 22q26 -21 61.5 -32t72.5 -11q30 0 57 7t47.5 21t32.5 36.5t12 53.5v71q-40 -20 -77 -28.5t-72 -8.5t-68.5 10t-59.5 29.5t-42 49t-16 68.5v370h36v-370q0 -31 12.5 -54.5t33 -39
t47 -23.5t55.5 -8q24 0 42 2.5t34.5 7t34 12t40.5 17.5v456h35v-560z" />
    <glyph glyph-name="z" unicode="z" horiz-adv-x="449" 
d="M50 518h346l15 -24l-331 -459h326v-35h-356l-19 28l330 456h-311v34z" />
    <glyph glyph-name="braceleft" unicode="{" horiz-adv-x="270" 
d="M203 720q-19 0 -29.5 -5.5t-16 -16.5t-6.5 -27t-1 -37v-146q0 -43 -6 -74t-15.5 -51.5t-21 -32t-20.5 -15.5q6 -4 16 -13.5t20.5 -29t18 -52t7.5 -82.5v-147q0 -38 10.5 -58t48.5 -20h22v-35h-24q-52 0 -73 30t-21 81v146q0 29 -3.5 57t-11.5 50t-21.5 37t-33.5 18v30
q20 3 33.5 18t22 37.5t12 50.5t3.5 57v145q0 26 3 48t12.5 37.5t26.5 24.5t45 9h30v-34h-27z" />
    <glyph glyph-name="bar" unicode="|" horiz-adv-x="184" 
d="M74 -168v922h36v-922h-36z" />
    <glyph glyph-name="braceright" unicode="}" horiz-adv-x="270" 
d="M70 754q28 0 45 -9t26.5 -24.5t12.5 -37.5t3 -48v-145q0 -29 3.5 -57t11.5 -50.5t22 -37.5t34 -18v-30q-20 -3 -33.5 -18t-21.5 -37t-11.5 -50t-3.5 -57v-146q0 -51 -21 -81t-73 -30h-24v35h22q38 0 48.5 20t10.5 58v147q0 50 7.5 82.5t18 52t20.5 29t16 13.5
q-9 4 -20.5 15.5t-21 32t-15.5 51.5t-6 74v146q0 21 -1 37t-6.5 27t-16 16.5t-29.5 5.5h-27v34h30z" />
    <glyph glyph-name="asciitilde" unicode="~" horiz-adv-x="534" 
d="M461 332q-16 -31 -43.5 -54.5t-65.5 -23.5q-25 0 -48 10t-42 23q-20 13 -39 24t-41 11q-31 0 -51.5 -18.5t-38.5 -44.5q-7 5 -10.5 9.5t-8.5 9.5q8 13 18.5 27t24.5 24.5t31 17.5t38 7q28 0 51.5 -12.5t43.5 -26.5q19 -12 36.5 -21t35.5 -9q31 0 52 19t38 45z" />
    <glyph glyph-name="uni00A0" unicode="&#xa0;" horiz-adv-x="236" 
 />
    <glyph glyph-name="exclamdown" unicode="&#xa1;" horiz-adv-x="192" 
d="M134 480q0 -16 -11 -27t-27 -11t-27 11t-11 27t11 27t27 11t27 -11t11 -27zM116 -212h-40v563h40v-563z" />
    <glyph glyph-name="cent" unicode="&#xa2;" horiz-adv-x="469" 
d="M382 434q-17 26 -49 40.5t-71 18.5v-467q45 4 80 22t49 54l32 -16q-19 -45 -63 -68t-98 -28v-85h-31v85q-33 4 -63.5 15.5t-53.5 31t-37 47.5t-14 64v223q0 36 14 64t37 47.5t53.5 31t63.5 14.5v86h31v-86q48 -3 87 -21.5t62 -53.5zM231 492q-27 -4 -51 -13t-42 -23.5
t-28.5 -35t-10.5 -47.5v-225q0 -27 10.5 -48t28.5 -36t42 -24t51 -13v465z" />
    <glyph glyph-name="sterling" unicode="&#xa3;" horiz-adv-x="504" 
d="M153 355h-104v34h104v135q0 32 9 66.5t31 62.5t59 46t92 18q35 0 63.5 -10.5t57.5 -34.5l-25 -25q-20 18 -44 27t-55 9q-41 0 -69.5 -14t-46.5 -36.5t-26.5 -50.5t-8.5 -55v-138h165v-34h-165v-322h245v-33h-386v33h104v322z" />
    <glyph glyph-name="currency" unicode="&#xa4;" horiz-adv-x="619" 
d="M129 195q-31 34 -45 74.5t-14 84.5q0 89 62 157q-13 12 -27 27.5t-28 28.5l21 22l53 -55q35 27 75.5 42t82.5 15t83 -15t76 -42q10 9 25.5 26.5t26.5 28.5l21 -22l-54 -56q31 -34 46 -73.5t15 -83.5q0 -89 -62 -157l58 -56l-23 -22l-54 55q-35 -27 -75.5 -41.5
t-82.5 -14.5t-84 13.5t-77 40.5q-10 -9 -24.5 -25.5t-25.5 -27.5l-21 22zM104 353q0 -43 16 -80t44 -64.5t65 -43.5t78 -16q42 0 79 16t64.5 43.5t44 64.5t16.5 80t-16.5 81t-44 65.5t-64.5 43.5t-79 16q-41 0 -78 -16t-65 -43.5t-44 -65.5t-16 -81z" />
    <glyph glyph-name="yen" unicode="&#xa5;" horiz-adv-x="571" 
d="M469 299l-7 -35h-162v-62h169l-6 -34h-163v-168h-36v168h-166l4 34h162v62h-164l6 35h141l-222 410h45l213 -402l216 402h47l-226 -410h149z" />
    <glyph glyph-name="brokenbar" unicode="&#xa6;" horiz-adv-x="196" 
d="M79 366v330h38v-330h-38zM79 -134v350h38v-350h-38z" />
    <glyph glyph-name="section" unicode="&#xa7;" horiz-adv-x="471" 
d="M84 -12q10 -30 34.5 -49.5t55.5 -28t64.5 -6.5t61.5 14.5t46 36t18 58.5q0 25 -12 44.5t-31.5 35t-44.5 28t-52 24.5q-29 13 -58 28t-52.5 34.5t-38.5 45t-15 60.5q0 47 32.5 80t79.5 53q-42 25 -65 53t-23 70q0 36 15.5 63.5t40 46t56 28t64.5 9.5q19 0 41 -4t42 -13.5
t37 -24.5t27 -37q-11 -5 -16.5 -9.5t-15.5 -9.5q-17 32 -49 47t-69 15q-24 0 -48.5 -7.5t-43.5 -21.5t-31 -34.5t-12 -47.5q0 -24 11.5 -42.5t31 -33.5t44 -27t50.5 -24q28 -13 56 -27.5t51 -34t37.5 -44.5t14.5 -58q0 -41 -27.5 -78.5t-65.5 -59.5q38 -23 58.5 -55.5
t20.5 -64.5q0 -47 -22 -80t-56.5 -51.5t-76 -23t-81 6t-72 35t-48.5 64.5zM289 159q15 8 31 20t29.5 26.5t22.5 32t9 35.5q0 20 -8.5 37.5t-21.5 32t-28 25.5t-28 18l-79 38q-19 -6 -39.5 -15.5t-37.5 -22.5t-28 -30.5t-11 -40.5q0 -44 22.5 -65.5t54.5 -37.5z" />
    <glyph glyph-name="dieresis" unicode="&#xa8;" horiz-adv-x="300" 
d="M66 821q0 13 9 21.5t21 8.5q13 0 21.5 -8.5t8.5 -21.5q0 -12 -8.5 -21t-21.5 -9q-12 0 -21 9t-9 21zM241 821q0 13 8.5 21.5t21.5 8.5q12 0 21 -8.5t9 -21.5q0 -12 -9 -21t-21 -9q-13 0 -21.5 9t-8.5 21z" />
    <glyph glyph-name="copyright" unicode="&#xa9;" horiz-adv-x="832" 
d="M54 354q0 75 28.5 140.5t78 115t115 78t140.5 28.5t140.5 -28.5t115 -78t78 -115t28.5 -140.5t-28.5 -140.5t-78 -115t-115 -78t-140.5 -28.5t-140.5 28.5t-115 78t-78 115t-28.5 140.5zM88 354q0 -68 25.5 -128t70 -104.5t104.5 -70t128 -25.5t128 25.5t104.5 70
t70 104.5t25.5 128t-25.5 128t-70 104.5t-104.5 70t-128 25.5t-128 -25.5t-104.5 -70t-70 -104.5t-25.5 -128zM550 493q-20 30 -56.5 44.5t-77.5 14.5q-28 0 -55 -7t-48 -22t-34 -37.5t-13 -53.5v-153q0 -32 13 -55t34 -38t48 -22t55 -7q45 0 85 19t57 57l33 -16
q-22 -47 -71 -71.5t-104 -24.5q-35 0 -68 10t-59.5 29.5t-42.5 49t-16 69.5v151q0 40 16 69.5t42.5 49t59.5 29.5t68 10q49 0 93.5 -18.5t69.5 -57.5z" />
    <glyph glyph-name="ordfeminine" unicode="&#xaa;" horiz-adv-x="377" 
d="M271 617q0 18 -7.5 30.5t-20 20.5t-29 12t-33.5 4q-22 0 -45.5 -8t-40.5 -25l-24 22q23 23 52.5 34t59.5 11q23 0 45 -6.5t39.5 -19t28 -32t10.5 -45.5v-231q-36 -11 -69 -15t-67 -3q-24 0 -45 9.5t-36.5 25t-24.5 37.5t-9 48q0 28 11.5 48t29.5 33t41 18.5t48 5.5
q19 0 41.5 -4.5t44.5 -13.5v44zM271 542q-20 7 -43 11.5t-45 4.5q-18 0 -34.5 -3t-29.5 -11t-21 -22t-8 -36q0 -38 23.5 -63.5t58.5 -26.5q23 0 47.5 2.5t51.5 7.5v136z" />
    <glyph glyph-name="guillemotleft" unicode="&#xab;" horiz-adv-x="384" 
d="M170 485q9 -5 16 -10t15 -10l-115 -170q27 -41 56.5 -85t57.5 -85q-11 -6 -16 -10t-14 -9l-128 189zM294 485q9 -5 16 -10t15 -10l-117 -170q27 -41 57.5 -85t58.5 -85q-11 -6 -16 -10t-14 -9l-128 189z" />
    <glyph glyph-name="logicalnot" unicode="&#xac;" horiz-adv-x="606" 
d="M72 389h457v-209h-35v174h-422v35z" />
    <glyph glyph-name="uni00AD" unicode="&#xad;" horiz-adv-x="335" 
d="M281 251h-227v37h227v-37z" />
    <glyph glyph-name="registered" unicode="&#xae;" horiz-adv-x="832" 
d="M54 354q0 75 28.5 140.5t78 115t115 78t140.5 28.5t140.5 -28.5t115 -78t78 -115t28.5 -140.5t-28.5 -140.5t-78 -115t-115 -78t-140.5 -28.5t-140.5 28.5t-115 78t-78 115t-28.5 140.5zM89 354q0 -68 25.5 -127.5t70 -104t104 -70t127.5 -25.5t127.5 25.5t104 70t70 104
t25.5 127.5t-25.5 127.5t-70 104t-104 70t-127.5 25.5t-127.5 -25.5t-104 -70t-70 -104t-25.5 -127.5zM289 562h143q68 0 103 -34t35 -83q0 -27 -9 -48.5t-24.5 -37t-36 -25t-43.5 -13.5l123 -170h-40l-125 170h-92v-170h-34v411zM402 353q24 0 48 3t42.5 13t30.5 28t12 48
q0 23 -9.5 39.5t-24.5 26.5t-34 14.5t-38 4.5h-106v-177h79z" />
    <glyph glyph-name="macron" unicode="&#xaf;" horiz-adv-x="374" 
d="M55 821h244v-33h-244v33z" />
    <glyph glyph-name="degree" unicode="&#xb0;" horiz-adv-x="355" 
d="M178 464q-26 0 -48.5 10t-39 27t-26.5 39.5t-10 48.5q0 25 10 47.5t26.5 39.5t39 26.5t48.5 9.5q25 0 48 -9.5t39.5 -26.5t26.5 -39.5t10 -47.5q0 -26 -10 -48.5t-26.5 -39.5t-39.5 -27t-48 -10zM178 494q19 0 36 7.5t29.5 20t19.5 29.5t7 37q0 19 -7 36.5t-19.5 30
t-29.5 20t-36 7.5t-36 -7.5t-29.5 -20t-19.5 -30t-7 -36.5q0 -20 7 -37t19.5 -29.5t29.5 -20t36 -7.5z" />
    <glyph glyph-name="plusminus" unicode="&#xb1;" horiz-adv-x="572" 
d="M265 605h35v-179h195v-35h-195v-182h-35v182h-188v35h188v179zM491 105h-410v34h410v-34z" />
    <glyph glyph-name="twosuperior" unicode="&#xb2;" horiz-adv-x="410" 
d="M339 305h-267l-9 24l199 193q19 19 33 48.5t6 57.5q-11 22 -29 35t-40.5 18t-46 2.5t-44.5 -10.5q-15 -7 -26.5 -15t-19.5 -22l-29 13q11 19 29.5 34t38.5 23h-1q26 9 56 11t58 -5.5t51 -24.5t35 -47q13 -38 -1.5 -76t-43.5 -64l-172 -164h223v-31z" />
    <glyph glyph-name="threesuperior" unicode="&#xb3;" horiz-adv-x="392" 
d="M271 529q28 -9 44.5 -33t20.5 -52t-5.5 -55.5t-32.5 -44.5q-23 -19 -53.5 -27.5t-60.5 -6.5h1q-19 1 -38.5 6t-37 14t-31.5 22.5t-22 31.5l26 13q14 -27 44.5 -40.5t59.5 -15.5q23 -2 47.5 5t44.5 23q27 21 27 59q0 47 -29 67t-70 18h-20v25h20q15 0 33.5 7t30.5 18
q21 20 19.5 48t-18.5 48q-14 16 -35 23.5t-43 7.5q-29 0 -56 -11t-41 -36l-24 13q9 16 22.5 27.5t29.5 19t33 11t31 4.5q28 2 56.5 -8t47.5 -30q14 -15 21 -34t7 -39t-8.5 -38.5t-25.5 -31.5z" />
    <glyph glyph-name="acute" unicode="&#xb4;" horiz-adv-x="220" 
d="M138 765h-39l67 111h49z" />
    <glyph glyph-name="mu" unicode="&#xb5;" horiz-adv-x="518" 
d="M409 103q-23 -51 -71 -78t-102 -27q-42 0 -73 14.5t-54 54.5v-285h-37v737h38v-329q0 -27 5 -55t19 -51t38.5 -37.5t63.5 -14.5q36 0 67 12t54 37t36 62.5t13 87.5v288h38l3 -519h-36z" />
    <glyph glyph-name="paragraph" unicode="&#xb6;" horiz-adv-x="559" 
d="M265 286q-57 0 -100.5 18t-73 47t-45 66.5t-15.5 76.5q0 40 14.5 78.5t43.5 68.5t73 48.5t103 18.5h217v-824h-33v797h-150v-797h-34v402z" />
    <glyph glyph-name="periodcentered" unicode="&#xb7;" horiz-adv-x="208" 
d="M70 318q0 14 10 24t24 10t24 -10t10 -24t-10 -24t-24 -10t-24 10t-10 24z" />
    <glyph glyph-name="cedilla" unicode="&#xb8;" horiz-adv-x="244" 
d="M143 -65q38 0 59.5 -21t15.5 -56q-7 -38 -34 -52.5t-59 -14.5q-28 0 -48 8t-37 19l6 28q19 -11 37 -18t38 -7t37.5 7.5t22.5 31.5q4 18 -3 28.5t-19 15.5t-26.5 4.5t-25.5 -3.5l-6 8l52 97h31z" />
    <glyph glyph-name="onesuperior" unicode="&#xb9;" horiz-adv-x="240" 
d="M36 604l93 105h36v-404h-34v359l-69 -80z" />
    <glyph glyph-name="ordmasculine" unicode="&#xba;" horiz-adv-x="410" 
d="M205 360q-26 0 -52 7t-46 21.5t-32.5 36t-12.5 50.5v128q0 29 12.5 50.5t32.5 36t46 21.5t52 7t51.5 -7t46 -21.5t33 -36t12.5 -50.5v-128q0 -29 -12.5 -50.5t-33 -36t-46 -21.5t-51.5 -7zM96 478q0 -24 9.5 -40t25.5 -26t35 -14.5t39 -4.5q19 0 38.5 4.5t35.5 14.5
t25.5 26t9.5 40v122q0 24 -9.5 40t-25.5 26t-35.5 14.5t-38.5 4.5q-20 0 -39 -4.5t-35 -14.5t-25.5 -26t-9.5 -40v-122z" />
    <glyph glyph-name="guillemotright" unicode="&#xbb;" horiz-adv-x="383" 
d="M90 105q-9 5 -16 10t-15 10l117 170q-27 41 -57.5 85t-58.5 85q11 6 16 10t14 9l128 -189zM212 105q-9 5 -16 10t-15 10l117 170q-27 41 -57.5 85t-58.5 85q11 6 16 10t14 9l128 -189z" />
    <glyph glyph-name="onequarter" unicode="&#xbc;" horiz-adv-x="670" 
d="M528 728q9 -5 14.5 -9t13.5 -9l-447 -730l-27 17zM31 604l93 105h34v-404h-32v359l-70 -79zM629 101h-33v-101h-32v101h-211l-20 31l217 276h46v-279h33v-28zM368 129h196l3 251z" />
    <glyph glyph-name="onehalf" unicode="&#xbd;" horiz-adv-x="741" 
d="M531 728q9 -5 14.5 -9t13.5 -9l-447 -730l-27 17zM31 604l93 105h34v-404h-32v359l-70 -79zM694 0h-267q-3 8 -4.5 12.5t-4.5 11.5q50 47 100 100t99 100q32 30 38 54.5t-2 52.5q-13 29 -38 42.5t-53.5 13t-55 -13.5t-42.5 -36q-8 3 -16.5 7t-15.5 7q11 19 29.5 34
t38.5 23h-1q25 10 53 11.5t54.5 -6t48 -25t33.5 -46.5q13 -38 -1.5 -76t-43.5 -64l-168 -169h219v-33z" />
    <glyph glyph-name="threequarters" unicode="&#xbe;" horiz-adv-x="730" 
d="M613 728q9 -5 14 -9t13 -9l-447 -730l-26 17zM257 519q28 -9 44.5 -33t20.5 -52t-5.5 -55.5t-32.5 -44.5q-23 -19 -53.5 -27.5t-60.5 -6.5h1q-19 1 -38.5 6t-37 14t-31.5 22.5t-22 31.5l26 13q14 -27 44.5 -40.5t59.5 -15.5q23 -2 47.5 5t44.5 23q27 21 27 59
q0 47 -29 67t-70 18h-20v25h20q15 0 33.5 7t30.5 18q21 20 19.5 48t-18.5 48q-14 16 -35 23.5t-43 7.5q-29 0 -56 -11t-41 -36l-24 13q9 16 22.5 27.5t29.5 19t33 11t31 4.5q28 2 56.5 -8t47.5 -30q14 -15 21 -34t7 -39t-8.5 -38.5t-25.5 -31.5zM686 101h-33v-101h-32v101
h-211l-20 31l217 276h46v-279h33v-28zM425 129h196l3 251z" />
    <glyph glyph-name="questiondown" unicode="&#xbf;" horiz-adv-x="449" 
d="M261 447q-15 0 -25.5 11t-10.5 27t10.5 26.5t25.5 10.5q16 0 27 -10.5t11 -26.5t-11 -27t-27 -11zM425 -117q-33 -38 -78 -57t-97 -19q-41 0 -80 12.5t-69 37t-48 61t-18 84.5q0 47 17.5 83t46 62t65 42t76.5 23l8 192h29l6 -224q-41 -2 -79.5 -14.5t-68 -35.5t-47 -55.5
t-16.5 -73.5q1 -39 16.5 -68.5t40.5 -49t57 -29.5t66 -10q39 0 81 18.5t70 44.5z" />
    <glyph glyph-name="Agrave" unicode="&#xc0;" horiz-adv-x="604" 
d="M297 765l-78 111h49l66 -111h-37zM590 0h-42l-89 246h-317l-86 -246h-42l259 708h57zM156 285h290l-145 394z" />
    <glyph glyph-name="Aacute" unicode="&#xc1;" horiz-adv-x="604" 
d="M298 765h-39l67 111h49zM590 0h-42l-89 246h-317l-86 -246h-42l259 708h57zM156 285h290l-145 394z" />
    <glyph glyph-name="Acircumflex" unicode="&#xc2;" horiz-adv-x="604" 
d="M432 765h-50l-82 79l-82 -79h-50l115 111h34zM590 0h-42l-89 246h-317l-86 -246h-42l259 708h57zM156 285h290l-145 394z" />
    <glyph glyph-name="Atilde" unicode="&#xc3;" horiz-adv-x="604" 
d="M168 789q2 37 23.5 57t47.5 22q21 1 37.5 -9t31 -22.5t28 -23t28.5 -9.5q38 3 46 53l28 -7q-2 -33 -20.5 -55t-50.5 -24q-20 -1 -36 9t-30 22.5t-28.5 23t-31.5 9.5q-16 -1 -29 -14.5t-17 -39.5zM590 0h-42l-89 246h-317l-86 -246h-42l259 708h57zM156 285h290l-145 394z
" />
    <glyph glyph-name="Adieresis" unicode="&#xc4;" horiz-adv-x="604" 
d="M184 821q0 13 9 21.5t21 8.5q13 0 21.5 -8.5t8.5 -21.5q0 -12 -8.5 -21t-21.5 -9q-12 0 -21 9t-9 21zM359 821q0 13 8.5 21.5t21.5 8.5q12 0 21 -8.5t9 -21.5q0 -12 -9 -21t-21 -9q-13 0 -21.5 9t-8.5 21zM590 0h-42l-89 246h-317l-86 -246h-42l259 708h57zM156 285h290
l-145 394z" />
    <glyph glyph-name="Aring" unicode="&#xc5;" horiz-adv-x="603" 
d="M548 0l-89 246h-317l-86 -246h-42l253 692q-23 9 -36.5 29.5t-13.5 49.5q0 38 22.5 61.5t60.5 23.5t60.5 -23.5t22.5 -61.5q0 -29 -12.5 -49t-35.5 -29l255 -693h-42zM247 771q0 -25 14.5 -40.5t38.5 -15.5t38.5 15.5t14.5 40.5q0 26 -14.5 41t-38.5 15t-38.5 -15
t-14.5 -41zM301 679l-145 -394h290z" />
    <glyph glyph-name="AE" unicode="&#xc6;" horiz-adv-x="780" 
d="M730 671h-304v-308h273v-38h-273v-289h304v-36h-341v246h-220l-125 -247h-43l356 709h373v-37zM187 283h202v392l-9 1z" />
    <glyph glyph-name="Ccedilla" unicode="&#xc7;" horiz-adv-x="591" 
d="M327 29q30 0 59 6t55.5 17t48 28t35.5 40l34 -17q-13 -25 -33.5 -44t-46 -33t-54.5 -22.5t-59 -11.5l-31 -57q38 0 59.5 -21t15.5 -56q-7 -38 -34 -52.5t-59 -14.5q-28 0 -48 8t-37 19l6 28q19 -11 37 -18t38 -7t37.5 7.5t22.5 31.5q4 18 -3 28.5t-19 15.5t-26.5 4.5
t-25.5 -3.5l-6 8l41 77h-7q-47 0 -93 13t-82 38.5t-58 64t-22 89.5v318q0 51 22.5 89t58.5 64t82.5 39t94.5 13q35 0 69.5 -6.5t65 -20.5t55 -35t39.5 -50l-35 -18q-14 22 -35 39.5t-47 28.5t-55.5 17t-59.5 6q-40 0 -79 -10.5t-69.5 -31t-49 -51.5t-18.5 -73v-318
q0 -42 18.5 -73t49 -51.5t69.5 -31t79 -10.5z" />
    <glyph glyph-name="Egrave" unicode="&#xc8;" horiz-adv-x="565" 
d="M310 765l-78 111h49l66 -111h-37zM126 374h359v-40h-359v-295h389v-39h-428v708h428v-39h-389v-295z" />
    <glyph glyph-name="Eacute" unicode="&#xc9;" horiz-adv-x="565" 
d="M311 765h-39l67 111h49zM126 374h359v-40h-359v-295h389v-39h-428v708h428v-39h-389v-295z" />
    <glyph glyph-name="Ecircumflex" unicode="&#xca;" horiz-adv-x="565" 
d="M445 765h-50l-82 79l-82 -79h-50l115 111h34zM126 374h359v-40h-359v-295h389v-39h-428v708h428v-39h-389v-295z" />
    <glyph glyph-name="Edieresis" unicode="&#xcb;" horiz-adv-x="565" 
d="M197 821q0 13 9 21.5t21 8.5q13 0 21.5 -8.5t8.5 -21.5q0 -12 -8.5 -21t-21.5 -9q-12 0 -21 9t-9 21zM372 821q0 13 8.5 21.5t21.5 8.5q12 0 21 -8.5t9 -21.5q0 -12 -9 -21t-21 -9q-13 0 -21.5 9t-8.5 21zM126 374h359v-40h-359v-295h389v-39h-428v708h428v-39h-389v-295
z" />
    <glyph glyph-name="Igrave" unicode="&#xcc;" horiz-adv-x="213" 
d="M107 765l-78 111h49l66 -111h-37zM126 0h-39v708h39v-708z" />
    <glyph glyph-name="Iacute" unicode="&#xcd;" horiz-adv-x="213" 
d="M108 765h-39l67 111h49zM126 0h-39v708h39v-708z" />
    <glyph glyph-name="Icircumflex" unicode="&#xce;" horiz-adv-x="213" 
d="M242 765h-50l-82 79l-82 -79h-50l115 111h34zM126 0h-39v708h39v-708z" />
    <glyph glyph-name="Idieresis" unicode="&#xcf;" horiz-adv-x="213" 
d="M4 821q0 13 9 21.5t21 8.5q13 0 21.5 -8.5t8.5 -21.5q0 -12 -8.5 -21t-21.5 -9q-12 0 -21 9t-9 21zM159 821q0 13 8.5 21.5t21.5 8.5q12 0 21 -8.5t9 -21.5q0 -12 -9 -21t-21 -9q-13 0 -21.5 9t-8.5 21zM126 0h-39v708h39v-708z" />
    <glyph glyph-name="Eth" unicode="&#xd0;" horiz-adv-x="637" 
d="M89 708h226q48 0 94 -13t81.5 -38.5t57.5 -64.5t22 -91v-295q0 -52 -22 -90.5t-57.5 -64t-81.5 -38.5t-94 -13h-226v335h-63v32h63v341zM315 39q40 0 79 10.5t69.5 31t49 52t18.5 73.5v295q0 42 -18.5 73.5t-49 52.5t-69.5 31.5t-79 10.5h-187v-302h125v-32h-125v-296
h187z" />
    <glyph glyph-name="Ntilde" unicode="&#xd1;" horiz-adv-x="672" 
d="M206 789q2 37 23.5 57t47.5 22q21 1 37.5 -9t31 -22.5t28 -23t28.5 -9.5q38 3 46 53l28 -7q-2 -33 -20.5 -55t-50.5 -24q-20 -1 -36 9t-30 22.5t-28.5 23t-31.5 9.5q-16 -1 -29 -14.5t-17 -39.5zM546 49v659h39v-708h-57l-402 648v-648h-39v708h49z" />
    <glyph glyph-name="Ograve" unicode="&#xd2;" horiz-adv-x="679" 
d="M337 765l-78 111h49l66 -111h-37zM69 511q0 52 23 90.5t61 64.5t86.5 39t99.5 13t99.5 -13t86.5 -39t61.5 -64.5t23.5 -90.5v-313q0 -52 -23.5 -91t-61.5 -65t-86.5 -39t-99.5 -13t-99.5 13t-86.5 39t-61 65t-23 91v313zM108 198q0 -42 20 -74t52 -53t73.5 -31.5
t85.5 -10.5q43 0 85 10.5t74.5 31.5t52.5 53t20 74v313q0 45 -20 77t-53 52.5t-75 30t-85 9.5t-84.5 -10t-73.5 -31t-52 -52.5t-20 -75.5v-313z" />
    <glyph glyph-name="Oacute" unicode="&#xd3;" horiz-adv-x="679" 
d="M338 765h-39l67 111h49zM69 511q0 52 23 90.5t61 64.5t86.5 39t99.5 13t99.5 -13t86.5 -39t61.5 -64.5t23.5 -90.5v-313q0 -52 -23.5 -91t-61.5 -65t-86.5 -39t-99.5 -13t-99.5 13t-86.5 39t-61 65t-23 91v313zM108 198q0 -42 20 -74t52 -53t73.5 -31.5t85.5 -10.5
q43 0 85 10.5t74.5 31.5t52.5 53t20 74v313q0 45 -20 77t-53 52.5t-75 30t-85 9.5t-84.5 -10t-73.5 -31t-52 -52.5t-20 -75.5v-313z" />
    <glyph glyph-name="Ocircumflex" unicode="&#xd4;" horiz-adv-x="679" 
d="M472 765h-50l-82 79l-82 -79h-50l115 111h34zM69 511q0 52 23 90.5t61 64.5t86.5 39t99.5 13t99.5 -13t86.5 -39t61.5 -64.5t23.5 -90.5v-313q0 -52 -23.5 -91t-61.5 -65t-86.5 -39t-99.5 -13t-99.5 13t-86.5 39t-61 65t-23 91v313zM108 198q0 -42 20 -74t52 -53
t73.5 -31.5t85.5 -10.5q43 0 85 10.5t74.5 31.5t52.5 53t20 74v313q0 45 -20 77t-53 52.5t-75 30t-85 9.5t-84.5 -10t-73.5 -31t-52 -52.5t-20 -75.5v-313z" />
    <glyph glyph-name="Otilde" unicode="&#xd5;" horiz-adv-x="679" 
d="M208 789q2 37 23.5 57t47.5 22q21 1 37.5 -9t31 -22.5t28 -23t28.5 -9.5q38 3 46 53l28 -7q-2 -33 -20.5 -55t-50.5 -24q-20 -1 -36 9t-30 22.5t-28.5 23t-31.5 9.5q-16 -1 -29 -14.5t-17 -39.5zM69 511q0 52 23 90.5t61 64.5t86.5 39t99.5 13t99.5 -13t86.5 -39
t61.5 -64.5t23.5 -90.5v-313q0 -52 -23.5 -91t-61.5 -65t-86.5 -39t-99.5 -13t-99.5 13t-86.5 39t-61 65t-23 91v313zM108 198q0 -42 20 -74t52 -53t73.5 -31.5t85.5 -10.5q43 0 85 10.5t74.5 31.5t52.5 53t20 74v313q0 45 -20 77t-53 52.5t-75 30t-85 9.5t-84.5 -10
t-73.5 -31t-52 -52.5t-20 -75.5v-313z" />
    <glyph glyph-name="Odieresis" unicode="&#xd6;" horiz-adv-x="679" 
d="M224 821q0 13 9 21.5t21 8.5q13 0 21.5 -8.5t8.5 -21.5q0 -12 -8.5 -21t-21.5 -9q-12 0 -21 9t-9 21zM399 821q0 13 8.5 21.5t21.5 8.5q12 0 21 -8.5t9 -21.5q0 -12 -9 -21t-21 -9q-13 0 -21.5 9t-8.5 21zM69 511q0 52 23 90.5t61 64.5t86.5 39t99.5 13t99.5 -13
t86.5 -39t61.5 -64.5t23.5 -90.5v-313q0 -52 -23.5 -91t-61.5 -65t-86.5 -39t-99.5 -13t-99.5 13t-86.5 39t-61 65t-23 91v313zM108 198q0 -42 20 -74t52 -53t73.5 -31.5t85.5 -10.5q43 0 85 10.5t74.5 31.5t52.5 53t20 74v313q0 45 -20 77t-53 52.5t-75 30t-85 9.5
t-84.5 -10t-73.5 -31t-52 -52.5t-20 -75.5v-313z" />
    <glyph glyph-name="multiply" unicode="&#xd7;" horiz-adv-x="495" 
d="M408 523l27 -26l-160 -159l157 -157l-26 -27l-157 157l-161 -161l-26 27l160 160l-163 164l27 26l163 -163z" />
    <glyph glyph-name="Oslash" unicode="&#xd8;" horiz-adv-x="679" 
d="M69 510q0 52 23 90.5t61 64.5t86.5 39t99.5 13q56 0 119 -19l30 71l32 -11l-30 -73q52 -26 86 -70t34 -105v-311q0 -52 -23.5 -91t-61.5 -65t-86.5 -39t-99.5 -13q-26 0 -55.5 5t-60.5 14l-29 -74l-33 10l30 77q-54 27 -88 70.5t-34 105.5v311zM108 199q0 -48 27 -83
t70 -59l238 607q-54 15 -105 15q-43 0 -84.5 -10t-73.5 -31t-52 -52.5t-20 -75.5v-311zM571 510q0 48 -26.5 83t-68.5 58l-238 -606q52 -15 101 -15q43 0 84.5 10.5t74 31.5t53 53t20.5 74v311z" />
    <glyph glyph-name="Ugrave" unicode="&#xd9;" horiz-adv-x="677" 
d="M336 765l-78 111h49l66 -111h-37zM122 201q0 -43 18.5 -75t49 -53.5t69 -32t79.5 -10.5q40 0 79 10.5t70 32t49.5 53.5t18.5 75v507h39v-507q0 -53 -22 -92.5t-58 -65.5t-82 -39.5t-94 -13.5t-94 13.5t-81.5 39.5t-57.5 65.5t-22 92.5v507h39v-507z" />
    <glyph glyph-name="Uacute" unicode="&#xda;" horiz-adv-x="677" 
d="M337 765h-39l67 111h49zM122 201q0 -43 18.5 -75t49 -53.5t69 -32t79.5 -10.5q40 0 79 10.5t70 32t49.5 53.5t18.5 75v507h39v-507q0 -53 -22 -92.5t-58 -65.5t-82 -39.5t-94 -13.5t-94 13.5t-81.5 39.5t-57.5 65.5t-22 92.5v507h39v-507z" />
    <glyph glyph-name="Ucircumflex" unicode="&#xdb;" horiz-adv-x="677" 
d="M471 765h-50l-82 79l-82 -79h-50l115 111h34zM122 201q0 -43 18.5 -75t49 -53.5t69 -32t79.5 -10.5q40 0 79 10.5t70 32t49.5 53.5t18.5 75v507h39v-507q0 -53 -22 -92.5t-58 -65.5t-82 -39.5t-94 -13.5t-94 13.5t-81.5 39.5t-57.5 65.5t-22 92.5v507h39v-507z" />
    <glyph glyph-name="Udieresis" unicode="&#xdc;" horiz-adv-x="677" 
d="M223 821q0 13 9 21.5t21 8.5q13 0 21.5 -8.5t8.5 -21.5q0 -12 -8.5 -21t-21.5 -9q-12 0 -21 9t-9 21zM398 821q0 13 8.5 21.5t21.5 8.5q12 0 21 -8.5t9 -21.5q0 -12 -9 -21t-21 -9q-13 0 -21.5 9t-8.5 21zM122 201q0 -43 18.5 -75t49 -53.5t69 -32t79.5 -10.5
q40 0 79 10.5t70 32t49.5 53.5t18.5 75v507h39v-507q0 -53 -22 -92.5t-58 -65.5t-82 -39.5t-94 -13.5t-94 13.5t-81.5 39.5t-57.5 65.5t-22 92.5v507h39v-507z" />
    <glyph glyph-name="Yacute" unicode="&#xdd;" horiz-adv-x="540" 
d="M268 765h-39l67 111h49zM289 0h-39v280l-238 427h45l213 -391l212 391h46l-239 -427v-280z" />
    <glyph glyph-name="Thorn" unicode="&#xde;" horiz-adv-x="608" 
d="M87 1v707h39v-112h218q74 0 124 -32t75 -80t25.5 -104t-24.5 -104t-74.5 -80.5t-124.5 -32.5h-219v-162h-39zM344 202q63 0 104 26.5t61 66t19 85.5t-22 85.5t-61.5 65.5t-100.5 26h-218v-355h218z" />
    <glyph glyph-name="germandbls" unicode="&#xdf;" horiz-adv-x="584" 
d="M283 30q40 -1 78.5 11t68.5 35t48.5 56.5t18.5 75.5q0 39 -14.5 68.5t-40 48.5t-59.5 28t-74 9h-104v36h104q31 0 59.5 9t50 27.5t34 45.5t12.5 63q0 38 -15.5 64.5t-40 43t-56 24t-63.5 7.5t-63.5 -8.5t-56 -26t-40 -45t-15.5 -65.5v-537h-38v537q0 44 18.5 77.5
t48.5 56.5t68 35t78 12t78.5 -11t68.5 -32.5t48.5 -54.5t18.5 -77q0 -46 -22.5 -89.5t-73.5 -72.5q71 -25 100 -72.5t29 -101.5q0 -51 -22 -91.5t-57.5 -68.5t-81 -42.5t-92.5 -14.5q-25 0 -56 8.5t-54 18.5l1 41q10 -4 24.5 -9t29.5 -9t29 -7t25 -3z" />
    <glyph glyph-name="agrave" unicode="&#xe0;" horiz-adv-x="487" 
d="M240 585l-78 111h49l66 -111h-37zM379 376q0 31 -13 53.5t-34.5 37t-49 21t-56.5 6.5q-74 0 -129 -51l-22 24q32 33 72 47t85 14q35 0 68 -9.5t58.5 -28.5t41 -47.5t15.5 -66.5v-357q-48 -16 -99 -23t-103 -6q-36 0 -67 10.5t-54 31t-36.5 50t-13.5 67.5q0 43 16 73
t42.5 49t61 27.5t71.5 8.5q34 0 72.5 -6.5t73.5 -22.5v98zM379 246q-30 12 -69.5 21t-77.5 9q-30 0 -58 -6t-49.5 -21t-34.5 -39.5t-13 -60.5q0 -33 10.5 -57t29.5 -39.5t44 -23t55 -7.5q42 -1 79.5 3.5t83.5 16.5v204z" />
    <glyph glyph-name="aacute" unicode="&#xe1;" horiz-adv-x="487" 
d="M241 585h-39l67 111h49zM379 376q0 31 -13 53.5t-34.5 37t-49 21t-56.5 6.5q-74 0 -129 -51l-22 24q32 33 72 47t85 14q35 0 68 -9.5t58.5 -28.5t41 -47.5t15.5 -66.5v-357q-48 -16 -99 -23t-103 -6q-36 0 -67 10.5t-54 31t-36.5 50t-13.5 67.5q0 43 16 73t42.5 49
t61 27.5t71.5 8.5q34 0 72.5 -6.5t73.5 -22.5v98zM379 246q-30 12 -69.5 21t-77.5 9q-30 0 -58 -6t-49.5 -21t-34.5 -39.5t-13 -60.5q0 -33 10.5 -57t29.5 -39.5t44 -23t55 -7.5q42 -1 79.5 3.5t83.5 16.5v204z" />
    <glyph glyph-name="acircumflex" unicode="&#xe2;" horiz-adv-x="487" 
d="M366 585h-48l-84 79l-84 -79h-48l115 111h34zM379 376q0 31 -13 53.5t-34.5 37t-49 21t-56.5 6.5q-74 0 -129 -51l-22 24q32 33 72 47t85 14q35 0 68 -9.5t58.5 -28.5t41 -47.5t15.5 -66.5v-357q-48 -16 -99 -23t-103 -6q-36 0 -67 10.5t-54 31t-36.5 50t-13.5 67.5
q0 43 16 73t42.5 49t61 27.5t71.5 8.5q34 0 72.5 -6.5t73.5 -22.5v98zM379 246q-30 12 -69.5 21t-77.5 9q-30 0 -58 -6t-49.5 -21t-34.5 -39.5t-13 -60.5q0 -33 10.5 -57t29.5 -39.5t44 -23t55 -7.5q42 -1 79.5 3.5t83.5 16.5v204z" />
    <glyph glyph-name="atilde" unicode="&#xe3;" horiz-adv-x="487" 
d="M106 610q2 37 23.5 57t47.5 22q21 1 37.5 -9t31 -22.5t28 -23t28.5 -9.5q38 3 46 53l28 -7q-2 -33 -20.5 -55t-50.5 -24q-20 -1 -36 9t-30 22.5t-28.5 23t-31.5 9.5q-16 -1 -29 -14.5t-17 -39.5zM379 376q0 31 -13 53.5t-34.5 37t-49 21t-56.5 6.5q-74 0 -129 -51l-22 24
q32 33 72 47t85 14q35 0 68 -9.5t58.5 -28.5t41 -47.5t15.5 -66.5v-357q-48 -16 -99 -23t-103 -6q-36 0 -67 10.5t-54 31t-36.5 50t-13.5 67.5q0 43 16 73t42.5 49t61 27.5t71.5 8.5q34 0 72.5 -6.5t73.5 -22.5v98zM379 246q-30 12 -69.5 21t-77.5 9q-30 0 -58 -6t-49.5 -21
t-34.5 -39.5t-13 -60.5q0 -33 10.5 -57t29.5 -39.5t44 -23t55 -7.5q42 -1 79.5 3.5t83.5 16.5v204z" />
    <glyph glyph-name="adieresis" unicode="&#xe4;" horiz-adv-x="487" 
d="M127 641q0 13 9 21.5t21 8.5q13 0 21.5 -8.5t8.5 -21.5q0 -12 -8.5 -21t-21.5 -9q-12 0 -21 9t-9 21zM302 641q0 13 8.5 21.5t21.5 8.5q12 0 21 -8.5t9 -21.5q0 -12 -9 -21t-21 -9q-13 0 -21.5 9t-8.5 21zM379 376q0 31 -13 53.5t-34.5 37t-49 21t-56.5 6.5
q-74 0 -129 -51l-22 24q32 33 72 47t85 14q35 0 68 -9.5t58.5 -28.5t41 -47.5t15.5 -66.5v-357q-48 -16 -99 -23t-103 -6q-36 0 -67 10.5t-54 31t-36.5 50t-13.5 67.5q0 43 16 73t42.5 49t61 27.5t71.5 8.5q34 0 72.5 -6.5t73.5 -22.5v98zM379 246q-30 12 -69.5 21t-77.5 9
q-30 0 -58 -6t-49.5 -21t-34.5 -39.5t-13 -60.5q0 -33 10.5 -57t29.5 -39.5t44 -23t55 -7.5q42 -1 79.5 3.5t83.5 16.5v204z" />
    <glyph glyph-name="aring" unicode="&#xe5;" horiz-adv-x="487" 
d="M323 653q0 -37 -22 -59t-58 -22t-58 22t-22 59t22 59t58 22t58 -22t22 -59zM294 653q0 24 -14 39t-37 15t-37 -15t-14 -39t14 -39t37 -15t37 15t14 39zM379 376q0 31 -13 53.5t-34.5 37t-49 21t-56.5 6.5q-74 0 -129 -51l-22 24q32 33 72 47t85 14q35 0 68 -9.5
t58.5 -28.5t41 -47.5t15.5 -66.5v-357q-48 -16 -99 -23t-103 -6q-36 0 -67 10.5t-54 31t-36.5 50t-13.5 67.5q0 43 16 73t42.5 49t61 27.5t71.5 8.5q34 0 72.5 -6.5t73.5 -22.5v98zM379 246q-30 12 -69.5 21t-77.5 9q-30 0 -58 -6t-49.5 -21t-34.5 -39.5t-13 -60.5
q0 -33 10.5 -57t29.5 -39.5t44 -23t55 -7.5q42 -1 79.5 3.5t83.5 16.5v204z" />
    <glyph glyph-name="ae" unicode="&#xe6;" horiz-adv-x="805" 
d="M416 152q0 -32 12.5 -55.5t33.5 -39t48 -23t56 -7.5q42 0 79 15.5t57 49.5l33 -17q-12 -22 -30 -38t-40.5 -26.5t-47.5 -15.5t-51 -5q-48 0 -90.5 19t-68.5 54q-18 -17 -41 -31t-48.5 -23.5t-52.5 -14t-51 -4.5q-36 0 -67 12.5t-54 34.5t-36.5 53t-13.5 70q0 43 16 73.5
t43 50t61.5 28.5t71.5 9q34 0 72 -7.5t73 -23.5l1 93q-2 29 -15.5 50t-34.5 34.5t-47.5 19.5t-54.5 6q-38 0 -69 -13t-60 -39l-24 25q32 33 71 47.5t84 14.5q52 0 99 -21.5t70 -63.5q25 41 70 63t96 22q34 0 67.5 -10t60 -29.5t42.5 -49t16 -69.5v-136h-336v-82zM716 372
q0 31 -13 53.5t-34 37.5t-48 22.5t-55 7.5q-29 0 -56 -8t-48 -24t-33.5 -39t-12.5 -54v-101h300v105zM233 289q-30 0 -58 -6.5t-49 -21.5t-34 -40t-13 -61q0 -67 39 -101.5t99 -35.5q19 0 43 4.5t47.5 14t45 22.5t37.5 30q-5 13 -7.5 27t-2.5 31l-1 107q-30 12 -69 21t-77 9
z" />
    <glyph glyph-name="ccedilla" unicode="&#xe7;" horiz-adv-x="460" 
d="M423 86q-20 -42 -62.5 -66.5t-92.5 -28.5l-31 -56q38 0 59.5 -21t15.5 -56q-7 -38 -34 -52.5t-59 -14.5q-28 0 -48 8t-37 19l6 28q19 -11 37 -18t38 -7t37.5 7.5t22.5 31.5q4 18 -3 28.5t-19 15.5t-26.5 4.5t-25.5 -3.5l-6 8l41 77q-33 1 -64.5 12t-55.5 30.5t-39 48.5
t-15 67v222q0 40 16 69.5t42.5 49t59.5 29.5t68 10q49 0 93.5 -18.5t69.5 -57.5l-29 -19q-20 30 -56.5 44.5t-77.5 14.5q-28 0 -55 -7t-48 -22t-34 -37.5t-13 -53.5v-224q0 -32 13 -55t34 -38t48 -22t55 -7q45 0 85 19t57 57z" />
    <glyph glyph-name="egrave" unicode="&#xe8;" 
d="M246 585l-78 111h49l66 -111h-37zM99 148q0 -32 12.5 -54.5t33.5 -37.5t48 -22t56 -7q42 0 79 15.5t57 49.5l33 -17q-12 -22 -30 -38t-40.5 -26.5t-47.5 -15.5t-51 -5q-35 0 -68.5 10t-60 29.5t-42.5 49t-16 69.5v222q0 40 16 69.5t42.5 49t60 29.5t68.5 10
q34 0 67.5 -10t60 -29.5t42.5 -49t16 -69.5v-136h-336v-86zM399 372q0 31 -13 53.5t-34 37.5t-48 22.5t-55 7.5q-29 0 -56 -7.5t-48 -22.5t-33.5 -37.5t-12.5 -53.5v-105h300v105z" />
    <glyph glyph-name="eacute" unicode="&#xe9;" 
d="M247 585h-39l67 111h49zM99 148q0 -32 12.5 -54.5t33.5 -37.5t48 -22t56 -7q42 0 79 15.5t57 49.5l33 -17q-12 -22 -30 -38t-40.5 -26.5t-47.5 -15.5t-51 -5q-35 0 -68.5 10t-60 29.5t-42.5 49t-16 69.5v222q0 40 16 69.5t42.5 49t60 29.5t68.5 10q34 0 67.5 -10
t60 -29.5t42.5 -49t16 -69.5v-136h-336v-86zM399 372q0 31 -13 53.5t-34 37.5t-48 22.5t-55 7.5q-29 0 -56 -7.5t-48 -22.5t-33.5 -37.5t-12.5 -53.5v-105h300v105z" />
    <glyph glyph-name="ecircumflex" unicode="&#xea;" 
d="M381 585h-50l-82 79l-82 -79h-50l115 111h34zM99 148q0 -32 12.5 -54.5t33.5 -37.5t48 -22t56 -7q42 0 79 15.5t57 49.5l33 -17q-12 -22 -30 -38t-40.5 -26.5t-47.5 -15.5t-51 -5q-35 0 -68.5 10t-60 29.5t-42.5 49t-16 69.5v222q0 40 16 69.5t42.5 49t60 29.5t68.5 10
q34 0 67.5 -10t60 -29.5t42.5 -49t16 -69.5v-136h-336v-86zM399 372q0 31 -13 53.5t-34 37.5t-48 22.5t-55 7.5q-29 0 -56 -7.5t-48 -22.5t-33.5 -37.5t-12.5 -53.5v-105h300v105z" />
    <glyph glyph-name="edieresis" unicode="&#xeb;" 
d="M133 641q0 13 9 21.5t21 8.5q13 0 21.5 -8.5t8.5 -21.5q0 -12 -8.5 -21t-21.5 -9q-12 0 -21 9t-9 21zM308 641q0 13 8.5 21.5t21.5 8.5q12 0 21 -8.5t9 -21.5q0 -12 -9 -21t-21 -9q-13 0 -21.5 9t-8.5 21zM99 148q0 -32 12.5 -54.5t33.5 -37.5t48 -22t56 -7q42 0 79 15.5
t57 49.5l33 -17q-12 -22 -30 -38t-40.5 -26.5t-47.5 -15.5t-51 -5q-35 0 -68.5 10t-60 29.5t-42.5 49t-16 69.5v222q0 40 16 69.5t42.5 49t60 29.5t68.5 10q34 0 67.5 -10t60 -29.5t42.5 -49t16 -69.5v-136h-336v-86zM399 372q0 31 -13 53.5t-34 37.5t-48 22.5t-55 7.5
q-29 0 -56 -7.5t-48 -22.5t-33.5 -37.5t-12.5 -53.5v-105h300v105z" />
    <glyph glyph-name="igrave" unicode="&#xec;" horiz-adv-x="190" 
d="M92 575l-78 111h49l66 -111h-37zM113 0h-36v518h36v-518z" />
    <glyph glyph-name="iacute" unicode="&#xed;" horiz-adv-x="190" 
d="M93 575h-39l67 111h49zM113 0h-36v518h36v-518z" />
    <glyph glyph-name="icircumflex" unicode="&#xee;" horiz-adv-x="190" 
d="M207 575h-45l-67 80l-68 -80h-44l95 111h34zM113 0h-36v518h36v-518z" />
    <glyph glyph-name="idieresis" unicode="&#xef;" horiz-adv-x="190" 
d="M-1 631q0 13 9 21.5t21 8.5q13 0 21.5 -8.5t8.5 -21.5q0 -12 -8.5 -21t-21.5 -9q-12 0 -21 9t-9 21zM134 631q0 13 8.5 21.5t21.5 8.5q12 0 21 -8.5t9 -21.5q0 -12 -9 -21t-21 -9q-13 0 -21.5 9t-8.5 21zM113 0h-36v518h36v-518z" />
    <glyph glyph-name="eth" unicode="&#xf0;" horiz-adv-x="505" 
d="M90 653q33 36 83 50t104 6l22 65l28 -9l-20 -62q52 -16 87.5 -52t35.5 -95v-536l-48 -15q-35 -10 -70 -12t-70 -2q-34 0 -66 10.5t-57.5 30t-41 48.5t-15.5 68v164q0 38 15.5 67.5t41.5 50t59 30.5t68 10t72 -7.5t77 -27.5v121q0 45 -28.5 73t-70.5 42l-25 -81l-28 10
l24 77q-54 6 -89.5 -5t-64.5 -41zM395 399q-77 34 -151 34q-27 0 -53.5 -7.5t-47.5 -22.5t-33.5 -37.5t-12.5 -52.5v-165q0 -31 12.5 -54t33 -38t46.5 -22.5t54 -7.5q42 0 84 7t68 18v348z" />
    <glyph glyph-name="ntilde" unicode="&#xf1;" horiz-adv-x="520" 
d="M119 609q2 37 23.5 57t47.5 22q21 1 37.5 -9t31 -22.5t28 -23t28.5 -9.5q38 3 46 53l28 -7q-2 -33 -20.5 -55t-50.5 -24q-20 -1 -36 9t-30 22.5t-28.5 23t-31.5 9.5q-16 -1 -29 -14.5t-17 -39.5zM75 490q45 16 92.5 27t96.5 11q34 -1 67 -11t58.5 -29.5t41 -49
t15.5 -68.5v-370h-36v370q0 31 -13 54t-33.5 38t-46.5 22t-53 7q-43 0 -85 -9.5t-68 -20.5v-461h-36v490z" />
    <glyph glyph-name="ograve" unicode="&#xf2;" horiz-adv-x="497" 
d="M248 585l-78 111h49l66 -111h-37zM62 369q0 40 16 69.5t42.5 49.5t60 30t68.5 10t68.5 -10t59.5 -30t42 -49.5t16 -69.5v-220q0 -40 -16 -69.5t-42 -49.5t-59.5 -30t-68.5 -10t-68.5 10t-60 30t-42.5 49.5t-16 69.5v220zM249 491q-27 0 -54 -7t-48.5 -22t-35 -38
t-13.5 -55v-220q0 -32 13.5 -55.5t35 -38.5t48.5 -22t54 -7t54 7t48 22t34.5 38.5t13.5 55.5v220q0 32 -13.5 55t-34.5 38t-48 22t-54 7z" />
    <glyph glyph-name="oacute" unicode="&#xf3;" horiz-adv-x="497" 
d="M249 585h-39l67 111h49zM62 369q0 40 16 69.5t42.5 49.5t60 30t68.5 10t68.5 -10t59.5 -30t42 -49.5t16 -69.5v-220q0 -40 -16 -69.5t-42 -49.5t-59.5 -30t-68.5 -10t-68.5 10t-60 30t-42.5 49.5t-16 69.5v220zM249 491q-27 0 -54 -7t-48.5 -22t-35 -38t-13.5 -55v-220
q0 -32 13.5 -55.5t35 -38.5t48.5 -22t54 -7t54 7t48 22t34.5 38.5t13.5 55.5v220q0 32 -13.5 55t-34.5 38t-48 22t-54 7z" />
    <glyph glyph-name="ocircumflex" unicode="&#xf4;" horiz-adv-x="497" 
d="M383 585h-50l-82 79l-82 -79h-50l115 111h34zM62 369q0 40 16 69.5t42.5 49.5t60 30t68.5 10t68.5 -10t59.5 -30t42 -49.5t16 -69.5v-220q0 -40 -16 -69.5t-42 -49.5t-59.5 -30t-68.5 -10t-68.5 10t-60 30t-42.5 49.5t-16 69.5v220zM249 491q-27 0 -54 -7t-48.5 -22
t-35 -38t-13.5 -55v-220q0 -32 13.5 -55.5t35 -38.5t48.5 -22t54 -7t54 7t48 22t34.5 38.5t13.5 55.5v220q0 32 -13.5 55t-34.5 38t-48 22t-54 7z" />
    <glyph glyph-name="otilde" unicode="&#xf5;" horiz-adv-x="497" 
d="M119 609q2 37 23.5 57t47.5 22q21 1 37.5 -9t31 -22.5t28 -23t28.5 -9.5q38 3 46 53l28 -7q-2 -33 -20.5 -55t-50.5 -24q-20 -1 -36 9t-30 22.5t-28.5 23t-31.5 9.5q-16 -1 -29 -14.5t-17 -39.5zM62 369q0 40 16 69.5t42.5 49.5t60 30t68.5 10t68.5 -10t59.5 -30
t42 -49.5t16 -69.5v-220q0 -40 -16 -69.5t-42 -49.5t-59.5 -30t-68.5 -10t-68.5 10t-60 30t-42.5 49.5t-16 69.5v220zM249 491q-27 0 -54 -7t-48.5 -22t-35 -38t-13.5 -55v-220q0 -32 13.5 -55.5t35 -38.5t48.5 -22t54 -7t54 7t48 22t34.5 38.5t13.5 55.5v220q0 32 -13.5 55
t-34.5 38t-48 22t-54 7z" />
    <glyph glyph-name="odieresis" unicode="&#xf6;" horiz-adv-x="497" 
d="M135 641q0 13 9 21.5t21 8.5q13 0 21.5 -8.5t8.5 -21.5q0 -12 -8.5 -21t-21.5 -9q-12 0 -21 9t-9 21zM310 641q0 13 8.5 21.5t21.5 8.5q12 0 21 -8.5t9 -21.5q0 -12 -9 -21t-21 -9q-13 0 -21.5 9t-8.5 21zM62 369q0 40 16 69.5t42.5 49.5t60 30t68.5 10t68.5 -10
t59.5 -30t42 -49.5t16 -69.5v-220q0 -40 -16 -69.5t-42 -49.5t-59.5 -30t-68.5 -10t-68.5 10t-60 30t-42.5 49.5t-16 69.5v220zM249 491q-27 0 -54 -7t-48.5 -22t-35 -38t-13.5 -55v-220q0 -32 13.5 -55.5t35 -38.5t48.5 -22t54 -7t54 7t48 22t34.5 38.5t13.5 55.5v220
q0 32 -13.5 55t-34.5 38t-48 22t-54 7z" />
    <glyph glyph-name="divide" unicode="&#xf7;" horiz-adv-x="572" 
d="M253 479q0 17 10.5 26.5t26.5 10.5q16 0 26.5 -10.5t10.5 -26.5t-10.5 -26.5t-26.5 -10.5t-26.5 10.5t-10.5 26.5zM499 313h-427v38h427v-38zM253 174q0 17 10.5 26.5t26.5 10.5q16 0 26.5 -10.5t10.5 -26.5t-10.5 -26.5t-26.5 -10.5t-26.5 10.5t-10.5 26.5z" />
    <glyph glyph-name="oslash" unicode="&#xf8;" horiz-adv-x="497" 
d="M62 370q0 40 16 69.5t42.5 49.5t60 30t68.5 10q20 1 40.5 -3.5t41.5 -11.5l30 72l31 -10l-32 -74q34 -22 54.5 -54.5t20.5 -77.5v-221q0 -40 -16 -69.5t-42 -49.5t-59.5 -30t-68.5 -10q-20 0 -40.5 4t-43.5 12l-29 -69l-28 11l29 70q-34 22 -54.5 54.5t-20.5 76.5v221z
M249 492q-27 0 -54 -7t-48.5 -22t-35 -38t-13.5 -55v-221q0 -30 13.5 -54t37.5 -44l167 430q-39 11 -67 11zM249 26q27 0 54 7t48 22t34.5 38.5t13.5 55.5v221q0 30 -14.5 54t-38.5 43l-169 -429q39 -12 72 -12z" />
    <glyph glyph-name="ugrave" unicode="&#xf9;" horiz-adv-x="519" 
d="M259 585l-78 111h49l66 -111h-37zM444 28q-45 -16 -92.5 -27t-96.5 -11q-34 1 -67 11t-58.5 29.5t-41 49t-15.5 68.5v370h36v-370q0 -31 13 -54t33.5 -38t46.5 -22t53 -7q43 0 85 9.5t68 20.5v461h36v-490z" />
    <glyph glyph-name="uacute" unicode="&#xfa;" horiz-adv-x="519" 
d="M260 585h-39l67 111h49zM444 28q-45 -16 -92.5 -27t-96.5 -11q-34 1 -67 11t-58.5 29.5t-41 49t-15.5 68.5v370h36v-370q0 -31 13 -54t33.5 -38t46.5 -22t53 -7q43 0 85 9.5t68 20.5v461h36v-490z" />
    <glyph glyph-name="ucircumflex" unicode="&#xfb;" horiz-adv-x="519" 
d="M394 585h-50l-82 79l-82 -79h-50l115 111h34zM444 28q-45 -16 -92.5 -27t-96.5 -11q-34 1 -67 11t-58.5 29.5t-41 49t-15.5 68.5v370h36v-370q0 -31 13 -54t33.5 -38t46.5 -22t53 -7q43 0 85 9.5t68 20.5v461h36v-490z" />
    <glyph glyph-name="udieresis" unicode="&#xfc;" horiz-adv-x="519" 
d="M146 641q0 13 9 21.5t21 8.5q13 0 21.5 -8.5t8.5 -21.5q0 -12 -8.5 -21t-21.5 -9q-12 0 -21 9t-9 21zM321 641q0 13 8.5 21.5t21.5 8.5q12 0 21 -8.5t9 -21.5q0 -12 -9 -21t-21 -9q-13 0 -21.5 9t-8.5 21zM444 28q-45 -16 -92.5 -27t-96.5 -11q-34 1 -67 11t-58.5 29.5
t-41 49t-15.5 68.5v370h36v-370q0 -31 13 -54t33.5 -38t46.5 -22t53 -7q43 0 85 9.5t68 20.5v461h36v-490z" />
    <glyph glyph-name="yacute" unicode="&#xfd;" horiz-adv-x="520" 
d="M264 547h-35l63 120h55zM443 -43q0 -40 -15.5 -69t-41.5 -47.5t-59 -27.5t-67 -9q-45 0 -86.5 14t-70.5 41l22 22q26 -21 61.5 -32t72.5 -11q30 0 57 7t47.5 21t32.5 36.5t12 53.5v71q-40 -20 -77 -28.5t-72 -8.5t-68.5 10t-59.5 29.5t-42 49t-16 68.5v370h36v-370
q0 -31 12.5 -54.5t33 -39t47 -23.5t55.5 -8q24 0 42 2.5t34.5 7t34 12t40.5 17.5v456h35v-560z" />
    <glyph glyph-name="thorn" unicode="&#xfe;" horiz-adv-x="513" 
d="M113 707v-199q42 11 80.5 15.5t73.5 4.5q34 0 67.5 -10.5t59 -30.5t41.5 -50t16 -69v-219q0 -39 -16 -68.5t-42.5 -50t-60 -30.5t-68.5 -10q-36 1 -74.5 7t-76.5 24v-207h-36v893h36zM113 60q38 -17 77 -25t76 -8q28 0 54.5 7.5t47.5 22.5t33.5 37.5t12.5 52.5v221
q0 31 -12.5 54t-32.5 38t-47 22.5t-55 7.5q-37 0 -74.5 -3.5t-79.5 -17.5v-409z" />
    <glyph glyph-name="ydieresis" unicode="&#xff;" horiz-adv-x="520" 
d="M143 641q0 13 9 21.5t21 8.5q13 0 21.5 -8.5t8.5 -21.5q0 -12 -8.5 -21t-21.5 -9q-12 0 -21 9t-9 21zM318 641q0 13 8.5 21.5t21.5 8.5q12 0 21 -8.5t9 -21.5q0 -12 -9 -21t-21 -9q-13 0 -21.5 9t-8.5 21zM443 -43q0 -40 -15.5 -69t-41.5 -47.5t-59 -27.5t-67 -9
q-45 0 -86.5 14t-70.5 41l22 22q26 -21 61.5 -32t72.5 -11q30 0 57 7t47.5 21t32.5 36.5t12 53.5v71q-40 -20 -77 -28.5t-72 -8.5t-68.5 10t-59.5 29.5t-42 49t-16 68.5v370h36v-370q0 -31 12.5 -54.5t33 -39t47 -23.5t55.5 -8q24 0 42 2.5t34.5 7t34 12t40.5 17.5v456h35
v-560z" />
    <glyph glyph-name="Amacron" unicode="&#x100;" horiz-adv-x="604" 
d="M178 821h244v-33h-244v33zM590 0h-42l-89 246h-317l-86 -246h-42l259 708h57zM156 285h290l-145 394z" />
    <glyph glyph-name="amacron" unicode="&#x101;" horiz-adv-x="487" 
d="M121 641h244v-33h-244v33zM379 376q0 31 -13 53.5t-34.5 37t-49 21t-56.5 6.5q-74 0 -129 -51l-22 24q32 33 72 47t85 14q35 0 68 -9.5t58.5 -28.5t41 -47.5t15.5 -66.5v-357q-48 -16 -99 -23t-103 -6q-36 0 -67 10.5t-54 31t-36.5 50t-13.5 67.5q0 43 16 73t42.5 49
t61 27.5t71.5 8.5q34 0 72.5 -6.5t73.5 -22.5v98zM379 246q-30 12 -69.5 21t-77.5 9q-30 0 -58 -6t-49.5 -21t-34.5 -39.5t-13 -60.5q0 -33 10.5 -57t29.5 -39.5t44 -23t55 -7.5q42 -1 79.5 3.5t83.5 16.5v204z" />
    <glyph glyph-name="Abreve" unicode="&#x102;" horiz-adv-x="604" 
d="M300 765q-23 0 -44 9t-36.5 24t-25 35t-10.5 43h37q0 -16 6.5 -29.5t17 -24t25 -16.5t30.5 -6q17 0 32 6t26 16.5t17 24t5 29.5h37q0 -23 -9.5 -43t-25 -35t-37 -24t-45.5 -9zM590 0h-42l-89 246h-317l-86 -246h-42l259 708h57zM156 285h290l-145 394z" />
    <glyph glyph-name="abreve" unicode="&#x103;" horiz-adv-x="487" 
d="M243 585q-23 0 -44 9t-36.5 24t-25 35t-10.5 43h37q0 -16 6.5 -29.5t17 -24t25 -16.5t30.5 -6q17 0 32 6t26 16.5t17 24t5 29.5h37q0 -23 -9.5 -43t-25 -35t-37 -24t-45.5 -9zM379 376q0 31 -13 53.5t-34.5 37t-49 21t-56.5 6.5q-74 0 -129 -51l-22 24q32 33 72 47t85 14
q35 0 68 -9.5t58.5 -28.5t41 -47.5t15.5 -66.5v-357q-48 -16 -99 -23t-103 -6q-36 0 -67 10.5t-54 31t-36.5 50t-13.5 67.5q0 43 16 73t42.5 49t61 27.5t71.5 8.5q34 0 72.5 -6.5t73.5 -22.5v98zM379 246q-30 12 -69.5 21t-77.5 9q-30 0 -58 -6t-49.5 -21t-34.5 -39.5
t-13 -60.5q0 -33 10.5 -57t29.5 -39.5t44 -23t55 -7.5q42 -1 79.5 3.5t83.5 16.5v204z" />
    <glyph glyph-name="Aogonek" unicode="&#x104;" horiz-adv-x="602" 
d="M522 -153q4 -12 14.5 -17.5t24 -7t28 1.5t27.5 9v-31q-41 -18 -77 -9t-50 41q-13 31 2.5 75t66.5 91h-11l-89 246h-317l-86 -246h-42l259 708h57l260 -708q-44 -48 -61.5 -85t-5.5 -68zM300 679l-145 -394h290z" />
    <glyph glyph-name="aogonek" unicode="&#x105;" 
d="M379 376q0 31 -13 53.5t-34.5 37t-49 21t-56.5 6.5q-74 0 -129 -51l-22 24q32 33 72 47t85 14q35 0 68 -9.5t58.5 -28.5t41 -47.5t15.5 -66.5v-357q-55 -55 -75 -96t-8 -72q5 -12 15 -19t23 -8.5t27 1t27 8.5l4 -27q-42 -21 -77 -11t-51 44q-14 29 1.5 74t68.5 93
q-38 -8 -77.5 -12.5t-79.5 -3.5q-36 0 -67 10.5t-54 31t-36.5 50t-13.5 67.5q0 43 16 73t42.5 49t61 27.5t71.5 8.5q34 0 72.5 -6.5t73.5 -22.5v98zM379 246q-30 12 -69.5 21t-77.5 9q-30 0 -58 -6t-49.5 -21t-34.5 -39.5t-13 -60.5q0 -33 10.5 -57t29.5 -39.5t44 -23
t55 -7.5q42 -1 79.5 3.5t83.5 16.5v204z" />
    <glyph glyph-name="Cacute" unicode="&#x106;" horiz-adv-x="591" 
d="M336 765h-39l67 111h49zM72 513q0 51 22.5 89t58.5 64t82.5 39t94.5 13q35 0 69.5 -6.5t65 -20.5t55 -35t39.5 -50l-35 -18q-14 22 -35 39.5t-47 28.5t-55.5 17t-59.5 6q-40 0 -79 -10.5t-69.5 -31t-49 -51.5t-18.5 -73v-318q0 -42 18.5 -73t49 -51.5t69.5 -31t79 -10.5
q30 0 59 6t55.5 17t48 28t35.5 40l34 -17q-15 -29 -40 -50t-56 -35t-65.5 -21t-70.5 -7q-47 0 -93 13t-82 38.5t-58 64t-22 89.5v318z" />
    <glyph glyph-name="cacute" unicode="&#x107;" horiz-adv-x="460" 
d="M241 585h-39l67 111h49zM382 433q-20 30 -56.5 44.5t-77.5 14.5q-28 0 -55 -7t-48 -22t-34 -37.5t-13 -53.5v-224q0 -32 13 -55t34 -38t48 -22t55 -7q45 0 85 19t57 57l33 -16q-22 -47 -71 -71.5t-104 -24.5q-35 0 -68 10t-59.5 29.5t-42.5 49t-16 69.5v222q0 40 16 69.5
t42.5 49t59.5 29.5t68 10q49 0 93.5 -18.5t69.5 -57.5z" />
    <glyph glyph-name="Cdotaccent" unicode="&#x10a;" horiz-adv-x="591" 
d="M304 825q0 14 10 24t24 10t24 -10t10 -24t-10 -24t-24 -10t-24 10t-10 24zM72 513q0 51 22.5 89t58.5 64t82.5 39t94.5 13q35 0 69.5 -6.5t65 -20.5t55 -35t39.5 -50l-35 -18q-14 22 -35 39.5t-47 28.5t-55.5 17t-59.5 6q-40 0 -79 -10.5t-69.5 -31t-49 -51.5t-18.5 -73
v-318q0 -42 18.5 -73t49 -51.5t69.5 -31t79 -10.5q30 0 59 6t55.5 17t48 28t35.5 40l34 -17q-15 -29 -40 -50t-56 -35t-65.5 -21t-70.5 -7q-47 0 -93 13t-82 38.5t-58 64t-22 89.5v318z" />
    <glyph glyph-name="cdotaccent" unicode="&#x10b;" horiz-adv-x="460" 
d="M209 645q0 14 10 24t24 10t24 -10t10 -24t-10 -24t-24 -10t-24 10t-10 24zM382 433q-20 30 -56.5 44.5t-77.5 14.5q-28 0 -55 -7t-48 -22t-34 -37.5t-13 -53.5v-224q0 -32 13 -55t34 -38t48 -22t55 -7q45 0 85 19t57 57l33 -16q-22 -47 -71 -71.5t-104 -24.5
q-35 0 -68 10t-59.5 29.5t-42.5 49t-16 69.5v222q0 40 16 69.5t42.5 49t59.5 29.5t68 10q49 0 93.5 -18.5t69.5 -57.5z" />
    <glyph glyph-name="Ccaron" unicode="&#x10c;" horiz-adv-x="591" 
d="M256 876l82 -79l82 79h50l-115 -111h-34l-115 111h50zM72 513q0 51 22.5 89t58.5 64t82.5 39t94.5 13q35 0 69.5 -6.5t65 -20.5t55 -35t39.5 -50l-35 -18q-14 22 -35 39.5t-47 28.5t-55.5 17t-59.5 6q-40 0 -79 -10.5t-69.5 -31t-49 -51.5t-18.5 -73v-318q0 -42 18.5 -73
t49 -51.5t69.5 -31t79 -10.5q30 0 59 6t55.5 17t48 28t35.5 40l34 -17q-15 -29 -40 -50t-56 -35t-65.5 -21t-70.5 -7q-47 0 -93 13t-82 38.5t-58 64t-22 89.5v318z" />
    <glyph glyph-name="ccaron" unicode="&#x10d;" horiz-adv-x="460" 
d="M161 696l82 -79l82 79h50l-115 -111h-34l-115 111h50zM382 433q-20 30 -56.5 44.5t-77.5 14.5q-28 0 -55 -7t-48 -22t-34 -37.5t-13 -53.5v-224q0 -32 13 -55t34 -38t48 -22t55 -7q45 0 85 19t57 57l33 -16q-22 -47 -71 -71.5t-104 -24.5q-35 0 -68 10t-59.5 29.5
t-42.5 49t-16 69.5v222q0 40 16 69.5t42.5 49t59.5 29.5t68 10q49 0 93.5 -18.5t69.5 -57.5z" />
    <glyph glyph-name="Dcaron" unicode="&#x10e;" horiz-adv-x="643" 
d="M223 876l82 -79l82 79h50l-115 -111h-34l-115 111h50zM333 708q48 0 90.5 -11t75 -35t51 -61.5t18.5 -89.5v-315q0 -52 -18.5 -89t-51 -61t-75 -35t-90.5 -11h-246v708h246zM333 39q40 0 76 9t62.5 27.5t42 48.5t15.5 72v315q0 42 -15.5 72t-42 49t-62.5 28t-76 9h-207
v-630h207z" />
    <glyph glyph-name="dcaron" unicode="&#x10f;" horiz-adv-x="531" 
d="M436 21q-45 -14 -93 -22.5t-97 -8.5q-35 1 -68 11t-58.5 29.5t-41.5 49t-16 68.5v222q0 39 16 68.5t42 49.5t60 30t69 10q36 0 74.5 -8t76.5 -25v213h36v-687zM520 555h-30l38 145h37zM400 459q-38 17 -76.5 25t-75.5 8q-29 0 -55.5 -7.5t-47.5 -22.5t-33.5 -37.5
t-12.5 -53.5v-223q0 -31 12.5 -54t33 -38.5t47 -23t54.5 -7.5q37 0 75.5 5t78.5 19v410z" />
    <glyph glyph-name="Dcroat" unicode="&#x110;" horiz-adv-x="637" 
d="M89 708h226q48 0 94 -13t81.5 -38.5t57.5 -64.5t22 -91v-295q0 -52 -22 -90.5t-57.5 -64t-81.5 -38.5t-94 -13h-226v335h-63v32h63v341zM315 39q40 0 79 10.5t69.5 31t49 52t18.5 73.5v295q0 42 -18.5 73.5t-49 52.5t-69.5 31.5t-79 10.5h-187v-302h125v-32h-125v-296
h187z" />
    <glyph glyph-name="dcroat" unicode="&#x111;" horiz-adv-x="511" 
d="M436 616v-595q-45 -14 -93 -22.5t-97 -8.5q-35 1 -68 11t-58.5 29.5t-41.5 49t-16 68.5v222q0 39 16 68.5t42 49.5t60 30t69 10q36 0 74.5 -8t76.5 -25v121h-103v23h103v69h36v-69h65v-23h-65zM400 459q-38 17 -76.5 25t-75.5 8q-29 0 -55.5 -7.5t-47.5 -22.5
t-33.5 -37.5t-12.5 -53.5v-223q0 -31 12.5 -54t33 -38.5t47 -23t54.5 -7.5q37 0 75.5 5t78.5 19v410z" />
    <glyph glyph-name="Emacron" unicode="&#x112;" horiz-adv-x="565" 
d="M191 821h244v-33h-244v33zM126 374h359v-40h-359v-295h389v-39h-428v708h428v-39h-389v-295z" />
    <glyph glyph-name="emacron" unicode="&#x113;" 
d="M127 641h244v-33h-244v33zM99 148q0 -32 12.5 -54.5t33.5 -37.5t48 -22t56 -7q42 0 79 15.5t57 49.5l33 -17q-12 -22 -30 -38t-40.5 -26.5t-47.5 -15.5t-51 -5q-35 0 -68.5 10t-60 29.5t-42.5 49t-16 69.5v222q0 40 16 69.5t42.5 49t60 29.5t68.5 10q34 0 67.5 -10
t60 -29.5t42.5 -49t16 -69.5v-136h-336v-86zM399 372q0 31 -13 53.5t-34 37.5t-48 22.5t-55 7.5q-29 0 -56 -7.5t-48 -22.5t-33.5 -37.5t-12.5 -53.5v-105h300v105z" />
    <glyph glyph-name="Edotaccent" unicode="&#x116;" horiz-adv-x="565" 
d="M279 825q0 14 10 24t24 10t24 -10t10 -24t-10 -24t-24 -10t-24 10t-10 24zM126 374h359v-40h-359v-295h389v-39h-428v708h428v-39h-389v-295z" />
    <glyph glyph-name="edotaccent" unicode="&#x117;" 
d="M215 645q0 14 10 24t24 10t24 -10t10 -24t-10 -24t-24 -10t-24 10t-10 24zM99 148q0 -32 12.5 -54.5t33.5 -37.5t48 -22t56 -7q42 0 79 15.5t57 49.5l33 -17q-12 -22 -30 -38t-40.5 -26.5t-47.5 -15.5t-51 -5q-35 0 -68.5 10t-60 29.5t-42.5 49t-16 69.5v222
q0 40 16 69.5t42.5 49t60 29.5t68.5 10q34 0 67.5 -10t60 -29.5t42.5 -49t16 -69.5v-136h-336v-86zM399 372q0 31 -13 53.5t-34 37.5t-48 22.5t-55 7.5q-29 0 -56 -7.5t-48 -22.5t-33.5 -37.5t-12.5 -53.5v-105h300v105z" />
    <glyph glyph-name="Eogonek" unicode="&#x118;" horiz-adv-x="564" 
d="M445 -152q4 -12 14.5 -17.5t24 -7t28 1.5t27.5 9v-31q-41 -18 -77 -9t-50 41q-13 31 2 74.5t66 90.5h-394v708h428v-39h-389v-295h359v-40h-359v-295h389v-39h-3q-43 -48 -60.5 -84.5t-5.5 -67.5z" />
    <glyph glyph-name="eogonek" unicode="&#x119;" 
d="M99 148q0 -32 12.5 -54.5t33.5 -37.5t48 -22t56 -7q42 0 79 15.5t57 49.5l33 -17q-14 -26 -37.5 -41t-51.5 -33q-18 -12 -34.5 -30.5t-28 -39.5t-15.5 -42.5t4 -37.5q6 -14 19 -21t28 -7.5t31 5t29 14.5l10 -25q-23 -16 -46 -21.5t-43 -2t-35.5 15t-24.5 30.5
q-14 29 2 70.5t59 83.5q-18 -3 -35 -3q-35 0 -68.5 10t-60 29.5t-42.5 49t-16 69.5v222q0 40 16 69.5t42.5 49t60 29.5t68.5 10q34 0 67.5 -10t60 -29.5t42.5 -49t16 -69.5v-136h-336v-86zM249 493q-29 0 -56 -7.5t-48 -22.5t-33.5 -37.5t-12.5 -53.5v-105h300v105
q0 31 -13 53.5t-34 37.5t-48 22.5t-55 7.5z" />
    <glyph glyph-name="Ecaron" unicode="&#x11a;" horiz-adv-x="565" 
d="M231 876l82 -79l82 79h50l-115 -111h-34l-115 111h50zM126 374h359v-40h-359v-295h389v-39h-428v708h428v-39h-389v-295z" />
    <glyph glyph-name="ecaron" unicode="&#x11b;" 
d="M167 696l82 -79l82 79h50l-115 -111h-34l-115 111h50zM99 148q0 -32 12.5 -54.5t33.5 -37.5t48 -22t56 -7q42 0 79 15.5t57 49.5l33 -17q-12 -22 -30 -38t-40.5 -26.5t-47.5 -15.5t-51 -5q-35 0 -68.5 10t-60 29.5t-42.5 49t-16 69.5v222q0 40 16 69.5t42.5 49t60 29.5
t68.5 10q34 0 67.5 -10t60 -29.5t42.5 -49t16 -69.5v-136h-336v-86zM399 372q0 31 -13 53.5t-34 37.5t-48 22.5t-55 7.5q-29 0 -56 -7.5t-48 -22.5t-33.5 -37.5t-12.5 -53.5v-105h300v105z" />
    <glyph glyph-name="Gbreve" unicode="&#x11e;" horiz-adv-x="634" 
d="M325 765q-23 0 -44 9t-36.5 24t-25 35t-10.5 43h37q0 -16 6.5 -29.5t17 -24t25 -16.5t30.5 -6q17 0 32 6t26 16.5t17 24t5 29.5h37q0 -23 -9.5 -43t-25 -35t-37 -24t-45.5 -9zM70 513q0 51 22 89t58 64t81.5 39t93.5 13q35 0 69.5 -7t64.5 -21t54.5 -35t39.5 -50l-35 -18
q-13 24 -34 41.5t-46.5 28.5t-55 16.5t-59.5 5.5q-40 0 -78.5 -10.5t-68.5 -31t-48.5 -51.5t-18.5 -73v-315q0 -42 18.5 -73.5t49 -52.5t69 -31.5t79.5 -10.5q40 0 79 10.5t70 31.5t49.5 52.5t18.5 73.5v108h-217v39h256v-147q0 -52 -22 -91t-58 -65t-82 -39t-94 -13t-94 13
t-81.5 39t-57.5 65t-22 91v315z" />
    <glyph glyph-name="gbreve" unicode="&#x11f;" horiz-adv-x="506" 
d="M253 585q-23 0 -44 9t-36.5 24t-25 35t-10.5 43h37q0 -16 6.5 -29.5t17 -24t25 -16.5t30.5 -6q17 0 32 6t26 16.5t17 24t5 29.5h37q0 -23 -9.5 -43t-25 -35t-37 -24t-45.5 -9zM113 -119q26 -21 61.5 -32t72.5 -11q29 0 56 6.5t47.5 21t33 37t12.5 53.5v71
q-40 -20 -77 -28.5t-72 -8.5t-68 10t-59 29.5t-42 49t-16 68.5v225q0 39 15.5 68t41 48.5t58 29.5t66.5 10q52 0 94.5 -10.5t93.5 -27.5v-533q0 -40 -15.5 -69t-41.5 -47.5t-59 -27.5t-67 -9q-45 0 -86.5 14t-70.5 41zM396 464q-26 11 -68 20t-85 9q-28 0 -54 -7.5
t-46.5 -22.5t-32.5 -37.5t-12 -52.5v-226q0 -31 12.5 -53.5t33 -37.5t47 -22.5t54.5 -8.5q21 0 39 2.5t35.5 7t36 11.5t40.5 16v402z" />
    <glyph glyph-name="Gdotaccent" unicode="&#x120;" horiz-adv-x="634" 
d="M291 825q0 14 10 24t24 10t24 -10t10 -24t-10 -24t-24 -10t-24 10t-10 24zM70 513q0 51 22 89t58 64t81.5 39t93.5 13q35 0 69.5 -7t64.5 -21t54.5 -35t39.5 -50l-35 -18q-13 24 -34 41.5t-46.5 28.5t-55 16.5t-59.5 5.5q-40 0 -78.5 -10.5t-68.5 -31t-48.5 -51.5
t-18.5 -73v-315q0 -42 18.5 -73.5t49 -52.5t69 -31.5t79.5 -10.5q40 0 79 10.5t70 31.5t49.5 52.5t18.5 73.5v108h-217v39h256v-147q0 -52 -22 -91t-58 -65t-82 -39t-94 -13t-94 13t-81.5 39t-57.5 65t-22 91v315z" />
    <glyph glyph-name="gdotaccent" unicode="&#x121;" horiz-adv-x="506" 
d="M219 645q0 14 10 24t24 10t24 -10t10 -24t-10 -24t-24 -10t-24 10t-10 24zM113 -119q26 -21 61.5 -32t72.5 -11q29 0 56 6.5t47.5 21t33 37t12.5 53.5v71q-40 -20 -77 -28.5t-72 -8.5t-68 10t-59 29.5t-42 49t-16 68.5v225q0 39 15.5 68t41 48.5t58 29.5t66.5 10
q52 0 94.5 -10.5t93.5 -27.5v-533q0 -40 -15.5 -69t-41.5 -47.5t-59 -27.5t-67 -9q-45 0 -86.5 14t-70.5 41zM396 464q-26 11 -68 20t-85 9q-28 0 -54 -7.5t-46.5 -22.5t-32.5 -37.5t-12 -52.5v-226q0 -31 12.5 -53.5t33 -37.5t47 -22.5t54.5 -8.5q21 0 39 2.5t35.5 7
t36 11.5t40.5 16v402z" />
    <glyph glyph-name="Gcommaaccent" unicode="&#x122;" horiz-adv-x="634" 
d="M70 513q0 51 22 89t58 64t81.5 39t93.5 13q35 0 69.5 -7t64.5 -21t54.5 -35t39.5 -50l-35 -18q-13 24 -34 41.5t-46.5 28.5t-55 16.5t-59.5 5.5q-40 0 -78.5 -10.5t-68.5 -31t-48.5 -51.5t-18.5 -73v-315q0 -42 18.5 -73.5t49 -52.5t69 -31.5t79.5 -10.5q40 0 79 10.5
t70 31.5t49.5 52.5t18.5 73.5v108h-217v39h256v-147q0 -52 -22 -91t-58 -65t-82 -39t-94 -13t-94 13t-81.5 39t-57.5 65t-22 91v315zM300 -254h-36l54 161h43z" />
    <glyph glyph-name="gcommaaccent" unicode="&#x123;" horiz-adv-x="506" 
d="M276 601h-35l37 107h38zM113 -119q26 -21 61.5 -32t72.5 -11q29 0 56 6.5t47.5 21t33 37t12.5 53.5v71q-40 -20 -77 -28.5t-72 -8.5t-68 10t-59 29.5t-42 49t-16 68.5v225q0 39 15.5 68t41 48.5t58 29.5t66.5 10q52 0 94.5 -10.5t93.5 -27.5v-533q0 -40 -15.5 -69
t-41.5 -47.5t-59 -27.5t-67 -9q-45 0 -86.5 14t-70.5 41zM396 464q-26 11 -68 20t-85 9q-28 0 -54 -7.5t-46.5 -22.5t-32.5 -37.5t-12 -52.5v-226q0 -31 12.5 -53.5t33 -37.5t47 -22.5t54.5 -8.5q21 0 39 2.5t35.5 7t36 11.5t40.5 16v402z" />
    <glyph glyph-name="Hbar" unicode="&#x126;" horiz-adv-x="695" 
d="M603 0h-39v334h-433v-334h-39v534h-77v30h77v144h39v-144h433v144h39v-144h76v-30h-76v-534zM131 534v-161h433v161h-433z" />
    <glyph glyph-name="hbar" unicode="&#x127;" horiz-adv-x="523" 
d="M263 528q35 1 68.5 -9t59.5 -30t42 -49.5t16 -68.5v-371h-36v371q0 31 -13 53.5t-34 37.5t-47.5 22.5t-54.5 7.5q-36 0 -75 -8t-76 -23v-461h-36v607h-57v26h57v75h36v-75h108v-26h-108v-116q79 37 150 37z" />
    <glyph glyph-name="Imacron" unicode="&#x12a;" horiz-adv-x="213" 
d="M-12 821h244v-33h-244v33zM126 0h-39v708h39v-708z" />
    <glyph glyph-name="imacron" unicode="&#x12b;" horiz-adv-x="190" 
d="M3 631h184v-33h-184v33zM113 0h-36v518h36v-518z" />
    <glyph glyph-name="Iogonek" unicode="&#x12e;" horiz-adv-x="213" 
d="M59 -152q4 -12 14.5 -17.5t24 -7t28 1.5t27.5 9v-31q-41 -18 -77 -9t-50 41q-13 31 2 74.5t66 90.5h-7v708h39l-1 -708q-43 -48 -60.5 -84.5t-5.5 -67.5z" />
    <glyph glyph-name="iogonek" unicode="&#x12f;" horiz-adv-x="189" 
d="M95 601q-14 0 -24 10t-10 24t10 24t24 10t24 -10t10 -24t-10 -24t-24 -10zM46 -152q4 -12 14.5 -17.5t24 -7t28 1.5t27.5 9v-31q-41 -18 -77 -9t-50 41q-13 31 2 74.5t66 90.5h-4v518h36l-1 -518q-43 -48 -60.5 -84.5t-5.5 -67.5z" />
    <glyph glyph-name="Idotaccent" unicode="&#x130;" horiz-adv-x="213" 
d="M76 825q0 14 10 24t24 10t24 -10t10 -24t-10 -24t-24 -10t-24 10t-10 24zM126 0h-39v708h39v-708z" />
    <glyph glyph-name="dotlessi" unicode="&#x131;" horiz-adv-x="190" 
d="M113 0h-36v518h36v-518z" />
    <glyph glyph-name="IJ" unicode="&#x132;" horiz-adv-x="797" 
d="M126 0h-39v708h39v-708zM439 708h275v-514q0 -51 -21 -89t-55.5 -63.5t-78.5 -38.5t-90 -13q-39 0 -77 9.5t-69.5 29t-54 49t-32.5 68.5l37 8q8 -32 28 -56t47 -40t59 -24t65 -8q38 0 74.5 10.5t65 31.5t46 52.5t17.5 73.5v475h-236v39z" />
    <glyph glyph-name="ij" unicode="&#x133;" horiz-adv-x="380" 
d="M61 638q0 13 9.5 22t22.5 9t22.5 -9t9.5 -22q0 -14 -9.5 -23t-22.5 -9t-22.5 9t-9.5 23zM113 518v-518h-36v518h36zM253 638q0 14 9 23.5t23 9.5t23 -9.5t9 -23.5q0 -13 -9 -22.5t-23 -9.5t-23 9.5t-9 22.5zM154 -146q113 3 113 124v540h36v-540q0 -77 -40 -117t-109 -43
v36z" />
    <glyph glyph-name="Kcommaaccent" unicode="&#x136;" horiz-adv-x="600" 
d="M126 295l410 413h48l-331 -341l330 -367h-49l-309 339l-99 -99v-240h-39v708h39v-413zM233 -254h-36l54 161h43z" />
    <glyph glyph-name="kcommaaccent" unicode="&#x137;" horiz-adv-x="472" 
d="M113 221l288 297h44l-224 -233l224 -285h-43l-206 259l-83 -83v-176h-36v708h36v-487zM210 -254h-36l54 161h43z" />
    <glyph glyph-name="Lacute" unicode="&#x139;" horiz-adv-x="500" 
d="M111 765h-39l67 111h49zM87 0v708h39v-669h354v-39h-393z" />
    <glyph glyph-name="lacute" unicode="&#x13a;" horiz-adv-x="222" 
d="M103 765h-39l67 111h49zM212 -10q-67 2 -102.5 40.5t-35.5 113.5v564h36v-564q0 -57 24 -87.5t78 -30.5v-36z" />
    <glyph glyph-name="Lcommaaccent" unicode="&#x13b;" horiz-adv-x="500" 
d="M87 0v708h39v-669h354v-39h-393zM236 -254h-36l54 161h43z" />
    <glyph glyph-name="lcommaaccent" unicode="&#x13c;" horiz-adv-x="222" 
d="M212 -10q-67 2 -102.5 40.5t-35.5 113.5v564h36v-564q0 -57 24 -87.5t78 -30.5v-36zM118 -254h-36l54 161h43z" />
    <glyph glyph-name="Lcaron" unicode="&#x13d;" horiz-adv-x="503" 
d="M87 0v708h39v-669h354v-39h-393zM404 547h-36l54 161h43z" />
    <glyph glyph-name="lcaron" unicode="&#x13e;" horiz-adv-x="233" 
d="M212 -10q-67 2 -102.5 40.5t-35.5 113.5v564h36v-564q0 -57 24 -87.5t78 -30.5v-36zM205 556h-32l38 148h39z" />
    <glyph glyph-name="Ldot" unicode="&#x13f;" horiz-adv-x="501" 
d="M87 0v708h39v-669h354v-39h-393zM282 313q0 14 9.5 23.5t23.5 9.5t23.5 -9.5t9.5 -23.5t-9.5 -23.5t-23.5 -9.5t-23.5 9.5t-9.5 23.5z" />
    <glyph glyph-name="ldot" unicode="&#x140;" horiz-adv-x="240" 
d="M212 -10q-67 2 -102.5 40.5t-35.5 113.5v564h36v-564q0 -57 24 -87.5t78 -30.5v-36zM177 316q0 14 9.5 23.5t23.5 9.5t23.5 -9.5t9.5 -23.5t-9.5 -23.5t-23.5 -9.5t-23.5 9.5t-9.5 23.5z" />
    <glyph glyph-name="Lslash" unicode="&#x141;" horiz-adv-x="503" 
d="M94 0v280l-67 -28l-13 30l80 34v392h38v-375l105 49l12 -33l-117 -52v-258h338v-39h-376z" />
    <glyph glyph-name="lslash" unicode="&#x142;" horiz-adv-x="233" 
d="M117 143q0 -55 23.5 -85.5t78.5 -32.5v-36q-67 2 -102.5 42.5t-35.5 111.5v195l-47 -21l-11 28l58 26v338h36v-321l75 34l11 -28l-86 -39v-212z" />
    <glyph glyph-name="Nacute" unicode="&#x143;" horiz-adv-x="672" 
d="M336 765h-39l67 111h49zM546 49v659h39v-708h-57l-402 648v-648h-39v708h49z" />
    <glyph glyph-name="nacute" unicode="&#x144;" horiz-adv-x="520" 
d="M249 585h-39l67 111h49zM75 490q45 16 92.5 27t96.5 11q34 -1 67 -11t58.5 -29.5t41 -49t15.5 -68.5v-370h-36v370q0 31 -13 54t-33.5 38t-46.5 22t-53 7q-43 0 -85 -9.5t-68 -20.5v-461h-36v490z" />
    <glyph glyph-name="Ncommaaccent" unicode="&#x145;" horiz-adv-x="672" 
d="M546 49v659h39v-708h-57l-402 648v-648h-39v708h49zM299 -254h-36l54 161h43z" />
    <glyph glyph-name="ncommaaccent" unicode="&#x146;" horiz-adv-x="520" 
d="M75 490q45 16 92.5 27t96.5 11q34 -1 67 -11t58.5 -29.5t41 -49t15.5 -68.5v-370h-36v370q0 31 -13 54t-33.5 38t-46.5 22t-53 7q-43 0 -85 -9.5t-68 -20.5v-461h-36v490zM227 -254h-36l54 161h43z" />
    <glyph glyph-name="Ncaron" unicode="&#x147;" horiz-adv-x="672" 
d="M256 876l82 -79l82 79h50l-115 -111h-34l-115 111h50zM546 49v659h39v-708h-57l-402 648v-648h-39v708h49z" />
    <glyph glyph-name="ncaron" unicode="&#x148;" horiz-adv-x="520" 
d="M169 696l82 -79l82 79h50l-115 -111h-34l-115 111h50zM75 490q45 16 92.5 27t96.5 11q34 -1 67 -11t58.5 -29.5t41 -49t15.5 -68.5v-370h-36v370q0 31 -13 54t-33.5 38t-46.5 22t-53 7q-43 0 -85 -9.5t-68 -20.5v-461h-36v490z" />
    <glyph glyph-name="Eng" unicode="&#x14a;" horiz-adv-x="671" 
d="M584 -22q0 -77 -40 -117t-109 -43v36q113 3 113 124v22h-21l-402 648v-648h-39v708h49l410 -659v659h39v-730z" />
    <glyph glyph-name="eng" unicode="&#x14b;" horiz-adv-x="518" 
d="M262 528q34 -1 67 -11t58.5 -29.5t41 -49t15.5 -68.5v-392q0 -77 -40 -117t-109 -43v36q113 3 113 124v392q0 31 -13 54t-33.5 38t-46.5 22t-53 7q-43 0 -85 -9.5t-68 -20.5v-461h-36v490q45 16 92.5 27t96.5 11z" />
    <glyph glyph-name="Omacron" unicode="&#x14c;" horiz-adv-x="679" 
d="M218 821h244v-33h-244v33zM69 511q0 52 23 90.5t61 64.5t86.5 39t99.5 13t99.5 -13t86.5 -39t61.5 -64.5t23.5 -90.5v-313q0 -52 -23.5 -91t-61.5 -65t-86.5 -39t-99.5 -13t-99.5 13t-86.5 39t-61 65t-23 91v313zM108 198q0 -42 20 -74t52 -53t73.5 -31.5t85.5 -10.5
q43 0 85 10.5t74.5 31.5t52.5 53t20 74v313q0 45 -20 77t-53 52.5t-75 30t-85 9.5t-84.5 -10t-73.5 -31t-52 -52.5t-20 -75.5v-313z" />
    <glyph glyph-name="omacron" unicode="&#x14d;" horiz-adv-x="497" 
d="M129 641h244v-33h-244v33zM62 369q0 40 16 69.5t42.5 49.5t60 30t68.5 10t68.5 -10t59.5 -30t42 -49.5t16 -69.5v-220q0 -40 -16 -69.5t-42 -49.5t-59.5 -30t-68.5 -10t-68.5 10t-60 30t-42.5 49.5t-16 69.5v220zM249 491q-27 0 -54 -7t-48.5 -22t-35 -38t-13.5 -55v-220
q0 -32 13.5 -55.5t35 -38.5t48.5 -22t54 -7t54 7t48 22t34.5 38.5t13.5 55.5v220q0 32 -13.5 55t-34.5 38t-48 22t-54 7z" />
    <glyph glyph-name="Ohungarumlaut" unicode="&#x150;" horiz-adv-x="679" 
d="M260 765h-31l63 111h48zM411 765h-31l63 111h48zM69 511q0 52 23 90.5t61 64.5t86.5 39t99.5 13t99.5 -13t86.5 -39t61.5 -64.5t23.5 -90.5v-313q0 -52 -23.5 -91t-61.5 -65t-86.5 -39t-99.5 -13t-99.5 13t-86.5 39t-61 65t-23 91v313zM108 198q0 -42 20 -74t52 -53
t73.5 -31.5t85.5 -10.5q43 0 85 10.5t74.5 31.5t52.5 53t20 74v313q0 45 -20 77t-53 52.5t-75 30t-85 9.5t-84.5 -10t-73.5 -31t-52 -52.5t-20 -75.5v-313z" />
    <glyph glyph-name="ohungarumlaut" unicode="&#x151;" horiz-adv-x="497" 
d="M171 585h-31l63 111h48zM322 585h-31l63 111h48zM62 369q0 40 16 69.5t42.5 49.5t60 30t68.5 10t68.5 -10t59.5 -30t42 -49.5t16 -69.5v-220q0 -40 -16 -69.5t-42 -49.5t-59.5 -30t-68.5 -10t-68.5 10t-60 30t-42.5 49.5t-16 69.5v220zM249 491q-27 0 -54 -7t-48.5 -22
t-35 -38t-13.5 -55v-220q0 -32 13.5 -55.5t35 -38.5t48.5 -22t54 -7t54 7t48 22t34.5 38.5t13.5 55.5v220q0 32 -13.5 55t-34.5 38t-48 22t-54 7z" />
    <glyph glyph-name="OE" unicode="&#x152;" horiz-adv-x="938" 
d="M523 672v-300h333v-37h-333v-298h364v-37h-403v33q-40 -21 -79.5 -29.5t-74.5 -7.5q-50 1 -97.5 14.5t-84 40t-59 65t-22.5 89.5v302q0 51 23 90t60.5 64.5t86 39t98.5 13.5q32 0 73.5 -10t75.5 -33v37h403v-36h-364zM484 637q-33 17 -71.5 28t-76.5 10q-43 0 -84.5 -10
t-73.5 -30.5t-52 -52t-20 -75.5v-302q0 -42 20 -74t52 -53.5t73.5 -32t84.5 -10.5q38 0 76 9.5t72 27.5v565z" />
    <glyph glyph-name="oe" unicode="&#x153;" horiz-adv-x="824" 
d="M435 152q0 -32 12.5 -54.5t33.5 -37.5t48 -22t56 -7q42 0 79 15.5t57 49.5l33 -17q-12 -22 -30 -38t-40.5 -26.5t-47.5 -15.5t-51 -5t-51 5t-47 16.5t-40 29t-30 42.5q-12 -26 -30 -44t-40 -29.5t-47.5 -16.5t-50.5 -5q-35 0 -68.5 10t-60 30t-42.5 49.5t-16 69.5v215
q0 40 16 69.5t42.5 49.5t60 30t68.5 10q25 0 51 -6t48.5 -18t40.5 -30t28 -42q23 49 70 71t98 22q34 0 67.5 -10t60 -29.5t42.5 -49t16 -69.5v-130h-336v-82zM249 488q-27 0 -54 -7t-48.5 -22t-35 -38t-13.5 -55v-215q0 -32 13.5 -55.5t35 -38.5t48.5 -22t54 -7
q25 0 50.5 6.5t46.5 20t35 34t17 49.5v240q-3 29 -17 49.5t-35 34t-46.5 20t-50.5 6.5zM735 366q0 31 -13 53.5t-34 37.5t-48 22.5t-55 7.5q-29 0 -56 -7.5t-48 -22.5t-33.5 -37.5t-12.5 -53.5v-99h300v99z" />
    <glyph glyph-name="Racute" unicode="&#x154;" horiz-adv-x="613" 
d="M281 765h-39l67 111h49zM514 0l-238 310h-150v-310h-39v708h257q48 0 89 -11.5t71 -35.5t48 -62t19 -90q0 -57 -16.5 -95t-46.5 -61.5t-71.5 -33t-91.5 -9.5h-23l238 -310h-46zM345 344q93 0 140 37t47 127q0 45 -14 76t-38.5 50t-59 27.5t-75.5 7.5h-219v-325h219z" />
    <glyph glyph-name="racute" unicode="&#x155;" horiz-adv-x="294" 
d="M178 584h-39l67 111h49zM211 526q18 3 33.5 3t33.5 -2v-35q-17 2 -32 1.5t-32 -3.5q-42 -8 -73 -38t-31 -81v-371h-36v371q0 32 10.5 58.5t29.5 46t43.5 32.5t53.5 18z" />
    <glyph glyph-name="Rcommaaccent" unicode="&#x156;" horiz-adv-x="613" 
d="M514 0l-238 310h-150v-310h-39v708h257q48 0 89 -11.5t71 -35.5t48 -62t19 -90q0 -57 -16.5 -95t-46.5 -61.5t-71.5 -33t-91.5 -9.5h-23l238 -310h-46zM345 344q93 0 140 37t47 127q0 45 -14 76t-38.5 50t-59 27.5t-75.5 7.5h-219v-325h219zM261 -254h-36l54 161h43z" />
    <glyph glyph-name="rcommaaccent" unicode="&#x157;" horiz-adv-x="294" 
d="M211 526q18 3 33.5 3t33.5 -2v-35q-17 2 -32 1.5t-32 -3.5q-42 -8 -73 -38t-31 -81v-371h-36v371q0 32 10.5 58.5t29.5 46t43.5 32.5t53.5 18zM72 -254h-36l54 161h43z" />
    <glyph glyph-name="Rcaron" unicode="&#x158;" horiz-adv-x="613" 
d="M201 876l82 -79l82 79h50l-115 -111h-34l-115 111h50zM514 0l-238 310h-150v-310h-39v708h257q48 0 89 -11.5t71 -35.5t48 -62t19 -90q0 -57 -16.5 -95t-46.5 -61.5t-71.5 -33t-91.5 -9.5h-23l238 -310h-46zM345 344q93 0 140 37t47 127q0 45 -14 76t-38.5 50t-59 27.5
t-75.5 7.5h-219v-325h219z" />
    <glyph glyph-name="rcaron" unicode="&#x159;" horiz-adv-x="294" 
d="M118 686l82 -79l82 79h50l-115 -111h-34l-115 111h50zM211 526q18 3 33.5 3t33.5 -2v-35q-17 2 -32 1.5t-32 -3.5q-42 -8 -73 -38t-31 -81v-371h-36v371q0 32 10.5 58.5t29.5 46t43.5 32.5t53.5 18z" />
    <glyph glyph-name="Sacute" unicode="&#x15a;" horiz-adv-x="584" 
d="M299 765h-39l67 111h49zM94 545q-3 -38 12 -65t43 -46.5t65 -32.5t79 -21q45 -9 89 -22t78.5 -36.5t55 -59.5t17.5 -90q-2 -45 -23.5 -78.5t-55.5 -56.5t-76.5 -34.5t-87.5 -11.5q-35 0 -71.5 7.5t-69 23t-59 38.5t-42.5 54l35 16q13 -25 36 -44t50.5 -32t59 -19.5
t63.5 -6.5q36 0 70 8t61.5 25.5t46.5 45t24 66.5q3 46 -14.5 75.5t-48 48.5t-70 29.5t-79.5 19.5q-41 9 -82 22.5t-74 36.5t-52.5 57t-17.5 84q1 43 21.5 75.5t53.5 54t74.5 32t85.5 10.5q36 0 72 -7.5t67.5 -22t57 -37t40.5 -52.5l-35 -15q-13 24 -35 42.5t-49 31t-57.5 19
t-60.5 6.5q-36 0 -70.5 -7t-61.5 -23.5t-44.5 -43t-20.5 -64.5z" />
    <glyph glyph-name="sacute" unicode="&#x15b;" horiz-adv-x="435" 
d="M224 585h-39l67 111h49zM73 104q32 -43 72 -62.5t86 -17.5q21 0 43.5 7t41.5 20.5t30.5 34.5t11.5 49q0 29 -12 48.5t-31 32.5t-41.5 20.5t-44.5 11.5q-30 5 -60.5 14t-55 25t-40 40.5t-15.5 61.5q0 39 17 67t44.5 45t62 23.5t68.5 3t65 -17t52 -36.5l-22 -26
q-26 28 -68 40t-82 5.5t-70 -32.5t-32 -72q0 -31 14.5 -50t36 -30t46 -16.5t45.5 -9.5q29 -5 57 -15.5t50 -28t36 -43t14 -61.5q0 -35 -13.5 -61.5t-36 -45.5t-51.5 -28.5t-60 -9.5q-57 0 -106 23.5t-81 71.5z" />
    <glyph glyph-name="Scedilla" unicode="&#x15e;" horiz-adv-x="584" 
d="M293 380q45 -9 89 -22t78.5 -36.5t55 -59.5t17.5 -90q-2 -42 -21 -74t-49 -54.5t-68.5 -35.5t-79.5 -16l-31 -57q38 0 59.5 -21t15.5 -56q-7 -38 -34 -52.5t-59 -14.5q-28 0 -48 8t-37 19l6 28q19 -11 37 -18t38 -7t37.5 7.5t22.5 31.5q4 18 -3 28.5t-19 15.5t-26.5 4.5
t-25.5 -3.5l-6 8l42 78q-35 1 -70.5 9t-67 23.5t-57.5 38t-41 52.5l35 16q13 -25 36 -44t50.5 -32t59 -19.5t63.5 -6.5q36 0 70 8t61.5 25.5t46.5 45t24 66.5q3 46 -14.5 75.5t-48 48.5t-70 29.5t-79.5 19.5q-41 9 -82 22.5t-74 36.5t-52.5 57t-17.5 84q1 43 21.5 75.5
t53.5 54t74.5 32t85.5 10.5q36 0 72 -7.5t67.5 -22t57 -37t40.5 -52.5l-35 -15q-13 24 -35 42.5t-49 31t-57.5 19t-60.5 6.5q-36 0 -70.5 -7t-61.5 -23.5t-44.5 -43t-20.5 -64.5t12 -65t43 -46.5t65 -32.5t79 -21z" />
    <glyph glyph-name="scedilla" unicode="&#x15f;" horiz-adv-x="435" 
d="M392 135q0 -32 -11.5 -57.5t-31 -43.5t-45 -29t-53.5 -14l-31 -56q38 0 59.5 -21t15.5 -56q-7 -38 -34 -52.5t-59 -14.5q-28 0 -48 8t-37 19l6 28q19 -11 37 -18t38 -7t37.5 7.5t22.5 31.5q4 18 -3 28.5t-19 15.5t-26.5 4.5t-25.5 -3.5l-6 8l41 77q-53 2 -98.5 26
t-76.5 69l29 19q32 -43 72 -62.5t86 -17.5q21 0 43.5 7t41.5 20.5t30.5 34.5t11.5 49q0 29 -12 48.5t-31 32.5t-41.5 20.5t-44.5 11.5q-30 5 -60.5 14t-55 25t-40 40.5t-15.5 61.5q0 39 17 67t44.5 45t62 23.5t68.5 3t65 -17t52 -36.5l-22 -26q-26 28 -68 40t-82 5.5
t-70 -32.5t-32 -72q0 -31 14.5 -50t36 -30t46 -16.5t45.5 -9.5q29 -5 57 -15.5t50 -28t36 -43t14 -61.5z" />
    <glyph glyph-name="Scaron" unicode="&#x160;" horiz-adv-x="584" 
d="M219 876l82 -79l82 79h50l-115 -111h-34l-115 111h50zM94 545q-3 -38 12 -65t43 -46.5t65 -32.5t79 -21q45 -9 89 -22t78.5 -36.5t55 -59.5t17.5 -90q-2 -45 -23.5 -78.5t-55.5 -56.5t-76.5 -34.5t-87.5 -11.5q-35 0 -71.5 7.5t-69 23t-59 38.5t-42.5 54l35 16
q13 -25 36 -44t50.5 -32t59 -19.5t63.5 -6.5q36 0 70 8t61.5 25.5t46.5 45t24 66.5q3 46 -14.5 75.5t-48 48.5t-70 29.5t-79.5 19.5q-41 9 -82 22.5t-74 36.5t-52.5 57t-17.5 84q1 43 21.5 75.5t53.5 54t74.5 32t85.5 10.5q36 0 72 -7.5t67.5 -22t57 -37t40.5 -52.5l-35 -15
q-13 24 -35 42.5t-49 31t-57.5 19t-60.5 6.5q-36 0 -70.5 -7t-61.5 -23.5t-44.5 -43t-20.5 -64.5z" />
    <glyph glyph-name="scaron" unicode="&#x161;" horiz-adv-x="435" 
d="M144 696l82 -79l82 79h50l-115 -111h-34l-115 111h50zM73 104q32 -43 72 -62.5t86 -17.5q21 0 43.5 7t41.5 20.5t30.5 34.5t11.5 49q0 29 -12 48.5t-31 32.5t-41.5 20.5t-44.5 11.5q-30 5 -60.5 14t-55 25t-40 40.5t-15.5 61.5q0 39 17 67t44.5 45t62 23.5t68.5 3t65 -17
t52 -36.5l-22 -26q-26 28 -68 40t-82 5.5t-70 -32.5t-32 -72q0 -31 14.5 -50t36 -30t46 -16.5t45.5 -9.5q29 -5 57 -15.5t50 -28t36 -43t14 -61.5q0 -35 -13.5 -61.5t-36 -45.5t-51.5 -28.5t-60 -9.5q-57 0 -106 23.5t-81 71.5z" />
    <glyph glyph-name="Tcommaaccent" unicode="&#x162;" horiz-adv-x="551" 
d="M20 0zM531 669h-236v-669h-39v669h-236v39h511v-39zM233 -254h-36l54 161h43z" />
    <glyph glyph-name="tcommaaccent" unicode="&#x163;" horiz-adv-x="260" 
d="M74 0zM147 -254h-36l54 161h43zM247 -9q-35 -2 -66.5 6t-55 27.5t-37.5 50.5t-14 74v485h33l3 -116h112v-34h-112v-335q0 -35 12.5 -59.5t32 -39.5t44 -21t48.5 -4v-34z" />
    <glyph glyph-name="Tcaron" unicode="&#x164;" horiz-adv-x="551" 
d="M194 876l82 -79l82 79h50l-115 -111h-34l-115 111h50zM531 669h-236v-669h-39v669h-236v39h511v-39z" />
    <glyph glyph-name="tcaron" unicode="&#x165;" horiz-adv-x="260" 
d="M254 547h-33l44 161h40zM247 -9q-35 -2 -66.5 6t-55 27.5t-37.5 50.5t-14 74v485h33l3 -116h112v-34h-112v-335q0 -35 12.5 -59.5t32 -39.5t44 -21t48.5 -4v-34z" />
    <glyph glyph-name="Tbar" unicode="&#x166;" horiz-adv-x="555" 
d="M297 389h102v-29h-102v-360h-39v360h-102v29h102v280h-236v39h511v-39h-236v-280z" />
    <glyph glyph-name="tbar" unicode="&#x167;" horiz-adv-x="264" 
d="M251 -9q-35 -2 -66.5 6t-55 27.5t-37.5 50.5t-14 74v155h-50v28h50v302h33l3 -116h112v-34h-112v-152h87v-28h-87v-155q0 -35 12.5 -59.5t32 -39.5t44 -21t48.5 -4v-34z" />
    <glyph glyph-name="Umacron" unicode="&#x16a;" horiz-adv-x="677" 
d="M217 821h244v-33h-244v33zM122 201q0 -43 18.5 -75t49 -53.5t69 -32t79.5 -10.5q40 0 79 10.5t70 32t49.5 53.5t18.5 75v507h39v-507q0 -53 -22 -92.5t-58 -65.5t-82 -39.5t-94 -13.5t-94 13.5t-81.5 39.5t-57.5 65.5t-22 92.5v507h39v-507z" />
    <glyph glyph-name="umacron" unicode="&#x16b;" horiz-adv-x="519" 
d="M140 641h244v-33h-244v33zM444 28q-45 -16 -92.5 -27t-96.5 -11q-34 1 -67 11t-58.5 29.5t-41 49t-15.5 68.5v370h36v-370q0 -31 13 -54t33.5 -38t46.5 -22t53 -7q43 0 85 9.5t68 20.5v461h36v-490z" />
    <glyph glyph-name="Uring" unicode="&#x16e;" horiz-adv-x="677" 
d="M419 833q0 -37 -22 -59t-58 -22t-58 22t-22 59t22 59t58 22t58 -22t22 -59zM390 833q0 24 -14 39t-37 15t-37 -15t-14 -39t14 -39t37 -15t37 15t14 39zM122 201q0 -43 18.5 -75t49 -53.5t69 -32t79.5 -10.5q40 0 79 10.5t70 32t49.5 53.5t18.5 75v507h39v-507
q0 -53 -22 -92.5t-58 -65.5t-82 -39.5t-94 -13.5t-94 13.5t-81.5 39.5t-57.5 65.5t-22 92.5v507h39v-507z" />
    <glyph glyph-name="uring" unicode="&#x16f;" horiz-adv-x="519" 
d="M342 653q0 -37 -22 -59t-58 -22t-58 22t-22 59t22 59t58 22t58 -22t22 -59zM313 653q0 24 -14 39t-37 15t-37 -15t-14 -39t14 -39t37 -15t37 15t14 39zM444 28q-45 -16 -92.5 -27t-96.5 -11q-34 1 -67 11t-58.5 29.5t-41 49t-15.5 68.5v370h36v-370q0 -31 13 -54
t33.5 -38t46.5 -22t53 -7q43 0 85 9.5t68 20.5v461h36v-490z" />
    <glyph glyph-name="Uhungarumlaut" unicode="&#x170;" horiz-adv-x="677" 
d="M259 765h-31l63 111h48zM410 765h-31l63 111h48zM122 201q0 -43 18.5 -75t49 -53.5t69 -32t79.5 -10.5q40 0 79 10.5t70 32t49.5 53.5t18.5 75v507h39v-507q0 -53 -22 -92.5t-58 -65.5t-82 -39.5t-94 -13.5t-94 13.5t-81.5 39.5t-57.5 65.5t-22 92.5v507h39v-507z" />
    <glyph glyph-name="uhungarumlaut" unicode="&#x171;" horiz-adv-x="519" 
d="M182 585h-31l63 111h48zM333 585h-31l63 111h48zM444 28q-45 -16 -92.5 -27t-96.5 -11q-34 1 -67 11t-58.5 29.5t-41 49t-15.5 68.5v370h36v-370q0 -31 13 -54t33.5 -38t46.5 -22t53 -7q43 0 85 9.5t68 20.5v461h36v-490z" />
    <glyph glyph-name="Uogonek" unicode="&#x172;" horiz-adv-x="677" 
d="M594 204q0 -45 -16 -78t-38.5 -55.5t-45.5 -37t-36 -23.5q-20 -14 -38 -34t-30.5 -42t-17 -44t3.5 -39q6 -14 18.5 -21t28 -7.5t31.5 5t29 14.5l10 -25q-23 -16 -46 -21.5t-43.5 -2t-36 15t-24.5 30.5q-7 15 -6 35t9.5 41.5t23.5 42.5t35 39q-14 -4 -32 -5.5t-35 -1.5
q-48 0 -94 13.5t-81.5 39.5t-57.5 65.5t-22 92.5v507h39v-507q0 -43 18.5 -75t49 -53.5t69 -32t79.5 -10.5q43 0 82 12t69 35t48 56.5t18 76.5v498h39v-504z" />
    <glyph glyph-name="uogonek" unicode="&#x173;" horiz-adv-x="520" 
d="M471 -183q-23 -16 -46.5 -21.5t-44 -2.5t-36 14.5t-23.5 30.5q-6 14 -4.5 35.5t11.5 45.5t28.5 49.5t45.5 48.5q-34 -14 -73 -20.5t-74 -6.5q-34 1 -67 11t-58.5 29.5t-41 49t-15.5 68.5v370h36v-370q0 -31 13 -54t33.5 -38t46.5 -22t53 -7q43 0 85 9.5t68 20.5v461h36
v-490q-54 -54 -78 -100t-12 -77q6 -14 18.5 -21t28 -7.5t31.5 5t29 14.5z" />
    <glyph glyph-name="Wcircumflex" unicode="&#x174;" horiz-adv-x="932" 
d="M598 765h-50l-82 79l-82 -79h-50l115 111h34zM911 708l-208 -709h-57l-180 557l-181 -557h-57l-206 709h40l193 -683h4l186 580h42l186 -580h4l194 683h40z" />
    <glyph glyph-name="wcircumflex" unicode="&#x175;" horiz-adv-x="716" 
d="M491 585h-50l-82 79l-82 -79h-50l115 111h34zM182 0l-157 518h37l148 -488l120 488h55l122 -486l147 486h37l-157 -518h-56l-120 494l-122 -494h-54z" />
    <glyph glyph-name="Ycircumflex" unicode="&#x176;" horiz-adv-x="540" 
d="M402 765h-50l-82 79l-82 -79h-50l115 111h34zM289 0h-39v280l-238 427h45l213 -391l212 391h46l-239 -427v-280z" />
    <glyph glyph-name="ycircumflex" unicode="&#x177;" horiz-adv-x="520" 
d="M391 585h-50l-82 79l-82 -79h-50l115 111h34zM443 -43q0 -40 -15.5 -69t-41.5 -47.5t-59 -27.5t-67 -9q-45 0 -86.5 14t-70.5 41l22 22q26 -21 61.5 -32t72.5 -11q30 0 57 7t47.5 21t32.5 36.5t12 53.5v71q-40 -20 -77 -28.5t-72 -8.5t-68.5 10t-59.5 29.5t-42 49
t-16 68.5v370h36v-370q0 -31 12.5 -54.5t33 -39t47 -23.5t55.5 -8q24 0 42 2.5t34.5 7t34 12t40.5 17.5v456h35v-560z" />
    <glyph glyph-name="Ydieresis" unicode="&#x178;" horiz-adv-x="540" 
d="M154 821q0 13 9 21.5t21 8.5q13 0 21.5 -8.5t8.5 -21.5q0 -12 -8.5 -21t-21.5 -9q-12 0 -21 9t-9 21zM329 821q0 13 8.5 21.5t21.5 8.5q12 0 21 -8.5t9 -21.5q0 -12 -9 -21t-21 -9q-13 0 -21.5 9t-8.5 21zM289 0h-39v280l-238 427h45l213 -391l212 391h46l-239 -427v-280
z" />
    <glyph glyph-name="Zacute" unicode="&#x179;" horiz-adv-x="559" 
d="M296 765h-39l67 111h49zM47 708h462l21 -22l-450 -650h436v-36h-473l-17 23l449 649h-428v36z" />
    <glyph glyph-name="zacute" unicode="&#x17a;" horiz-adv-x="449" 
d="M232 585h-39l67 111h49zM50 518h346l15 -24l-331 -459h326v-35h-356l-19 28l330 456h-311v34z" />
    <glyph glyph-name="Zdotaccent" unicode="&#x17b;" horiz-adv-x="559" 
d="M264 825q0 14 10 24t24 10t24 -10t10 -24t-10 -24t-24 -10t-24 10t-10 24zM47 708h462l21 -22l-450 -650h436v-36h-473l-17 23l449 649h-428v36z" />
    <glyph glyph-name="zdotaccent" unicode="&#x17c;" horiz-adv-x="449" 
d="M200 645q0 14 10 24t24 10t24 -10t10 -24t-10 -24t-24 -10t-24 10t-10 24zM50 518h346l15 -24l-331 -459h326v-35h-356l-19 28l330 456h-311v34z" />
    <glyph glyph-name="Zcaron" unicode="&#x17d;" horiz-adv-x="559" 
d="M216 876l82 -79l82 79h50l-115 -111h-34l-115 111h50zM47 708h462l21 -22l-450 -650h436v-36h-473l-17 23l449 649h-428v36z" />
    <glyph glyph-name="zcaron" unicode="&#x17e;" horiz-adv-x="449" 
d="M152 696l82 -79l82 79h50l-115 -111h-34l-115 111h50zM50 518h346l15 -24l-331 -459h326v-35h-356l-19 28l330 456h-311v34z" />
    <glyph glyph-name="florin" unicode="&#x192;" horiz-adv-x="421" 
d="M392 673q-11 5 -22 8t-22 3q-21 0 -37 -9t-27.5 -23.5t-18.5 -32t-10 -33.5l-30 -169h110l-1 -33h-116l-73 -402q-10 -52 -42.5 -84t-90.5 -32q-11 0 -20.5 1t-19.5 4l13 34q21 -5 41 -3.5t36.5 11t28.5 29t18 50.5l70 392h-110l1 33h116l33 170q5 24 14.5 47t24.5 42
t37 30.5t53 11.5t58 -12z" />
    <glyph glyph-name="Scommaaccent" unicode="&#x218;" horiz-adv-x="584" 
d="M94 545q-3 -38 12 -65t43 -46.5t65 -32.5t79 -21q45 -9 89 -22t78.5 -36.5t55 -59.5t17.5 -90q-2 -45 -23.5 -78.5t-55.5 -56.5t-76.5 -34.5t-87.5 -11.5q-35 0 -71.5 7.5t-69 23t-59 38.5t-42.5 54l35 16q13 -25 36 -44t50.5 -32t59 -19.5t63.5 -6.5q36 0 70 8
t61.5 25.5t46.5 45t24 66.5q3 46 -14.5 75.5t-48 48.5t-70 29.5t-79.5 19.5q-41 9 -82 22.5t-74 36.5t-52.5 57t-17.5 84q1 43 21.5 75.5t53.5 54t74.5 32t85.5 10.5q36 0 72 -7.5t67.5 -22t57 -37t40.5 -52.5l-35 -15q-13 24 -35 42.5t-49 31t-57.5 19t-60.5 6.5
q-36 0 -70.5 -7t-61.5 -23.5t-44.5 -43t-20.5 -64.5zM256 -254h-36l54 161h43z" />
    <glyph glyph-name="scommaaccent" unicode="&#x219;" horiz-adv-x="435" 
d="M73 104q32 -43 72 -62.5t86 -17.5q21 0 43.5 7t41.5 20.5t30.5 34.5t11.5 49q0 29 -12 48.5t-31 32.5t-41.5 20.5t-44.5 11.5q-30 5 -60.5 14t-55 25t-40 40.5t-15.5 61.5q0 39 17 67t44.5 45t62 23.5t68.5 3t65 -17t52 -36.5l-22 -26q-26 28 -68 40t-82 5.5t-70 -32.5
t-32 -72q0 -31 14.5 -50t36 -30t46 -16.5t45.5 -9.5q29 -5 57 -15.5t50 -28t36 -43t14 -61.5q0 -35 -13.5 -61.5t-36 -45.5t-51.5 -28.5t-60 -9.5q-57 0 -106 23.5t-81 71.5zM192 -254h-36l54 161h43z" />
    <glyph glyph-name="uni021A" unicode="&#x21a;" horiz-adv-x="551" 
d="M531 669h-236v-669h-39v669h-236v39h511v-39zM233 -254h-36l54 161h43z" />
    <glyph glyph-name="uni021B" unicode="&#x21b;" horiz-adv-x="260" 
d="M147 -254h-36l54 161h43zM247 -9q-35 -2 -66.5 6t-55 27.5t-37.5 50.5t-14 74v485h33l3 -116h112v-34h-112v-335q0 -35 12.5 -59.5t32 -39.5t44 -21t48.5 -4v-34z" />
    <glyph glyph-name="circumflex" unicode="&#x2c6;" horiz-adv-x="322" 
d="M300 765h-50l-82 79l-82 -79h-50l115 111h34z" />
    <glyph glyph-name="caron" unicode="&#x2c7;" horiz-adv-x="278" 
d="M86 876l82 -79l82 79h50l-115 -111h-34l-115 111h50z" />
    <glyph glyph-name="uni02C9" unicode="&#x2c9;" horiz-adv-x="354" 
d="M55 821h244v-33h-244v33z" />
    <glyph glyph-name="breve" unicode="&#x2d8;" horiz-adv-x="366" 
d="M183 765q-23 0 -44 9t-36.5 24t-25 35t-10.5 43h37q0 -16 6.5 -29.5t17 -24t25 -16.5t30.5 -6q17 0 32 6t26 16.5t17 24t5 29.5h37q0 -23 -9.5 -43t-25 -35t-37 -24t-45.5 -9z" />
    <glyph glyph-name="dotaccent" unicode="&#x2d9;" horiz-adv-x="240" 
d="M105 825q0 14 10 24t24 10t24 -10t10 -24t-10 -24t-24 -10t-24 10t-10 24z" />
    <glyph glyph-name="ring" unicode="&#x2da;" horiz-adv-x="239" 
d="M185 833q0 -37 -22 -59t-58 -22t-58 22t-22 59t22 59t58 22t58 -22t22 -59zM156 833q0 24 -14 39t-37 15t-37 -15t-14 -39t14 -39t37 -15t37 15t14 39z" />
    <glyph glyph-name="ogonek" unicode="&#x2db;" horiz-adv-x="229" 
d="M188 -197q-41 -18 -77 -9t-50 41q-13 31 2.5 75t66.5 91h31q-44 -48 -61.5 -85t-5.5 -68q4 -12 14.5 -17.5t24 -7t28 1.5t27.5 9v-31z" />
    <glyph glyph-name="tilde" unicode="&#x2dc;" horiz-adv-x="271" 
d="M-12 789q2 37 23.5 57t47.5 22q21 1 37.5 -9t31 -22.5t28 -23t28.5 -9.5q38 3 46 53l28 -7q-2 -33 -20.5 -55t-50.5 -24q-20 -1 -36 9t-30 22.5t-28.5 23t-31.5 9.5q-16 -1 -29 -14.5t-17 -39.5z" />
    <glyph glyph-name="hungarumlaut" unicode="&#x2dd;" horiz-adv-x="258" 
d="M61 765h-31l63 111h48zM212 765h-31l63 111h48z" />
    <glyph glyph-name="uni0326" unicode="&#x326;" horiz-adv-x="0" 
d="M89 -254h-36l54 161h43z" />
    <glyph glyph-name="uni03A9" unicode="&#x3a9;" horiz-adv-x="772" 
d="M212 62q-31 25 -58 57.5t-47.5 72.5t-32 86.5t-11.5 99.5q0 75 26 136.5t70.5 105.5t104 68t127.5 24q71 0 129.5 -26.5t100 -71.5t64.5 -105t23 -127q0 -55 -13 -105t-35 -93.5t-52 -79t-63 -60.5h176v-34h-248v21q41 25 77 60t62.5 79.5t42 97.5t15.5 114
q0 52 -18.5 104.5t-54.5 94.5t-88 68t-118 26q-62 0 -115 -22.5t-91.5 -62.5t-60.5 -95t-22 -119q0 -59 15.5 -109.5t43 -93.5t64 -78t78.5 -63v-22h-252v34h182z" />
    <glyph glyph-name="uni03BC" unicode="&#x3bc;" horiz-adv-x="527" 
d="M414 103q-23 -51 -71 -78t-102 -27q-42 0 -73 14.5t-54 54.5v-285h-37v737h38v-329q0 -27 5 -55t19 -51t38.5 -37.5t63.5 -14.5q36 0 67 12t54 37t36 62.5t13 87.5v288h38l3 -519h-36z" />
    <glyph glyph-name="pi" unicode="&#x3c0;" horiz-adv-x="547" 
d="M490 -1q-28 0 -46 10t-28.5 27t-14.5 41t-4 51v358h-228v-486h-35v486q-45 0 -69.5 -2.5t-39.5 -7.5l-7 23q17 8 45 14t74 6h379q-2 -11 -2 -18t-1 -15h-78l-1 -358q-2 -47 9 -71.5t46 -24.5z" />
    <glyph glyph-name="uni0401" unicode="&#x401;" horiz-adv-x="565" 
d="M197 821q0 13 9 21.5t21 8.5q13 0 21.5 -8.5t8.5 -21.5q0 -12 -8.5 -21t-21.5 -9q-12 0 -21 9t-9 21zM372 821q0 13 8.5 21.5t21.5 8.5q12 0 21 -8.5t9 -21.5q0 -12 -9 -21t-21 -9q-13 0 -21.5 9t-8.5 21zM126 374h359v-40h-359v-295h389v-39h-428v708h428v-39h-389v-295
z" />
    <glyph glyph-name="uni0410" unicode="&#x410;" horiz-adv-x="604" 
d="M590 0h-42l-89 246h-317l-86 -246h-42l259 708h57zM156 285h290l-145 394z" />
    <glyph glyph-name="uni0411" unicode="&#x411;" horiz-adv-x="616" 
d="M354 400q108 0 164.5 -50t55.5 -157q0 -55 -17.5 -92t-48 -59.5t-71.5 -32t-89 -9.5h-261v708h436v-37h-397v-271h228zM350 38q40 -1 74 7t59 26.5t38.5 48.5t13.5 75q0 88 -48 128t-138 40h-223v-325h224z" />
    <glyph glyph-name="uni0412" unicode="&#x412;" horiz-adv-x="631" 
d="M579 192q-1 -53 -19 -90t-48 -60t-71 -33t-89 -10h-265v709h266q39 0 74 -11.5t61.5 -33.5t41.5 -55t15 -75q0 -27 -3.5 -48.5t-14 -40.5t-30.5 -35.5t-53 -32.5q46 -14 73 -33t41 -42.5t17.5 -51t3.5 -57.5zM353 392q33 0 61.5 8t49.5 25.5t32.5 44t11.5 62.5
q0 35 -12 61t-33 43.5t-49.5 26.5t-60.5 9h-227v-280h227zM353 38q41 -1 75.5 6.5t59 25.5t38.5 48t14 75q0 89 -50.5 127t-136.5 37h-227v-319h227z" />
    <glyph glyph-name="uni0413" unicode="&#x413;" horiz-adv-x="515" 
d="M87 0v708h408v-39h-370v-669h-38z" />
    <glyph glyph-name="uni0414" unicode="&#x414;" horiz-adv-x="671" 
d="M595 -150v150h-543v-150h-40v189h24q42 5 67 34.5t39.5 83.5t22 131.5t14.5 178.5l16 241h372v-669h67v-189h-39zM217 417q-5 -86 -13 -150.5t-20 -111t-29 -75t-40 -41.5h412v630h-295z" />
    <glyph glyph-name="uni0415" unicode="&#x415;" horiz-adv-x="565" 
d="M126 374h359v-40h-359v-295h389v-39h-428v708h428v-39h-389v-295z" />
    <glyph glyph-name="uni0416" unicode="&#x416;" horiz-adv-x="876" 
d="M534 344l-77 -84v-260h-38v260l-77 84l-270 -344h-51l292 372l-301 336l55 -1l352 -396v397h38v-397l352 396l55 1l-301 -336l292 -372h-51z" />
    <glyph glyph-name="uni0417" unicode="&#x417;" horiz-adv-x="536" 
d="M259 718q42 0 77 -12t60 -35.5t39 -58t14 -79.5q0 -26 -4.5 -48t-16 -41t-30.5 -35.5t-49 -31.5q44 -15 70.5 -35t40.5 -44t18.5 -50.5t4.5 -55.5q-1 -55 -19 -93.5t-48 -62.5t-71 -35t-88 -11q-74 0 -132.5 26t-96.5 83l34 19q68 -90 197 -90q40 -1 74 8.5t59 29.5
t38.5 51.5t13.5 75.5q0 88 -50 126.5t-135 38.5h-90v35h90q66 0 109.5 33.5t43.5 105.5q0 38 -12 66t-32.5 46.5t-48.5 27.5t-61 9q-54 0 -97 -17.5t-72 -55.5l-32 17q34 51 85 72t117 21z" />
    <glyph glyph-name="uni0418" unicode="&#x418;" horiz-adv-x="684" 
d="M558 650l-417 -650h-54v708h38v-587l-1 -74h1l45 69l379 592h48v-708h-38v650h-1z" />
    <glyph glyph-name="uni0419" unicode="&#x419;" horiz-adv-x="684" 
d="M498 921q-9 -61 -50 -98t-104 -37t-104 37t-49 98h38q10 -43 37 -70.5t78 -27.5t78 27.5t37 70.5h39zM558 650l-35 -55l-382 -595h-54v708h38v-661h1l51 81l371 580h49v-708h-38v650h-1z" />
    <glyph glyph-name="uni041A" unicode="&#x41a;" horiz-adv-x="600" 
d="M126 295l410 413h48l-331 -341l330 -367h-49l-309 339l-99 -99v-240h-39v708h39v-413z" />
    <glyph glyph-name="uni041B" unicode="&#x41b;" horiz-adv-x="662" 
d="M242 669l-19 -268q-4 -50 -8.5 -99.5t-13.5 -94t-23.5 -82.5t-37.5 -66t-55.5 -43.5t-77.5 -15.5v39q52 0 84 30t51 81.5t27.5 119.5t13.5 144l21 294h371v-708h-39v669h-294z" />
    <glyph glyph-name="uni041C" unicode="&#x41c;" horiz-adv-x="799" 
d="M126 679v-679h-39v708h68l245 -556l246 556h66v-708h-39v678l-252 -571h-42z" />
    <glyph glyph-name="uni041D" unicode="&#x41d;" horiz-adv-x="685" 
d="M126 0h-39v708h39v-335h433v335h39v-708h-39v334h-433v-334z" />
    <glyph glyph-name="uni041E" unicode="&#x41e;" horiz-adv-x="674" 
d="M69 513q0 51 23 89.5t60.5 64t85.5 38.5t99 13q50 0 98.5 -13t86 -38.5t60.5 -64t23 -89.5v-316q0 -51 -23 -90t-60.5 -64.5t-86 -38.5t-98.5 -13q-51 0 -99 13t-85.5 38.5t-60.5 64.5t-23 90v316zM107 197q0 -42 19.5 -73.5t52 -52.5t73.5 -31.5t85 -10.5q43 0 84 10.5
t73.5 31.5t52.5 52.5t20 73.5v316q0 44 -20 75.5t-52.5 52t-74 30t-84.5 9.5t-84 -10t-73.5 -30.5t-52 -52t-19.5 -74.5v-316z" />
    <glyph glyph-name="uni041F" unicode="&#x41f;" horiz-adv-x="672" 
d="M87 708h498v-708h-38v669h-422v-669h-38v708z" />
    <glyph glyph-name="uni0420" unicode="&#x420;" horiz-adv-x="607" 
d="M87 1v707h257q74 0 124 -32t75 -80t25.5 -104t-24.5 -104t-74.5 -80.5t-124.5 -32.5h-219v-274h-39zM344 314q63 0 104 26.5t60.5 66t18.5 85.5t-21.5 85.5t-61.5 65.5t-100 26h-218v-355h218z" />
    <glyph glyph-name="uni0421" unicode="&#x421;" horiz-adv-x="591" 
d="M72 513q0 51 22.5 89t58.5 64t82.5 39t94.5 13q35 0 69.5 -6.5t65 -20.5t55 -35t39.5 -50l-35 -18q-14 22 -35 39.5t-47 28.5t-55.5 17t-59.5 6q-40 0 -79 -10.5t-69.5 -31t-49 -51.5t-18.5 -73v-318q0 -42 18.5 -73t49 -51.5t69.5 -31t79 -10.5q30 0 59 6t55.5 17t48 28
t35.5 40l34 -17q-15 -29 -40 -50t-56 -35t-65.5 -21t-70.5 -7q-47 0 -93 13t-82 38.5t-58 64t-22 89.5v318z" />
    <glyph glyph-name="uni0422" unicode="&#x422;" horiz-adv-x="551" 
d="M531 669h-236v-669h-39v669h-236v39h511v-39z" />
    <glyph glyph-name="uni0423" unicode="&#x423;" horiz-adv-x="509" 
d="M-1 708h47l169 -352l45 -92h1l38 85l162 359h42l-320 -708h-43l100 218z" />
    <glyph glyph-name="uni0424" unicode="&#x424;" horiz-adv-x="724" 
d="M381 627q55 0 107 -7.5t92.5 -27t65 -53.5t24.5 -87v-196q0 -53 -24.5 -87t-65 -53.5t-92.5 -27t-107 -7.5v-81h-39v81q-55 0 -106.5 7.5t-92 27t-65 53.5t-24.5 87v196q0 53 24.5 87t65 53.5t92 27t106.5 7.5v81h39v-81zM343 590q-44 0 -88.5 -5t-80.5 -20t-58.5 -42
t-22.5 -71v-196q0 -44 22.5 -71t58 -42t80 -20t88.5 -5zM381 118q44 0 88.5 5t80.5 20t58.5 42t22.5 71v196q0 44 -23 71t-59 42t-80.5 20t-87.5 5v-472z" />
    <glyph glyph-name="uni0425" unicode="&#x425;" horiz-adv-x="556" 
d="M536 0h-47l-211 325l-212 -325h-47l236 353l-234 354h44l213 -320l211 320h46l-234 -354z" />
    <glyph glyph-name="uni0426" unicode="&#x426;" horiz-adv-x="680" 
d="M604 -150v150h-518v708h38v-669h412v669h40v-669h67v-189h-39z" />
    <glyph glyph-name="uni0427" unicode="&#x427;" horiz-adv-x="603" 
d="M477 330q-38 -40 -85.5 -66t-113.5 -26q-46 0 -87 13t-71.5 39t-48 65.5t-17.5 92.5v260h38v-260q0 -44 15.5 -76t41 -53t59.5 -31.5t70 -10.5q35 0 64 7.5t53 20t44 30t38 38.5v335h39v-708h-39v330z" />
    <glyph glyph-name="uni0428" unicode="&#x428;" horiz-adv-x="879" 
d="M125 708v-669h295v669h39v-669h294v669h39v-708h-705v708h38z" />
    <glyph glyph-name="uni0429" unicode="&#x429;" horiz-adv-x="895" 
d="M818 -150v150h-733v708h38v-669h295v669h39v-669h294v669h40v-669h66v-189h-39z" />
    <glyph glyph-name="uni042A" unicode="&#x42a;" horiz-adv-x="675" 
d="M414 414q108 0 164.5 -51.5t55.5 -167.5q-1 -56 -18.5 -93t-47.5 -60t-71 -32.5t-89 -9.5h-255v671h-133v37h171v-294h223zM410 38q40 0 74 8t59 26.5t38.5 49t13.5 74.5q0 97 -48 139t-139 42h-217v-339h219z" />
    <glyph glyph-name="uni042B" unicode="&#x42b;" horiz-adv-x="813" 
d="M348 414q108 0 164.5 -52t55.5 -167q0 -56 -17.5 -93t-48 -60t-71.5 -32.5t-88 -9.5h-256v708h39v-294h222zM726 708v-708h-38v708h38zM344 38q40 0 74.5 8t59 26.5t38.5 49t14 74.5q0 97 -48.5 139t-138.5 42h-217v-339h218z" />
    <glyph glyph-name="uni042C" unicode="&#x42c;" horiz-adv-x="609" 
d="M348 414q108 0 164.5 -52t55.5 -167q0 -56 -17.5 -93t-48 -60t-71.5 -32.5t-88 -9.5h-256v708h39v-294h222zM344 38q40 0 74.5 8t59 26.5t38.5 49t14 74.5q0 97 -48.5 139t-138.5 42h-217v-339h218z" />
    <glyph glyph-name="uni042D" unicode="&#x42d;" horiz-adv-x="597" 
d="M270 718q50 0 96 -13t81.5 -38.5t56.5 -64t21 -88.5v-320q0 -51 -22 -89t-57.5 -63.5t-81 -38t-92.5 -12.5q-35 0 -69 7t-64.5 21t-55.5 35t-41 49l35 17q28 -46 82 -68.5t113 -22.5q40 0 78.5 10.5t68.5 31t48.5 51.5t18.5 72v140h-332v40h332v140q0 41 -18.5 72
t-48.5 52t-68.5 31.5t-78.5 10.5q-29 0 -58.5 -6t-55.5 -18t-47.5 -29.5t-34.5 -40.5l-34 21q16 28 41 48.5t55 34.5t63.5 21t68.5 7z" />
    <glyph glyph-name="uni042E" unicode="&#x42e;" horiz-adv-x="918" 
d="M581 718q50 0 98.5 -12.5t86 -38t60.5 -64t23 -90.5v-316q0 -52 -23 -91t-60.5 -64.5t-86 -38t-98.5 -12.5t-98.5 12.5t-86 38t-60.5 64.5t-23 91v141h-190v-338h-38v708h38v-332h190v137q0 52 23 90.5t60.5 64t86 38t98.5 12.5zM580 680q-43 0 -84 -10t-73 -30.5
t-51.5 -52t-19.5 -74.5v-316q0 -42 19.5 -73.5t51.5 -52.5t73 -31.5t85 -10.5q43 0 84 10.5t73.5 31.5t52.5 52.5t20 73.5v316q0 44 -20 75.5t-52.5 52t-74 30t-84.5 9.5z" />
    <glyph glyph-name="uni042F" unicode="&#x42f;" horiz-adv-x="619" 
d="M341 304l-262 -304h-50l263 305q-48 0 -92 10.5t-77 33.5t-53 59.5t-20 89.5q0 45 14.5 83.5t43.5 66.5t73.5 44t103.5 16h247v-708h-39l1 304h-153zM279 670q-50 0 -86 -13.5t-59 -37t-34 -55t-11 -66.5q0 -42 18 -72t46.5 -48.5t64 -27.5t71.5 -9h205l-1 329h-214z" />
    <glyph glyph-name="uni0430" unicode="&#x430;" horiz-adv-x="487" 
d="M42 0zM379 376q0 31 -13 53.5t-34.5 37t-49 21t-56.5 6.5q-74 0 -129 -51l-22 24q32 33 72 47t85 14q35 0 68 -9.5t58.5 -28.5t41 -47.5t15.5 -66.5v-357q-48 -16 -99 -23t-103 -6q-36 0 -67 10.5t-54 31t-36.5 50t-13.5 67.5q0 43 16 73t42.5 49t61 27.5t71.5 8.5
q34 0 72.5 -6.5t73.5 -22.5v98zM379 246q-30 12 -69.5 21t-77.5 9q-30 0 -58 -6t-49.5 -21t-34.5 -39.5t-13 -60.5q0 -33 10.5 -57t29.5 -39.5t44 -23t55 -7.5q42 -1 79.5 3.5t83.5 16.5v204z" />
    <glyph glyph-name="uni0431" unicode="&#x431;" horiz-adv-x="504" 
d="M411 687q-32 -21 -70.5 -30t-83.5 -14q-28 -3 -54.5 -9.5t-46.5 -18.5t-32.5 -32t-12.5 -50l-2 -116q26 25 64.5 43t87.5 19q35 0 68 -9.5t58 -29t40 -49t15 -68.5v-177q0 -39 -16 -68.5t-42 -49t-59 -29.5t-67 -10q-35 0 -68 10t-59 29.5t-42 49t-16 68.5v387
q0 39 16 65.5t42 43.5t58.5 26t64.5 12q47 5 81.5 13.5t63.5 25.5zM259 444q-45 0 -80 -16.5t-70 -46.5v-235q0 -32 13 -55t34.5 -37.5t48 -21.5t53.5 -7t53.5 7t47.5 21.5t34 37.5t13 55v177q0 32 -13 55t-33.5 37.5t-47 21.5t-53.5 7z" />
    <glyph glyph-name="uni0432" unicode="&#x432;" horiz-adv-x="500" 
d="M266 518q85 0 123.5 -33.5t38.5 -96.5q0 -46 -23.5 -74t-52.5 -41q48 -12 72 -43t24 -88q0 -38 -13.5 -65t-37 -44t-54.5 -25t-66 -8h-200v518h189zM269 282q24 0 46 6t39 18.5t27.5 32.5t10.5 47q0 56 -32.5 77.5t-89.5 21.5h-156v-203h155zM268 33q29 0 55 5.5t46 18
t31.5 34t11.5 53.5q0 62 -35 85t-104 23h-159v-219h154z" />
    <glyph glyph-name="uni0433" unicode="&#x433;" horiz-adv-x="393" 
d="M77 0v518h299v-34h-263v-484h-36z" />
    <glyph glyph-name="uni0434" unicode="&#x434;" horiz-adv-x="539" 
d="M475 -126v126h-424v-125h-35v161h20q27 3 44.5 19.5t28.5 50t18 86t12 126.5l14 200h293v-482h64v-162h-35zM172 276q-6 -87 -20 -148t-46 -92h304v446h-224z" />
    <glyph glyph-name="uni0435" unicode="&#x435;" 
d="M99 148q0 -32 12.5 -54.5t33.5 -37.5t48 -22t56 -7q42 0 79 15.5t57 49.5l33 -17q-12 -22 -30 -38t-40.5 -26.5t-47.5 -15.5t-51 -5q-35 0 -68.5 10t-60 29.5t-42.5 49t-16 69.5v222q0 40 16 69.5t42.5 49t60 29.5t68.5 10q34 0 67.5 -10t60 -29.5t42.5 -49t16 -69.5
v-136h-336v-86zM399 372q0 31 -13 53.5t-34 37.5t-48 22.5t-55 7.5q-29 0 -56 -7.5t-48 -22.5t-33.5 -37.5t-12.5 -53.5v-105h300v105z" />
    <glyph glyph-name="uni0436" unicode="&#x436;" horiz-adv-x="708" 
d="M433 262l-61 -61v-201h-36v201l-60 61l-206 -262h-43l222 285l-222 233h45l264 -275v275h36v-275l264 275h45l-222 -233l222 -285h-42z" />
    <glyph glyph-name="uni0437" unicode="&#x437;" horiz-adv-x="444" 
d="M210 528q44 0 75 -10t50.5 -28.5t28 -44.5t8.5 -57q0 -46 -24 -74.5t-54 -39.5q48 -11 73.5 -43t25.5 -89q0 -38 -14.5 -66.5t-38 -47.5t-54.5 -28.5t-65 -9.5q-65 0 -105 20.5t-75 65.5l33 17q56 -71 139 -71q28 0 54.5 7t46 21.5t31.5 37.5t12 55q0 63 -35 87t-104 24
h-88v30h83q24 0 46 6t39.5 19t28 33t10.5 47q0 56 -32 81t-92 25q-46 0 -78.5 -15.5t-56.5 -49.5l-28 15q28 42 70 62.5t90 20.5z" />
    <glyph glyph-name="uni0438" unicode="&#x438;" horiz-adv-x="527" 
d="M416 472h-2l-42 -71l-248 -401h-47v518h36v-396l-2 -76h2l42 71l246 401h49v-518h-36v386z" />
    <glyph glyph-name="uni0439" unicode="&#x439;" horiz-adv-x="527" 
d="M375 683q-4 -22 -14 -38.5t-24 -28t-31 -17.5t-35 -6q-35 0 -65.5 23t-38.5 67h35q7 -26 27 -41t42 -15q23 0 42.5 15t27.5 41h34zM416 472h-2l-42 -71l-248 -401h-47v518h36v-396l-2 -76h2l42 71l246 401h49v-518h-36v386z" />
    <glyph glyph-name="uni043A" unicode="&#x43a;" horiz-adv-x="469" 
d="M194 259l-81 -82v-177h-36v518h36v-294l284 294h45l-223 -234l223 -284h-42z" />
    <glyph glyph-name="uni043B" unicode="&#x43b;" horiz-adv-x="512" 
d="M185 482l-16 -214q-4 -55 -10 -104t-22 -85.5t-45 -57.5t-78 -21v37q37 0 58.5 17.5t34 50t18 80t10.5 107.5l16 226h284v-518h-36v482h-214z" />
    <glyph glyph-name="uni043C" unicode="&#x43c;" horiz-adv-x="629" 
d="M518 464h-1l-187 -377h-31l-186 377h-1l1 -65v-399h-36v518h48l190 -389l190 389h47v-518h-35v397z" />
    <glyph glyph-name="uni043D" unicode="&#x43d;" horiz-adv-x="521" 
d="M113 253v-253h-36v518h36v-228h295v228h36v-518h-36v253h-295z" />
    <glyph glyph-name="uni043E" unicode="&#x43e;" horiz-adv-x="497" 
d="M62 369q0 40 16 69.5t42.5 49.5t60 30t68.5 10t68.5 -10t59.5 -30t42 -49.5t16 -69.5v-220q0 -40 -16 -69.5t-42 -49.5t-59.5 -30t-68.5 -10t-68.5 10t-60 30t-42.5 49.5t-16 69.5v220zM249 491q-27 0 -54 -7t-48.5 -22t-35 -38t-13.5 -55v-220q0 -32 13.5 -55.5
t35 -38.5t48.5 -22t54 -7t54 7t48 22t34.5 38.5t13.5 55.5v220q0 32 -13.5 55t-34.5 38t-48 22t-54 7z" />
    <glyph glyph-name="uni043F" unicode="&#x43f;" horiz-adv-x="518" 
d="M113 482v-482h-36v518h364v-518h-36v482h-292z" />
    <glyph glyph-name="uni0440" unicode="&#x440;" horiz-adv-x="527" 
d="M83 498q25 8 48 14t45.5 9.5t46 5t50.5 1.5q34 0 67.5 -9.5t59 -28.5t41.5 -48.5t16 -71.5v-220q0 -39 -16 -69t-42.5 -50.5t-60 -30.5t-68.5 -10q-36 1 -74.5 7t-76.5 24v-202h-36v679zM119 59q36 -15 75 -23.5t77 -8.5q28 0 55 7.5t48 22.5t33.5 38t12.5 53v222
q0 32 -12.5 55t-33 37.5t-47 21.5t-54.5 7q-37 0 -75 -3.5t-79 -17.5v-411z" />
    <glyph glyph-name="uni0441" unicode="&#x441;" horiz-adv-x="460" 
d="M382 433q-20 30 -56.5 44.5t-77.5 14.5q-28 0 -55 -7t-48 -22t-34 -37.5t-13 -53.5v-224q0 -32 13 -55t34 -38t48 -22t55 -7q45 0 85 19t57 57l33 -16q-22 -47 -71 -71.5t-104 -24.5q-35 0 -68 10t-59.5 29.5t-42.5 49t-16 69.5v222q0 40 16 69.5t42.5 49t59.5 29.5
t68 10q49 0 93.5 -18.5t69.5 -57.5z" />
    <glyph glyph-name="uni0442" unicode="&#x442;" horiz-adv-x="423" 
d="M194 0v482h-175v36h385v-36h-175v-482h-35z" />
    <glyph glyph-name="uni0443" unicode="&#x443;" horiz-adv-x="520" 
d="M73 0zM443 -43q0 -40 -15.5 -69t-41.5 -47.5t-59 -27.5t-67 -9q-45 0 -86.5 14t-70.5 41l22 22q26 -21 61.5 -32t72.5 -11q30 0 57 7t47.5 21t32.5 36.5t12 53.5v71q-40 -20 -77 -28.5t-72 -8.5t-68.5 10t-59.5 29.5t-42 49t-16 68.5v370h36v-370q0 -31 12.5 -54.5
t33 -39t47 -23.5t55.5 -8q24 0 42 2.5t34.5 7t34 12t40.5 17.5v456h35v-560z" />
    <glyph glyph-name="uni0444" unicode="&#x444;" horiz-adv-x="686" 
d="M361 515q13 6 38.5 9.5t44.5 3.5q33 0 65 -10t57.5 -29.5t41.5 -49t16 -67.5v-226q0 -38 -16 -67.5t-41.5 -49t-57.5 -29.5t-65 -10q-19 0 -44 3.5t-39 9.5v-192h-36l-1 192q-13 -6 -38 -9.5t-44 -3.5q-33 0 -65 10t-57.5 29.5t-41.5 49t-16 67.5v226q0 38 16 67.5
t41.5 49t57.5 29.5t65 10q19 0 44.5 -3.5t38.5 -9.5v193h36v-193zM246 493q-27 0 -53.5 -8t-47.5 -23.5t-34 -38t-13 -51.5v-226q0 -29 13 -51.5t34 -38t47.5 -23.5t53.5 -8q19 0 42 3.5t37 9.5v442q-14 6 -37 9.5t-42 3.5zM440 493q-20 0 -42.5 -3.5t-36.5 -9.5v-442
q14 -6 36.5 -9.5t42.5 -3.5q27 0 53.5 8t47.5 23.5t34 38t13 51.5v226q0 29 -13 51.5t-34 38t-47.5 23.5t-53.5 8z" />
    <glyph glyph-name="uni0445" unicode="&#x445;" horiz-adv-x="445" 
d="M247 259l168 -259h-44l-148 234l-149 -234h-44l169 259l-169 259h45l148 -234l148 234h44z" />
    <glyph glyph-name="uni0446" unicode="&#x446;" horiz-adv-x="529" 
d="M465 -126v126h-389v518h36v-482h289v482h35v-482h65v-162h-36z" />
    <glyph glyph-name="uni0447" unicode="&#x447;" horiz-adv-x="480" 
d="M368 215q-32 -25 -67 -37.5t-76 -12.5q-32 0 -63.5 8t-56.5 26.5t-40.5 48.5t-15.5 74v196h35v-197q0 -33 12.5 -56.5t32.5 -38t45 -21.5t51 -7q38 0 75 13t68 39v268h35v-518h-35v215z" />
    <glyph glyph-name="uni0448" unicode="&#x448;" horiz-adv-x="728" 
d="M346 36v482h36v-482h233v482h36v-518h-574v518h36v-482h233z" />
    <glyph glyph-name="uni0449" unicode="&#x449;" horiz-adv-x="743" 
d="M679 -126v126h-603v518h36v-482h233v482h36v-482h233v482h36v-482h65v-162h-36z" />
    <glyph glyph-name="uni044A" unicode="&#x44a;" horiz-adv-x="535" 
d="M334 302q72 0 118.5 -37.5t46.5 -115.5q0 -39 -13.5 -67t-37 -46t-54.5 -27t-66 -9h-201v485h-106v33h140v-216h173zM319 33q29 0 55 6t46 20t31.5 36t11.5 54q0 34 -11.5 56.5t-31 36.5t-46 20.5t-55.5 6.5h-158v-236h158z" />
    <glyph glyph-name="uni044B" unicode="&#x44b;" horiz-adv-x="673" 
d="M284 302q72 0 118.5 -37.5t46.5 -115.5q0 -39 -13.5 -67t-36.5 -46t-54 -27t-67 -9h-201v518h35v-216h172zM596 518v-518h-36v518h36zM270 33q29 0 55 6t46 20t31.5 36t11.5 54q0 34 -11.5 56.5t-31.5 36.5t-46.5 20.5t-55.5 6.5h-157v-236h158z" />
    <glyph glyph-name="uni044C" unicode="&#x44c;" horiz-adv-x="485" 
d="M284 302q72 0 118.5 -37.5t46.5 -115.5q0 -39 -13.5 -67t-36.5 -46t-54 -27t-67 -9h-201v518h35v-216h172zM270 33q29 0 55 6t46 20t31.5 36t11.5 54q0 34 -11.5 56.5t-31.5 36.5t-46.5 20.5t-55.5 6.5h-157v-236h158z" />
    <glyph glyph-name="uni044D" unicode="&#x44d;" horiz-adv-x="457" 
d="M211 528q34 0 67.5 -10t59 -29.5t41.5 -48.5t16 -68v-225q0 -39 -16 -68.5t-41.5 -49t-59 -29.5t-67.5 -10q-54 0 -101.5 24t-70.5 72l33 16q9 -20 23.5 -34t33 -23.5t40 -14t42.5 -4.5q28 0 55 7t48 22t33.5 37.5t12.5 53.5v98h-231v32h231v97q0 31 -12.5 53.5t-33.5 37
t-48 21.5t-55 7q-41 0 -76 -13t-56 -44l-28 17q26 39 69 57.5t91 18.5z" />
    <glyph glyph-name="uni044E" unicode="&#x44e;" horiz-adv-x="701" 
d="M455 529q34 0 67.5 -10t59 -29.5t41.5 -49t16 -68.5v-226q0 -39 -16 -68.5t-41.5 -49t-59 -29.5t-67.5 -10q-35 0 -68 10t-59 29.5t-42 49t-16 68.5v110h-160v-256h-36v518h36v-227h160v81q0 39 16 68.5t42 49t59 29.5t68 10zM455 492q-27 0 -53.5 -7t-48 -21.5
t-34.5 -37t-13 -54.5v-226q0 -32 13 -55t34.5 -37.5t48 -21.5t53.5 -7t53.5 7t47.5 21.5t34 37.5t13 55v226q0 32 -13 54.5t-34 37t-47.5 21.5t-53.5 7z" />
    <glyph glyph-name="uni044F" unicode="&#x44f;" horiz-adv-x="494" 
d="M255 221l-176 -221h-42l174 221q-34 1 -62.5 11t-49.5 28t-33 44.5t-12 59.5q0 154 161 154h202v-518h-36v221h-126zM217 483q-60 0 -93 -27t-33 -93q0 -29 11 -49.5t30 -34t43 -19.5t51 -6h155v229h-164z" />
    <glyph glyph-name="uni0451" unicode="&#x451;" 
d="M133 641q0 13 9 21.5t21 8.5q13 0 21.5 -8.5t8.5 -21.5q0 -12 -8.5 -21t-21.5 -9q-12 0 -21 9t-9 21zM308 641q0 13 8.5 21.5t21.5 8.5q12 0 21 -8.5t9 -21.5q0 -12 -9 -21t-21 -9q-13 0 -21.5 9t-8.5 21zM99 148q0 -32 12.5 -54.5t33.5 -37.5t48 -22t56 -7q42 0 79 15.5
t57 49.5l33 -17q-12 -22 -30 -38t-40.5 -26.5t-47.5 -15.5t-51 -5q-35 0 -68.5 10t-60 29.5t-42.5 49t-16 69.5v222q0 40 16 69.5t42.5 49t60 29.5t68.5 10q34 0 67.5 -10t60 -29.5t42.5 -49t16 -69.5v-136h-336v-86zM399 372q0 31 -13 53.5t-34 37.5t-48 22.5t-55 7.5
q-29 0 -56 -7.5t-48 -22.5t-33.5 -37.5t-12.5 -53.5v-105h300v105z" />
    <glyph glyph-name="Wgrave" unicode="&#x1e80;" horiz-adv-x="932" 
d="M463 765l-78 111h49l66 -111h-37zM911 708l-208 -709h-57l-180 557l-181 -557h-57l-206 709h40l193 -683h4l186 580h42l186 -580h4l194 683h40z" />
    <glyph glyph-name="wgrave" unicode="&#x1e81;" horiz-adv-x="716" 
d="M356 585l-78 111h49l66 -111h-37zM182 0l-157 518h37l148 -488l120 488h55l122 -486l147 486h37l-157 -518h-56l-120 494l-122 -494h-54z" />
    <glyph glyph-name="Wacute" unicode="&#x1e82;" horiz-adv-x="932" 
d="M464 765h-39l67 111h49zM911 708l-208 -709h-57l-180 557l-181 -557h-57l-206 709h40l193 -683h4l186 580h42l186 -580h4l194 683h40z" />
    <glyph glyph-name="wacute" unicode="&#x1e83;" horiz-adv-x="716" 
d="M357 585h-39l67 111h49zM182 0l-157 518h37l148 -488l120 488h55l122 -486l147 486h37l-157 -518h-56l-120 494l-122 -494h-54z" />
    <glyph glyph-name="Wdieresis" unicode="&#x1e84;" horiz-adv-x="932" 
d="M350 821q0 13 9 21.5t21 8.5q13 0 21.5 -8.5t8.5 -21.5q0 -12 -8.5 -21t-21.5 -9q-12 0 -21 9t-9 21zM525 821q0 13 8.5 21.5t21.5 8.5q12 0 21 -8.5t9 -21.5q0 -12 -9 -21t-21 -9q-13 0 -21.5 9t-8.5 21zM911 708l-208 -709h-57l-180 557l-181 -557h-57l-206 709h40
l193 -683h4l186 580h42l186 -580h4l194 683h40z" />
    <glyph glyph-name="wdieresis" unicode="&#x1e85;" horiz-adv-x="716" 
d="M243 641q0 13 9 21.5t21 8.5q13 0 21.5 -8.5t8.5 -21.5q0 -12 -8.5 -21t-21.5 -9q-12 0 -21 9t-9 21zM418 641q0 13 8.5 21.5t21.5 8.5q12 0 21 -8.5t9 -21.5q0 -12 -9 -21t-21 -9q-13 0 -21.5 9t-8.5 21zM182 0l-157 518h37l148 -488l120 488h55l122 -486l147 486h37
l-157 -518h-56l-120 494l-122 -494h-54z" />
    <glyph glyph-name="Ygrave" unicode="&#x1ef2;" horiz-adv-x="540" 
d="M267 765l-78 111h49l66 -111h-37zM289 0h-39v280l-238 427h45l213 -391l212 391h46l-239 -427v-280z" />
    <glyph glyph-name="ygrave" unicode="&#x1ef3;" horiz-adv-x="520" 
d="M256 585l-78 111h49l66 -111h-37zM443 -43q0 -40 -15.5 -69t-41.5 -47.5t-59 -27.5t-67 -9q-45 0 -86.5 14t-70.5 41l22 22q26 -21 61.5 -32t72.5 -11q30 0 57 7t47.5 21t32.5 36.5t12 53.5v71q-40 -20 -77 -28.5t-72 -8.5t-68.5 10t-59.5 29.5t-42 49t-16 68.5v370h36
v-370q0 -31 12.5 -54.5t33 -39t47 -23.5t55.5 -8q24 0 42 2.5t34.5 7t34 12t40.5 17.5v456h35v-560z" />
    <glyph glyph-name="endash" unicode="&#x2013;" horiz-adv-x="584" 
d="M514 281h-444v37h444v-37z" />
    <glyph glyph-name="emdash" unicode="&#x2014;" horiz-adv-x="1016" 
d="M946 281h-876v37h876v-37z" />
    <glyph glyph-name="quoteleft" unicode="&#x2018;" horiz-adv-x="211" 
d="M58 518q9 27 17.5 50t17.5 45t17.5 45t17.5 50h36l-56 -190h-50z" />
    <glyph glyph-name="quoteright" unicode="&#x2019;" horiz-adv-x="210" 
d="M168 708q-9 -27 -18 -50.5t-18 -45.5t-18 -45t-18 -50h-37l57 191h52z" />
    <glyph glyph-name="quotesinglbase" unicode="&#x201a;" horiz-adv-x="200" 
d="M60 -128h-38l57 168h51z" />
    <glyph glyph-name="quotedblleft" unicode="&#x201c;" horiz-adv-x="336" 
d="M123 708h38l-51 -191h-52zM250 708h38l-51 -191h-52z" />
    <glyph glyph-name="quotedblright" unicode="&#x201d;" horiz-adv-x="325" 
d="M96 518h-36l45 190h50zM220 518h-36l45 190h50z" />
    <glyph glyph-name="quotedblbase" unicode="&#x201e;" horiz-adv-x="337" 
d="M136 50q-18 -50 -35 -89.5t-35 -88.5h-38l56 178h52zM262 50q-18 -50 -35 -89.5t-35 -88.5h-38l56 178h52z" />
    <glyph glyph-name="dagger" unicode="&#x2020;" horiz-adv-x="485" 
d="M32 514h192v194h35v-194h194v-33h-194v-597h-35v597h-192v33z" />
    <glyph glyph-name="daggerdbl" unicode="&#x2021;" horiz-adv-x="559" 
d="M69 111h192v369h-192v32h192v195h35v-195h193v-32h-193v-369h193v-31h-193v-196h-35v196h-192v31z" />
    <glyph glyph-name="bullet" unicode="&#x2022;" horiz-adv-x="381" 
d="M81 354q0 22 8.5 42t23.5 35t35 24t43 9q22 0 42 -9t35 -24t24 -35t9 -42q0 -23 -9 -43t-24 -35t-35 -23.5t-42 -8.5q-23 0 -43 8.5t-35 23.5t-23.5 35t-8.5 43z" />
    <glyph glyph-name="ellipsis" unicode="&#x2026;" horiz-adv-x="673" 
d="M128 100q25 0 41.5 -16.5t16.5 -41.5t-16.5 -41.5t-41.5 -16.5t-41.5 16.5t-16.5 41.5t16.5 41.5t41.5 16.5zM337 100q25 0 41.5 -16.5t16.5 -41.5t-16.5 -41.5t-41.5 -16.5t-41.5 16.5t-16.5 41.5t16.5 41.5t41.5 16.5zM545 100q25 0 41.5 -16.5t16.5 -41.5t-16.5 -41.5
t-41.5 -16.5t-41.5 16.5t-16.5 41.5t16.5 41.5t41.5 16.5z" />
    <glyph glyph-name="perthousand" unicode="&#x2030;" horiz-adv-x="1030" 
d="M88 -37l500 791l32 -21l-498 -790zM320 525q0 -84 -39 -132t-99 -48q-66 0 -102 46.5t-36 135.5q0 88 39 133.5t99 45.5q65 0 101.5 -47t36.5 -134zM282 525q0 75 -26.5 109.5t-74.5 34.5q-98 0 -98 -142q0 -77 24 -110.5t75 -33.5q50 0 75 34t25 108zM671 174
q0 -85 -38.5 -132t-98.5 -47q-67 0 -102.5 46t-35.5 135q0 91 38.5 135t99.5 44q64 0 100.5 -48t36.5 -133zM994 174q0 -85 -38.5 -132t-98.5 -47q-67 0 -102.5 46t-35.5 135q0 91 38.5 135t99.5 44q64 0 100.5 -48t36.5 -133zM634 174q0 75 -26.5 110t-74.5 35
q-98 0 -98 -143q0 -77 24 -110.5t76 -33.5q49 0 74 34t25 108zM957 174q0 75 -26.5 110t-74.5 35q-98 0 -98 -143q0 -77 24 -110.5t76 -33.5q49 0 74 34t25 108z" />
    <glyph glyph-name="guilsinglleft" unicode="&#x2039;" horiz-adv-x="260" 
d="M170 485q9 -5 16 -10t15 -10l-117 -170q27 -41 57.5 -85t58.5 -85q-11 -6 -16 -10t-14 -9l-128 189z" />
    <glyph glyph-name="guilsinglright" unicode="&#x203a;" horiz-adv-x="260" 
d="M90 105q-9 5 -16 10t-15 10l117 170q-27 41 -57.5 85t-58.5 85q11 6 16 10t14 9l128 -189z" />
    <glyph glyph-name="fraction" unicode="&#x2044;" horiz-adv-x="500" 
d="M459 728q9 -5 14.5 -9t13.5 -9l-447 -730l-27 17z" />
    <glyph glyph-name="Euro" unicode="&#x20ac;" horiz-adv-x="603" 
d="M104 510q0 51 20 90t53 65.5t75 39.5t86 13q65 0 123.5 -28t89.5 -86l-36 -18q-26 49 -75 70.5t-102 21.5q-37 0 -72.5 -11t-63 -32t-44 -52.5t-16.5 -72.5v-95h269l-6 -32h-263v-59h269l-4 -32h-265v-95q0 -42 16.5 -73.5t43.5 -52t62 -31t71 -10.5q27 0 54 5t50.5 16.5
t43 29t32.5 41.5l36 -18q-15 -29 -38.5 -50.5t-52 -35.5t-60.5 -21t-65 -7q-44 0 -85.5 13t-73.5 39t-52 64.5t-20 90.5v95h-64l6 32h58v59h-61l6 32h55v95z" />
    <glyph glyph-name="uni2113" unicode="&#x2113;" horiz-adv-x="386" 
d="M357 51q-23 -22 -51.5 -35t-60.5 -13q-38 0 -65 14.5t-44 40t-25 59t-9 71.5v29l-59 -59q-3 5 -7.5 14.5t-6.5 14.5q21 18 38.5 36.5t34.5 36.5v282q0 66 11.5 109.5t30 69.5t41.5 36.5t46 10.5q26 0 45.5 -11.5t32 -31t19 -46.5t6.5 -58q0 -95 -54 -189t-143 -185v-33
q0 -51 8.5 -84.5t23.5 -53.5t35 -28t44 -8q25 0 47.5 11.5t39.5 27.5zM137 288q72 84 118 165t46 165q0 22 -3 43t-11.5 37.5t-22.5 26t-36 9.5q-16 0 -32 -9t-29 -30.5t-21.5 -57.5t-8.5 -90v-259z" />
    <glyph glyph-name="trademark" unicode="&#x2122;" horiz-adv-x="828" 
d="M164 338v341h-130v29h292v-29h-130v-341h-32zM423 671q0 -36 0.5 -79t0.5 -87t0.5 -87.5t0.5 -79.5h-31v370h45l133 -290q31 69 66 145t67 145h45v-370h-32l4 339l-134 -292h-32z" />
    <glyph glyph-name="Omega" unicode="&#x2126;" horiz-adv-x="775" 
d="M214 62q-31 25 -58 57.5t-47.5 72.5t-32 86.5t-11.5 99.5q0 75 26 136.5t70.5 105.5t104 68t127.5 24q71 0 129.5 -26.5t100 -71.5t64.5 -105t23 -127q0 -55 -13 -105t-35 -93.5t-52 -79t-63 -60.5h176v-34h-248v21q41 25 77 60t62.5 79.5t42 97.5t15.5 114
q0 52 -18.5 104.5t-54.5 94.5t-88 68t-118 26q-62 0 -115 -22.5t-91.5 -62.5t-60.5 -95t-22 -119q0 -59 15.5 -109.5t43 -93.5t64 -78t78.5 -63v-22h-252v34h182z" />
    <glyph glyph-name="estimated" unicode="&#x212e;" horiz-adv-x="903" 
d="M207 344q-5 0 -5 -5v-199q0 -12 8 -23q48 -50 112 -79t137 -29q79 0 146.5 33t115.5 88h59q-55 -64 -139 -102.5t-183 -38.5q-84 0 -158 28.5t-129 78t-87 116t-32 142.5t32 142.5t87 116t129 78.5t158 29t158.5 -29t129.5 -78.5t87 -116t32 -142.5v-10h-658zM716 570
q0 14 -10 24q-48 48 -111 76t-136 28q-72 0 -136 -29t-112 -78q-9 -11 -9 -25v-196q0 -2 1.5 -4.5t3.5 -2.5h505q2 0 3 2.5t1 4.5v200z" />
    <glyph glyph-name="partialdiff" unicode="&#x2202;" horiz-adv-x="499" 
d="M77 699q23 17 58 30.5t83 13.5q61 0 108 -35.5t76.5 -97.5t38.5 -146.5t-6 -183.5q-10 -63 -28.5 -116.5t-46 -92t-65 -60t-85.5 -21.5q-42 0 -73.5 18t-52 47.5t-31 68t-10.5 79.5q0 54 16 98.5t42.5 76t61 49t71.5 17.5q31 0 57.5 -9t47.5 -23.5t36 -32.5t24 -35
q12 52 6.5 115t-28.5 118t-64 92t-100 37q-41 0 -70.5 -10.5t-50.5 -25.5zM212 29q36 0 68.5 20.5t57.5 56t40 82t16 98.5q-6 18 -20.5 39t-35 39t-46.5 29.5t-55 11.5q-32 0 -60 -15.5t-49.5 -42.5t-34 -63.5t-12.5 -78.5q0 -79 35 -127.5t95 -48.5h1z" />
    <glyph glyph-name="Delta" unicode="&#x2206;" horiz-adv-x="579" 
d="M316 715l235 -681v-34h-524v33l237 682h52zM70 34h430l-209 645z" />
    <glyph glyph-name="product" unicode="&#x220f;" horiz-adv-x="636" 
d="M467 -60v733h-299v-733h-37v733h-103v36h580v-36h-104v-733h-37z" />
    <glyph glyph-name="summation" unicode="&#x2211;" horiz-adv-x="532" 
d="M304 307q-63 89 -128 185.5t-129 185.5v30h429v-33h-379l11 -17l238 -347l-254 -340l-14 -17h414v-32h-457v29z" />
    <glyph glyph-name="minus" unicode="&#x2212;" horiz-adv-x="635" 
d="M563 289h-490v35h490v-35z" />
    <glyph glyph-name="uni2215" unicode="&#x2215;" horiz-adv-x="500" 
d="M459 728q9 -5 14.5 -9t13.5 -9l-447 -739l-27 17z" />
    <glyph glyph-name="uni2219" unicode="&#x2219;" horiz-adv-x="216" 
d="M70 318q0 16 11 27t27 11t27 -11t11 -27t-11 -27t-27 -11t-27 11t-11 27z" />
    <glyph glyph-name="radical" unicode="&#x221a;" horiz-adv-x="515" 
d="M102 323q-16 -5 -35.5 -12.5t-36.5 -13.5l-13 33q28 11 53.5 19.5t52.5 19.5l146 -464q23 111 46.5 227t47.5 234t47.5 234t46.5 227h38l-205 -971h-38z" />
    <glyph glyph-name="infinity" unicode="&#x221e;" horiz-adv-x="741" 
d="M683 292q0 -32 -11.5 -58.5t-30.5 -45t-44.5 -28.5t-52.5 -10q-22 0 -42 7t-40 21.5t-42 35.5t-48 49q-20 -21 -40.5 -41.5t-42 -36.5t-45.5 -25.5t-51 -9.5q-28 0 -52.5 10.5t-43 29.5t-29 44.5t-10.5 54.5q0 31 10.5 57t29.5 45t45 30t57 11q22 0 45 -10t45 -26t43 -37
t41 -42q19 20 38 40.5t40 37t45.5 27t54.5 10.5q60 -1 95.5 -39t35.5 -100v-1zM200 182q19 0 38 8.5t36 21t32.5 28t29.5 30.5l18 18q-17 20 -35 40t-37.5 36t-42 26t-47.5 10q-24 0 -42.5 -9t-31 -24.5t-19.5 -36t-7 -42.5q1 -44 30 -75t77 -31h1zM546 400q-20 0 -38 -8
t-35 -20.5t-32 -27.5t-27 -28l-23 -24q50 -53 84.5 -81.5t72.5 -28.5q24 0 43 9.5t32 24.5t20 34t7 39q0 54 -29.5 82.5t-73.5 28.5h-1z" />
    <glyph glyph-name="integral" unicode="&#x222b;" horiz-adv-x="314" 
d="M290 813q-11 5 -22.5 8t-21.5 3q-36 0 -57 -31t-20 -85l5 -265q1 -63 2.5 -128.5t3 -126.5t2 -113t0.5 -89q0 -34 -9.5 -59t-25 -41.5t-36.5 -24.5t-44 -8q-27 0 -51 9l6 26q9 -3 18.5 -4.5t17.5 -1.5q41 0 64.5 28.5t23.5 76.5q0 30 -0.5 71.5t-1.5 89.5t-2 101t-2 107
q-1 53 -2 104.5t-2 98.5t-1.5 86.5t-0.5 68.5q0 35 9 61.5t24 44t34.5 26.5t40.5 9q12 0 26.5 -4.5t27.5 -10.5z" />
    <glyph glyph-name="approxequal" unicode="&#x2248;" horiz-adv-x="537" 
d="M464 368q-17 -25 -38.5 -40t-53.5 -15q-27 0 -51.5 10t-58.5 30q-22 13 -44 24t-46 11t-42 -13.5t-34 -33.5q-7 6 -12 9.5t-11 8.5q21 29 44.5 43t55.5 14q27 0 51 -10.5t41 -20.5q21 -12 36 -20t27 -12.5t22.5 -6.5t22.5 -2q22 0 38.5 10t32.5 31zM464 232
q-17 -24 -40 -38.5t-55 -14.5q-27 0 -50.5 11t-57.5 29q-21 12 -43.5 23t-45.5 11q-25 0 -43.5 -12t-32.5 -32l-23 17q21 29 45.5 43.5t56.5 14.5q25 0 47.5 -10t39.5 -20q20 -12 35 -20t28 -13.5t24 -8t24 -2.5q20 0 36.5 10.5t31.5 29.5z" />
    <glyph glyph-name="notequal" unicode="&#x2260;" horiz-adv-x="559" 
d="M490 359h-165q-15 -34 -33 -73t-34 -73h232v-33h-244q-11 -27 -25 -55t-26 -54l-26 13l44 96h-144v33h158q15 34 33 73t34 73h-225v33h238l50 108q9 -4 13 -6.5t12 -5.5l-44 -96h152v-33z" />
    <glyph glyph-name="lessequal" unicode="&#x2264;" horiz-adv-x="484" 
d="M110 367q71 -39 149 -81.5t149 -81.5v-39l-332 186v33l332 189v-40zM421 101v-33h-359v33h359z" />
    <glyph glyph-name="greaterequal" unicode="&#x2265;" horiz-adv-x="484" 
d="M408 351l-332 -186v39l298 163l-298 166v40l332 -189v-33zM422 101v-33h-359v33h359z" />
    <glyph glyph-name="lozenge" unicode="&#x25ca;" horiz-adv-x="519" 
d="M233 -22q-53 96 -103.5 189t-103.5 188q54 96 105.5 189.5t105.5 188.5h46l209 -377l-212 -378h-47zM256 10l191 345l-189 349l-187 -347z" />
    <glyph glyph-name="i.loclTRK" horiz-adv-x="190" 
d="M61 635q0 14 10 24t24 10t24 -10t10 -24t-10 -24t-24 -10t-24 10t-10 24zM113 0h-36v518h36v-518z" />
    <glyph glyph-name="uni0414.loclBGR" horiz-adv-x="669" 
d="M614 -150v150h-558v-150h-40v189h67l225 669h52l227 -669h66v-189h-39zM124 39h422l-213 630z" />
    <glyph glyph-name="uni041B.loclBGR" horiz-adv-x="589" 
d="M295 677h-4l-49 -141l-187 -536h-41l250 708h60l251 -708h-42l-189 540z" />
    <glyph glyph-name="uni0432.loclBGR" horiz-adv-x="502" 
d="M261 718q91 0 130 -40t39 -115q0 -30 -10 -56t-25.5 -46.5t-34 -35.5t-36.5 -24q24 -1 45.5 -9.5t38.5 -24.5t27 -39.5t10 -54.5v-124q0 -39 -15.5 -68.5t-41 -49.5t-58 -30t-66.5 -11q-48 0 -95 6t-93 20v546q0 38 15 67t40.5 49t59 30t70.5 10zM263 683q-29 0 -56 -7
t-48 -22t-34 -38.5t-13 -56.5v-201l140 44q30 9 56 25t45 37t30 46t11 52q0 62 -30.5 91.5t-100.5 29.5zM251 366q-44 -11 -77 -22t-62 -20v-282q18 -6 38 -9.5t40 -6t39 -3t35 -0.5q27 0 53.5 9t47 25.5t32.5 40t12 51.5v124q0 29 -12 50.5t-33.5 34t-50.5 15t-62 -6.5z
" />
    <glyph glyph-name="uni0433.loclBGR" horiz-adv-x="446" 
d="M226 528q79 0 117.5 -33.5t38.5 -92.5q0 -31 -12.5 -53t-34 -38.5t-52 -29t-66.5 -23.5q-69 -23 -101.5 -50.5t-32.5 -76.5q0 -58 34.5 -84t97.5 -26q56 1 98.5 20.5t68.5 47.5l23 -21q-29 -34 -79.5 -56t-111.5 -22q-85 0 -125.5 37t-40.5 104q0 63 40 97.5t114 57.5
q31 9 57.5 20t46 25t30.5 31t11 40q0 43 -29 67.5t-92 24.5q-45 0 -81 -16t-61 -41l-23 24q73 67 165 67z" />
    <glyph glyph-name="uni0434.loclBGR" horiz-adv-x="506" 
d="M62 0zM113 -119q26 -21 61.5 -32t72.5 -11q29 0 56 6.5t47.5 21t33 37t12.5 53.5v71q-40 -20 -77 -28.5t-72 -8.5t-68 10t-59 29.5t-42 49t-16 68.5v225q0 39 15.5 68t41 48.5t58 29.5t66.5 10q52 0 94.5 -10.5t93.5 -27.5v-533q0 -40 -15.5 -69t-41.5 -47.5t-59 -27.5
t-67 -9q-45 0 -86.5 14t-70.5 41zM396 464q-26 11 -68 20t-85 9q-28 0 -54 -7.5t-46.5 -22.5t-32.5 -37.5t-12 -52.5v-226q0 -31 12.5 -53.5t33 -37.5t47 -22.5t54.5 -8.5q21 0 39 2.5t35.5 7t36 11.5t40.5 16v402z" />
    <glyph glyph-name="uni0436.loclBGR" horiz-adv-x="706" 
d="M458 285l222 -285h-42l-205 260l-62 -61v-199h-36v199l-61 61l-205 -260h-43l222 285l-222 233h45l264 -275v465h36v-465l264 275h45z" />
    <glyph glyph-name="uni0438.loclBGR" horiz-adv-x="514" 
d="M439 23q-51 -18 -97 -25.5t-89 -7.5q-34 0 -66.5 10t-57.5 29.5t-40.5 48.5t-15.5 68v372h35v-373q0 -30 13 -52.5t34 -37.5t46.5 -23t51.5 -8q39 0 80.5 7.5t70.5 19.5v467h35v-495z" />
    <glyph glyph-name="uni0439.loclBGR" horiz-adv-x="514" 
d="M366 683q-4 -22 -14 -38.5t-24 -28t-31 -17.5t-35 -6t-35 6t-31 17.5t-24 28t-14 38.5h34q8 -26 27.5 -41t42.5 -15t42.5 15t26.5 41h35zM439 23q-51 -18 -97 -25.5t-89 -7.5q-34 0 -66.5 10t-57.5 29.5t-40.5 48.5t-15.5 68v372h35v-373q0 -30 13 -52.5t34 -37.5
t46.5 -23t51.5 -8q39 0 80.5 7.5t70.5 19.5v467h35v-495z" />
    <glyph glyph-name="uni043A.loclBGR" horiz-adv-x="472" 
d="M113 221l288 297h44l-224 -233l224 -285h-43l-206 259l-83 -83v-176h-36v708h36v-487z" />
    <glyph glyph-name="uni043B.loclBGR" horiz-adv-x="436" 
d="M222 478h-4l-22 -74l-137 -404h-37l174 513h49l168 -513h-37l-133 404z" />
    <glyph glyph-name="uni043F.loclBGR" horiz-adv-x="521" 
d="M76 490q45 16 92.5 27t96.5 11q34 -1 67 -11t58.5 -29.5t41 -49t15.5 -68.5v-370h-36v370q0 31 -13 54t-33.5 38t-46.5 22t-53 7q-43 0 -85 -9.5t-68 -20.5v-461h-36v490z" />
    <glyph glyph-name="uni0442.loclBGR" horiz-adv-x="810" 
d="M76 486q32 23 75 32.5t87 9.5q47 0 89 -14t77 -58q17 23 35 37t36.5 21.5t38 10t39.5 3.5q37 1 70.5 -8.5t58.5 -30t40 -52t15 -72.5v-365h-37v363q3 42 -17 70t-51 42.5t-68 15.5t-68.5 -10.5t-53 -35.5t-21.5 -60v-385h-35v385q0 42 -31.5 66.5t-75 33.5t-90 2.5
t-76.5 -25.5v-462h-37v486z" />
    <glyph glyph-name="uni0446.loclBGR" horiz-adv-x="535" 
d="M504 61q-1 -49 -4.5 -96.5t-10.5 -90.5h-28l4 151h-37q-38 -17 -83 -26t-92 -9q-34 0 -66 10t-57.5 29.5t-41 49t-15.5 67.5v372h35v-372q0 -30 13 -52.5t33.5 -37.5t46 -23t51.5 -8q36 0 77.5 6.5t70.5 21.5v465h36v-457h68z" />
    <glyph glyph-name="uni0448.loclBGR" horiz-adv-x="792" 
d="M716 31q-32 -21 -72 -31t-82 -10q-23 0 -46 3.5t-44.5 12.5t-40.5 24t-33 37q-31 -46 -66.5 -61.5t-78.5 -15.5q-37 0 -69.5 10t-57 29.5t-39 49.5t-14.5 71v368h36v-366q0 -34 12 -58t32 -39.5t45.5 -22.5t52.5 -7q24 0 47.5 7t41.5 20.5t29 32.5t11 45v388h36v-388
q0 -26 13 -45.5t34.5 -33t48.5 -20.5t55 -7q32 0 61.5 8.5t51.5 22.5v463h36v-487z" />
    <glyph glyph-name="uni0449.loclBGR" horiz-adv-x="815" 
d="M784 61q-1 -49 -5 -96.5t-10 -90.5h-29l4 151h-37q-31 -18 -68.5 -26.5t-78.5 -8.5q-45 0 -90 16.5t-73 60.5q-32 -46 -66.5 -61.5t-77.5 -15.5q-37 0 -69.5 10t-57 29.5t-39 49.5t-14.5 71v368h36v-366q0 -34 12 -58t32 -39.5t45.5 -22.5t52.5 -7q24 0 47 8t41 22t29 33
t11 42v388h35v-388q0 -26 13 -45.5t34.5 -33t48.5 -20.5t56 -7q32 0 62 8t52 21v465h36v-457h68z" />
    <glyph glyph-name="uni044E.loclBGR" horiz-adv-x="702" 
d="M272 372q0 39 16 68.5t42 49t59 29.5t68 10q34 0 67 -10t58.5 -29.5t41.5 -49t16 -68.5v-226q0 -39 -16 -68.5t-41.5 -49t-58.5 -29.5t-67 -10q-35 0 -68 10t-59 29.5t-42 49t-16 68.5v110h-161v-256h-35v708h35v-417h161v81zM457 492q-27 0 -54 -7t-48 -21.5t-34.5 -37
t-13.5 -54.5v-226q0 -32 13.5 -55t34.5 -37.5t48 -21.5t54 -7q26 0 52.5 7t47.5 21.5t34.5 37.5t13.5 55v226q0 32 -13.5 54.5t-34.5 37t-47.5 21.5t-52.5 7z" />
    <glyph glyph-name=".ttfautohint" horiz-adv-x="354" 
d="M0 0z" />
    </font>
</defs>
</svg>
