<?xml version="1.0" standalone="no"?>
<!DOCTYPE svg PUBLIC "-//W3C//DTD SVG 1.1//EN" "http://www.w3.org/Graphics/SVG/1.1/DTD/svg11.dtd" >
<svg xmlns="http://www.w3.org/2000/svg" xmlns:xlink="http://www.w3.org/1999/xlink" version="1.1">
<metadata>
Created by FontForge 20170731 at Fri May 16 15:09:52 2014
 By Aleksey,,,
Copyright (c) 2014 by (c) 2009 Designed by Svetoslav Simov (c) Fontfabric, Inc. All rights reserved.
</metadata>
<defs>
<font id="UniSansHeavyItalic" horiz-adv-x="512" >
  <font-face 
    font-family="Uni Sans Heavy Italic"
    font-weight="900"
    font-style="italic"
    font-stretch="normal"
    units-per-em="1000"
    panose-1="0 0 5 0 0 0 0 0 0 0"
    ascent="756"
    descent="-244"
    x-height="518"
    cap-height="708"
    bbox="-96 -255 1033.78 968"
    underline-thickness="50"
    underline-position="-150"
    unicode-range="U+0020-FB02"
  />
<missing-glyph horiz-adv-x="601" 
d="M540 0h-529l98 700h529zM340 458q11 14 20.5 26t19.5 24t20 25t23 29h-139zM272 363l-63 121l-37 -262l106 127zM376 349l70 -127l37 262l-97 -121zM363 139q-8 12 -20 36t-35 66l-84 -102h139z" />
    <glyph glyph-name="fi" unicode="fi" horiz-adv-x="580" 
d="M398 639q4 32 21.5 52.5t40.5 31t48.5 10t45.5 -11t31 -31t7 -51.5t-21.5 -51.5t-40.5 -31t-48 -11t-45 10t-31.5 31t-7.5 52.5zM323 0l72 518h168l-72 -518h-168zM-41 -54q17 12 26.5 22.5t14 20t5.5 17t2 13.5l69 490q8 59 34 100.5t64.5 66.5t86 33.5t99.5 1.5
l-21 -153q-20 5 -37 2.5t-30 -10t-21 -18.5t-10 -23l-3 -17h87l-21 -149h-87l-45 -324q-7 -51 -42.5 -96.5t-104.5 -84.5z" />
    <glyph glyph-name="fl" unicode="fl" horiz-adv-x="616" 
d="M567 5q-54 -14 -97.5 -4.5t-72.5 36t-42 67t-6 90.5l72 514h169l-72 -512q-3 -23 14 -38t56 -6zM-41 -54q17 12 26.5 22.5t14 20t5.5 17t2 13.5l69 490q8 59 34 100.5t64.5 66.5t86 33.5t99.5 1.5l-21 -153q-20 5 -37 2.5t-30 -10t-21 -18.5t-10 -23l-3 -17h87l-21 -149
h-87l-45 -324q-7 -51 -42.5 -96.5t-104.5 -84.5z" />
    <glyph glyph-name=".notdef" horiz-adv-x="601" 
d="M540 0h-529l98 700h529zM340 458q11 14 20.5 26t19.5 24t20 25t23 29h-139zM272 363l-63 121l-37 -262l106 127zM376 349l70 -127l37 262l-97 -121zM363 139q-8 12 -20 36t-35 66l-84 -102h139z" />
    <glyph glyph-name=".null" horiz-adv-x="0" 
 />
    <glyph glyph-name="nonmarkingreturn" horiz-adv-x="333" 
 />
    <glyph glyph-name="space" unicode=" " horiz-adv-x="184" 
 />
    <glyph glyph-name="exclam" unicode="!" horiz-adv-x="291" 
d="M101 712h204l-80 -492h-184zM17 89q3 21 13.5 39.5t25.5 32t34 21.5t40 8t38.5 -8t29 -21.5t17 -32t2.5 -39.5t-13.5 -39t-26 -31.5t-35 -21t-40.5 -7.5q-42 0 -66.5 28.5t-18.5 70.5z" />
    <glyph glyph-name="quotedbl" unicode="&#x22;" horiz-adv-x="462" 
d="M214 419h-152l41 290h173zM420 419h-153l41 290h173z" />
    <glyph glyph-name="numbersign" unicode="#" horiz-adv-x="663" 
d="M546 169h-95l-73 -170h-158l73 170h-42l-73 -170h-163l73 170h-84l52 146h102l2 5t4.5 11t4.5 11.5l2 5.5h-103l49 152h117l68 161h158l-69 -161h42l69 161h165l-71 -161h68l-59 -152h-73l-13 -33h82zM328 363q-1 -2 -4.5 -10t-8 -18.5t-9 -20t-5.5 -14.5h62q0 2 3 10
t7 18t8.5 19.5t7.5 15.5h-61z" />
    <glyph glyph-name="dollar" unicode="$" horiz-adv-x="569" 
d="M181 -1q-61 2 -107 38.5t-74 100.5l140 88q17 -28 32 -37t34 -12l14 97q-36 9 -68 24.5t-55 41.5t-33 64t-2 91q8 42 28.5 75.5t49.5 59t64.5 42.5t74.5 25l9 59h129l-8 -58q51 -7 87.5 -33t68.5 -86l-131 -76q-6 14 -18.5 23.5t-29.5 12.5l-15 -112q39 -10 72 -25.5
t55.5 -41.5t31.5 -65.5t-2 -96.5q-9 -41 -30 -73.5t-50 -57t-64.5 -41.5t-72.5 -26l-10 -65h-129zM220 493q-4 -21 3.5 -36.5t25.5 -22.5l17 114q-20 -10 -32 -24.5t-14 -29.5v-1zM373 218q4 21 -3.5 36.5t-26.5 22.5l-16 -114q20 10 32 24.5t14 29.5v1z" />
    <glyph glyph-name="percent" unicode="%" horiz-adv-x="739" 
d="M621 764l100 -72l-598 -757l-101 69zM357 541q-6 -41 -22 -74t-39.5 -56t-52.5 -35t-62 -12q-71 0 -103.5 45.5t-19.5 133.5q6 40 21.5 72.5t38 55t51.5 35t61 12.5q73 0 105.5 -46t21.5 -131zM238 541q4 32 -3 46t-22 14t-27 -14t-16 -45q-5 -32 3 -45.5t23 -13.5
q33 0 42 58zM695 171q-6 -41 -22 -74t-39.5 -56t-52.5 -35t-62 -12q-71 0 -103.5 45.5t-19.5 133.5q6 40 21.5 72.5t38 55t51.5 35t61 12.5q73 0 105.5 -46t21.5 -131zM576 171q4 32 -3 46t-22 14t-27 -14t-16 -45q-5 -32 3 -45.5t23 -13.5q33 0 42 58z" />
    <glyph glyph-name="ampersand" unicode="&#x26;" horiz-adv-x="677" 
d="M610 221l-74 -54l110 -166h-210l-40 57q-41 -32 -87 -47.5t-90.5 -15t-84.5 15.5t-68.5 44.5t-42.5 72t-6 97.5q9 65 43 106.5t88 71.5q-26 32 -33 68t1 71t29.5 66.5t52.5 55.5t70 37.5t82 12.5q37 -1 70 -14.5t56 -37t34.5 -57t5.5 -75.5q-8 -61 -37.5 -99t-71.5 -64
l49 -73l72 55zM327 573q-19 0 -35 -13t-18 -33q-2 -14 7 -29.5t21 -32.5q26 16 40.5 30.5t17.5 34.5q2 17 -7 30t-26 13zM236 280q-18 -9 -29 -21.5t-16 -27t-4 -28.5t8 -25q7 -13 20.5 -20t29.5 -7t33 6.5t31 20.5z" />
    <glyph glyph-name="quotesingle" unicode="'" horiz-adv-x="256" 
d="M217 418h-155l41 290h170z" />
    <glyph glyph-name="parenleft" unicode="(" horiz-adv-x="320" 
d="M365 718q-149 -185 -174 -376t71 -379l-139 -85q-62 109 -83.5 231.5t-5.5 237.5q8 58 26.5 118t47 118t66 112t84.5 100z" />
    <glyph glyph-name="parenright" unicode=")" horiz-adv-x="314" 
d="M192 783q68 -92 92 -205.5t7 -230.5q-16 -115 -71 -236.5t-149 -230.5l-108 81q70 93 114 188.5t58.5 191t-2 188t-66.5 178.5z" />
    <glyph glyph-name="asterisk" unicode="*" horiz-adv-x="477" 
d="M478 490l-114 -14l70 -78l-142 -99l-40 101l-66 -101l-121 97l93 84l-108 13l68 158l95 -48v107h164l-34 -106l111 45z" />
    <glyph glyph-name="plus" unicode="+" horiz-adv-x="565" 
d="M239 576h169l-23 -170h168l-24 -170h-168l-24 -171h-169l24 171h-175l24 170h175z" />
    <glyph glyph-name="comma" unicode="," horiz-adv-x="288" 
d="M89 -149h-172l119 255h188z" />
    <glyph glyph-name="hyphen" unicode="-" horiz-adv-x="404" 
d="M344 205h-312l24 170h312z" />
    <glyph glyph-name="period" unicode="." horiz-adv-x="255" 
d="M-1 95q3 21 13.5 39t25.5 31.5t34 21t40 7.5q42 0 67 -28.5t19 -70.5q-3 -21 -13.5 -39.5t-26 -32t-34.5 -21.5t-40 -8t-38 8t-28.5 21.5t-16.5 32t-2 39.5z" />
    <glyph glyph-name="slash" unicode="/" horiz-adv-x="490" 
d="M124 -70l-149 57l403 777l149 -55z" />
    <glyph glyph-name="zero" unicode="0" horiz-adv-x="595" 
d="M254 -10q-45 0 -89 13.5t-77 40.5t-50.5 68.5t-9.5 97.5l41 291q8 57 36.5 98t69 67.5t88 39t92.5 12.5t89 -12.5t77 -39t50.5 -67.5t9.5 -98l-41 -291q-8 -56 -36.5 -97.5t-69 -68.5t-88 -40.5t-92.5 -13.5zM333 562q-32 0 -60 -17t-34 -44l-41 -293q-2 -16 3.5 -28
t16.5 -20.5t26 -13t31 -4.5q15 0 31 3t29.5 10.5t22.5 20t12 32.5l41 293q1 13 -5.5 24.5t-17.5 19.5t-25.5 12.5t-29.5 4.5z" />
    <glyph glyph-name="one" unicode="1" horiz-adv-x="373" 
d="M118 0l66 475l-74 -47l-83 82l216 198h135l-99 -708h-161z" />
    <glyph glyph-name="two" unicode="2" horiz-adv-x="556" 
d="M65 557q55 84 119.5 122.5t146.5 38.5q58 0 101 -18.5t70 -49t38 -69.5t5 -81q-8 -50 -37 -101.5t-79 -96.5l-177 -148l86 17h160l-24 -170h-456l-31 93l343 334q26 28 31.5 53t-2.5 42.5t-27.5 26.5t-44 5.5t-50.5 -20.5t-48 -51z" />
    <glyph glyph-name="three" unicode="3" horiz-adv-x="539" 
d="M119 219q15 -31 44 -45.5t60 -14.5q36 0 65.5 16t33.5 45q4 27 -15.5 47.5t-57.5 20.5h-104l21 149h106q17 0 30 9.5t20.5 23t8.5 29t-5 26.5q-8 16 -23.5 24t-35.5 8q-26 0 -55 -11.5t-51 -33.5l-91 92q52 54 114 84t126 30q32 0 62 -7.5t55.5 -23t45.5 -40t31 -58.5v1
q8 -26 8 -56t-10 -59t-29 -54.5t-48 -42.5q25 -14 40 -35t22.5 -44.5t9 -47.5t-1.5 -45q-7 -52 -33.5 -92.5t-65 -68t-86 -41.5t-96.5 -14q-34 0 -68 7t-64 21.5t-54.5 37.5t-39.5 56z" />
    <glyph glyph-name="four" unicode="4" horiz-adv-x="562" 
d="M508 154h-54l-21 -152h-171l21 152h-229l-62 105l393 449h147l-57 -409h54zM316 297l27 180l-152 -180h125z" />
    <glyph glyph-name="five" unicode="5" horiz-adv-x="541" 
d="M147 223q15 -34 44 -46t58.5 -6.5t53.5 26.5t30 52q9 47 -11 74.5t-54 33.5t-74.5 -9t-71.5 -53h-72l58 415l420 -1l-22 -158h-277l-11 -75q65 23 122 15t97.5 -39.5t60.5 -83t11 -115.5q-7 -49 -28.5 -96.5t-58.5 -84.5t-89.5 -59.5t-121.5 -22.5q-30 0 -60 8t-58 24.5
t-51.5 42t-39.5 60.5z" />
    <glyph glyph-name="six" unicode="6" horiz-adv-x="584" 
d="M432 517q-13 26 -42.5 37t-57.5 11q-36 0 -62.5 -17.5t-31.5 -51.5l-10 -75q37 25 77.5 34.5t79 5.5t72 -20t57 -42.5t34.5 -63t5 -80.5l-6 -42q-8 -55 -35.5 -96.5t-67.5 -69.5t-89 -42.5t-98 -14.5q-53 0 -98 14t-76.5 42t-47 70t-8.5 97l40 284q7 52 33 93.5t64 69.5
t86 43t99 15q34 0 68.5 -7.5t63.5 -23t51.5 -40t34.5 -58.5zM383 260q3 19 -8.5 31.5t-30.5 18.5t-42 6t-44 -6.5t-36 -19t-17 -30.5l-7 -53q-2 -14 4 -25.5t17.5 -19t27.5 -11.5t33 -4q16 0 32.5 4t30 12t22.5 19t11 25z" />
    <glyph glyph-name="seven" unicode="7" horiz-adv-x="538" 
d="M546 708l35 -96l-407 -612h-192l353 538h-270l24 170h457z" />
    <glyph glyph-name="eight" unicode="8" horiz-adv-x="586" 
d="M244 -6q-58 0 -102.5 16.5t-73.5 45t-42.5 67.5t-9.5 84q4 47 31 91.5t79 79.5q-16 12 -26 27t-14.5 32t-5.5 34.5t1 33.5q9 62 38.5 103t68 65.5t80 34.5t75.5 10h14q44 0 83.5 -12t68 -38.5t42.5 -68.5t5 -101q-2 -12 -7.5 -28t-15.5 -32.5t-23.5 -32.5t-30.5 -26
q22 -12 36 -31t21.5 -41t9 -44t-1.5 -40q-18 -112 -90 -170.5t-196 -58.5h-14zM322 572q-23 0 -39.5 -11t-26.5 -26.5t-12 -33.5t4 -33.5t21 -25.5t39 -10q44 0 67 22t26 48t-13 48t-51 22h-15zM280 157q30 0 51 11.5t33 28t14.5 36.5t-5 36.5t-24.5 28t-45 11.5h-23
q-37 1 -61 -22t-29.5 -51.5t11.5 -53t61 -25.5h17z" />
    <glyph glyph-name="nine" unicode="9" horiz-adv-x="588" 
d="M158 209q14 -32 42 -45t58 -13q41 0 70.5 18t34.5 47l10 75q-37 -25 -77.5 -34.5t-79 -5.5t-72 20t-57 42.5t-34.5 63t-5 80.5l6 42q7 55 34.5 96t67.5 68.5t88 41t98 13.5q49 0 94 -13.5t78 -41t50 -68.5t10 -96l-40 -284q-8 -54 -36 -96t-68.5 -70.5t-89.5 -43.5
t-100 -15q-37 0 -71.5 8t-64 24.5t-51.5 42t-34 60.5zM218 452q-3 -19 8.5 -31.5t30.5 -18.5t42 -6t44 6.5t35.5 18.5t17.5 31l7 53q4 28 -22 42t-60 14q-17 0 -33 -3.5t-29.5 -10.5t-22.5 -17.5t-11 -24.5z" />
    <glyph glyph-name="colon" unicode=":" horiz-adv-x="275" 
d="M51 393q3 21 13 38.5t26 31t35 21t40 7.5q42 0 66 -28t19 -70q-3 -21 -13.5 -39.5t-25.5 -32t-34 -21.5t-40 -8t-38 8t-28.5 21.5t-17 32t-2.5 39.5zM10 106q7 44 39.5 72t74.5 28q21 0 38 -7.5t28.5 -21t16.5 -31.5t2 -40q-3 -21 -13 -39t-25.5 -31.5t-34.5 -21.5
t-40 -8q-42 0 -66.5 29t-19.5 71z" />
    <glyph glyph-name="semicolon" unicode=";" horiz-adv-x="292" 
d="M56 382q6 42 37.5 70t76.5 28q43 0 66.5 -28t17.5 -70q-6 -43 -37.5 -72t-74.5 -29q-45 0 -68.5 29t-17.5 72zM103 -128h-155l95 255h187z" />
    <glyph glyph-name="less" unicode="&#x3c;" horiz-adv-x="445" 
d="M229 292q37 -21 75.5 -44t72.5 -43l-28 -199l-333 232l15 109l399 235l-28 -199z" />
    <glyph glyph-name="equal" unicode="=" horiz-adv-x="529" 
d="M483 319h-434l22 155h434zM455 115h-434l22 156h434z" />
    <glyph glyph-name="greater" unicode="&#x3e;" horiz-adv-x="446" 
d="M411 238l-400 -232l28 199l182 87l-157 91l28 199l334 -235z" />
    <glyph glyph-name="question" unicode="?" horiz-adv-x="491" 
d="M60 584q38 58 87.5 89.5t100 40.5t98 -2.5t82.5 -41t53 -74.5t10 -102q-5 -33 -19.5 -65.5t-39.5 -59.5t-60 -46.5t-81 -25.5l-26 -117h-150l22 228q30 -14 60 -14t54.5 10.5t41 31t20.5 47.5t-13.5 43t-44.5 19t-57 -8.5t-49 -39.5zM83 65q5 40 35 65t68 25t60.5 -25
t17.5 -65q-3 -19 -12.5 -35.5t-23.5 -29t-31 -19.5t-36 -7q-38 0 -61 26.5t-17 64.5z" />
    <glyph glyph-name="at" unicode="@" horiz-adv-x="760" 
d="M602 520q-11 18 -29 31t-40 22t-45.5 13t-44.5 4q-60 0 -110 -24.5t-87 -64t-60 -88.5t-30 -98q-8 -59 7 -106t50 -75.5t88 -36.5t119 11l13 -96q-71 -21 -128 -21q-66 0 -121.5 25t-93 71t-52.5 110.5t0 143.5q15 67 51.5 133t90.5 118t122.5 84t148.5 32q54 0 103 -13
q63 -19 112.5 -61t69.5 -94q16 -44 15 -95.5t-17 -101.5t-46 -95.5t-71 -77.5q-26 -21 -64 -36t-76 -15q-20 0 -36.5 4t-33.5 17q-34 -19 -73 -19q-40 0 -70.5 15t-50 41t-27.5 61t-2 76q6 47 27.5 91t52.5 77.5t69 54t79 20.5q27 0 50.5 -8.5t48.5 -31.5l21 21zM532 239
q31 13 53 42.5t33.5 65t12.5 71t-9 59.5l-7 18zM366 244q12 0 24.5 4t22.5 12l53 147q-21 26 -43 30.5t-41.5 -5.5t-35 -31t-24 -46t-8 -50.5t13.5 -44.5q7 -9 17 -12.5t21 -3.5z" />
    <glyph glyph-name="A" unicode="A" horiz-adv-x="646" 
d="M613 0h-192l-27 142h-189l-63 -142h-192l346 708h163zM374 301l-21 207h-7l-78 -207h106z" />
    <glyph glyph-name="B" unicode="B" horiz-adv-x="623" 
d="M596 492q-2 -12 -8.5 -28t-18 -32t-27 -30.5t-36.5 -24.5q34 -18 52 -43t25 -52t4.5 -53t-8.5 -46q-26 -86 -92.5 -134.5t-184.5 -48.5h-289l99 708h284q51 0 91.5 -15t67.5 -42.5t38.5 -67.5t2.5 -91zM357 431q33 0 52.5 19.5t23 43.5t-10 43.5t-47.5 19.5h-104
l-18 -126h104zM319 157q40 0 63.5 22.5t27 50t-13.5 50t-57 22.5h-104l-20 -145h104z" />
    <glyph glyph-name="C" unicode="C" horiz-adv-x="581" 
d="M551 149q-33 -47 -68 -77.5t-70.5 -48.5t-71 -25.5t-68.5 -7.5q-52 0 -100 15t-83 45.5t-52.5 76t-9.5 105.5l34 244q8 60 38.5 105.5t74.5 75.5t97 45.5t106 15.5q33 0 66.5 -8t64.5 -26.5t55.5 -50t39.5 -78.5l-154 -59q-12 30 -40 43.5t-60 13.5q-19 0 -37.5 -5.5
t-33.5 -15.5t-25 -24t-13 -32l-34 -244q-5 -35 22 -55t65 -20q31 0 62 15t49 49z" />
    <glyph glyph-name="D" unicode="D" horiz-adv-x="635" 
d="M377 708q53 0 101 -14t82 -43t51 -73.5t8 -106.5l-34 -238q-9 -61 -38 -105t-71 -72.5t-93.5 -42t-104.5 -13.5h-265l99 708h265zM307 168q37 0 65.5 18t32.5 47l34 238q4 29 -19 49.5t-60 20.5h-91l-53 -373h91z" />
    <glyph glyph-name="E" unicode="E" horiz-adv-x="588" 
d="M254 434h287l-22 -159h-287l-15 -106h312l-23 -169h-493l99 708h493l-24 -169h-312z" />
    <glyph glyph-name="F" unicode="F" horiz-adv-x="577" 
d="M251 411h273l-23 -167h-273l-34 -244h-181l99 708h493l-24 -170h-312z" />
    <glyph glyph-name="G" unicode="G" horiz-adv-x="623" 
d="M441 498q-8 32 -33.5 46.5t-55.5 14.5q-19 0 -37.5 -5.5t-33.5 -16t-25.5 -25.5t-13.5 -34l-34 -243q-5 -41 23.5 -61t68.5 -20q19 0 38.5 5t35.5 15t27 25.5t14 35.5l4 30h-113l20 146h285l-24 -176q-9 -61 -39 -107t-73.5 -76.5t-96 -46t-105.5 -15.5t-100.5 15.5
t-82.5 46t-52.5 76.5t-8.5 107l34 243q9 62 39 107t73.5 74.5t95.5 44t105 14.5q34 0 69 -7.5t65.5 -25.5t54.5 -47t36 -71z" />
    <glyph glyph-name="H" unicode="H" horiz-adv-x="676" 
d="M193 0h-180l99 708h180l-38 -268h204l38 268h180l-99 -708h-180l37 267h-204z" />
    <glyph glyph-name="I" unicode="I" horiz-adv-x="291" 
d="M192 0h-179l99 708h179z" />
    <glyph glyph-name="J" unicode="J" horiz-adv-x="585" 
d="M162 243q1 -21 8.5 -36t19.5 -25t27.5 -14.5t31.5 -4.5q34 0 63.5 18t34.5 50l44 315h-161l23 162h338l-67 -477q-8 -58 -36 -103t-68.5 -75.5t-90.5 -46.5t-104 -16q-46 0 -89 13t-76 40t-53 68t-19 97z" />
    <glyph glyph-name="K" unicode="K" horiz-adv-x="638" 
d="M484 708h223l-329 -348l229 -360h-225l-148 253l-7 -8l-34 -245h-180l99 708h180l-37 -262z" />
    <glyph glyph-name="L" unicode="L" horiz-adv-x="536" 
d="M112 708h180l-75 -531h288l-24 -177h-468z" />
    <glyph glyph-name="M" unicode="M" horiz-adv-x="769" 
d="M112 708h179l100 -346l199 346h179l-99 -708h-180l29 204l30 143l-5 1l-127 -243h-123l-61 243l-4 -1l-9 -143l-28 -204h-179z" />
    <glyph glyph-name="N" unicode="N" horiz-adv-x="676" 
d="M112 708h170l129 -302l40 -142l4 1l-2 122l45 321h178l-99 -708h-181l-121 279l-42 142l-4 -1l2 -137l-39 -283h-179z" />
    <glyph glyph-name="O" unicode="O" horiz-adv-x="664" 
d="M63 475q9 61 40.5 106.5t77 76t100 45.5t109.5 15t106 -15t88 -45.5t56 -76t10 -106.5l-35 -242q-9 -61 -39.5 -106.5t-75.5 -76t-100 -45.5t-113 -15q-55 0 -105.5 15t-87.5 45.5t-56 76t-10 106.5zM207 233q-3 -19 5 -33.5t22 -24t33.5 -14.5t39.5 -5q22 0 43.5 5
t39.5 15t30.5 25.5t15.5 36.5l35 237q3 20 -4 35t-21 25t-33.5 15t-41.5 5t-43.5 -5t-39.5 -15t-30.5 -25t-15.5 -35z" />
    <glyph glyph-name="P" unicode="P" horiz-adv-x="619" 
d="M112 708h283q65 0 110 -22t72 -57.5t37 -81.5t5 -94q-6 -50 -27 -95t-57 -78.5t-86.5 -53t-114.5 -19.5h-113l-29 -207h-179zM347 366q21 0 37.5 7.5t28.5 20t19 29.5t9 35q5 35 -12.5 59t-56.5 24h-104l-25 -175h104z" />
    <glyph glyph-name="Q" unicode="Q" horiz-adv-x="664" 
d="M63 475q9 61 40.5 106.5t77 76t100 45.5t109.5 15t106 -15t88 -45.5t56 -76t10 -106.5l-35 -242q-5 -37 -19.5 -68t-34.5 -57l47 -56l-111 -94l-50 65q-38 -17 -78.5 -25t-81.5 -8q-55 0 -105.5 15t-87.5 45.5t-56 76t-10 106.5zM207 233q-3 -24 7.5 -42.5t29.5 -29
t43.5 -12t47.5 7.5l-50 60l111 86l42 -50l33 222q3 20 -4.5 35.5t-22 25.5t-34 15t-40.5 5q-22 0 -43.5 -5t-39.5 -15t-30 -25.5t-15 -35.5z" />
    <glyph glyph-name="R" unicode="R" horiz-adv-x="643" 
d="M257 225h-32l-31 -225h-181l99 708h283q55 0 100.5 -15t77 -45t45.5 -76t7 -108q-7 -49 -21 -83.5t-35 -59t-50 -43t-65 -35.5l170 -243h-223zM352 379q42 0 65 25.5t27 56.5q4 32 -12.5 56t-56.5 24h-105l-23 -162h105z" />
    <glyph glyph-name="S" unicode="S" horiz-adv-x="569" 
d="M118 224q23 -34 63 -51t80 -17q36 0 64 13t33 41q3 16 -6 28.5t-25 20.5t-37.5 13.5t-42.5 8.5q-42 7 -79.5 26.5t-64.5 50.5t-39 72.5t-3 91.5q10 54 37.5 91.5t66.5 61t85.5 33.5t95.5 10q32 0 63 -5t60 -18t55 -35t49 -55l-130 -90q-23 26 -55 38t-63 13
q-34 1 -59 -12t-28 -40q-4 -31 20 -46.5t65 -24.5q46 -9 89.5 -23.5t74 -42t44.5 -71t2 -109.5q-10 -52 -36.5 -90.5t-65.5 -64.5t-89.5 -39t-107.5 -13q-32 0 -66.5 8t-67 24t-61.5 40t-49 56z" />
    <glyph glyph-name="T" unicode="T" horiz-adv-x="588" 
d="M417 545l-75 -545h-181l75 545h-191l24 164h563l-24 -164h-191z" />
    <glyph glyph-name="U" unicode="U" horiz-adv-x="666" 
d="M222 239q-3 -21 3.5 -37t19.5 -26.5t30.5 -16t36.5 -5.5q20 0 39 5.5t34.5 16t26 26.5t13.5 37l66 469h181l-66 -469q-9 -62 -40 -109t-75 -78t-97 -46.5t-106 -15.5t-101.5 15.5t-84 46.5t-53 78t-8.5 109l66 469h181z" />
    <glyph glyph-name="V" unicode="V" horiz-adv-x="653" 
d="M528 709h192l-354 -709h-164l-156 709h192l63 -346l10 -169h2l54 168z" />
    <glyph glyph-name="W" unicode="W" horiz-adv-x="913" 
d="M785 708h185l-303 -708h-166l-36 196l-2 162h-3l-50 -161l-83 -197h-166l-106 708h186l36 -339l-2 -150h4l38 149l114 248h136l38 -249l2 -148h3l41 148z" />
    <glyph glyph-name="X" unicode="X" horiz-adv-x="656" 
d="M507 708h208l-248 -355l149 -353h-208l-91 241l-154 -241h-209l248 353l-149 355h209l87 -242z" />
    <glyph glyph-name="Y" unicode="Y" horiz-adv-x="653" 
d="M194 0l39 279l-187 429h208l92 -249l164 249h210l-308 -429l-39 -279h-179z" />
    <glyph glyph-name="Z" unicode="Z" horiz-adv-x="603" 
d="M613 708l23 -60l-374 -485l289 2l-23 -165h-524l-24 66l372 476h-284l23 166h522z" />
    <glyph glyph-name="bracketleft" unicode="[" horiz-adv-x="327" 
d="M187 65h69l-24 -165h-239l113 810h240l-23 -166h-69z" />
    <glyph glyph-name="backslash" unicode="\" horiz-adv-x="504" 
d="M76 711l169 56l196 -771l-167 -54z" />
    <glyph glyph-name="bracketright" unicode="]" horiz-adv-x="328" 
d="M139 547h-67l23 163h240l-114 -810h-239l23 163h66z" />
    <glyph glyph-name="asciicircum" unicode="^" horiz-adv-x="652" 
d="M640 404h-207l-81 115l-111 -115h-200l290 303h98z" />
    <glyph glyph-name="underscore" unicode="_" horiz-adv-x="592" 
d="M486 -135h-503l23 169h503z" />
    <glyph glyph-name="grave" unicode="`" horiz-adv-x="315" 
d="M184 754l-130 159h188l99 -159h-157z" />
    <glyph glyph-name="a" unicode="a" horiz-adv-x="506" 
d="M276 38q-27 -23 -58.5 -35.5t-58.5 -12.5q-36 0 -64.5 14t-47 38.5t-26.5 58t-3 73.5l22 161q7 54 31 91t58.5 59.5t76 32.5t84.5 10q49 0 99.5 -14t94.5 -40l-65 -474h-124zM307 382q-15 7 -33 7q-25 0 -44.5 -14.5t-23.5 -38.5l-21 -149q-2 -15 1.5 -25.5t10 -16.5
t16 -9t19.5 -3q24 0 42 9z" />
    <glyph glyph-name="b" unicode="b" horiz-adv-x="508" 
d="M247 519q17 5 33.5 7t32.5 2q36 0 68.5 -13t56 -37t34.5 -57.5t5 -75.5l-25 -176q-8 -52 -29.5 -86.5t-53 -55t-70 -29t-79.5 -8.5q-57 0 -112 13.5t-100 31.5l95 673h170zM191 127q15 -5 30 -5q21 0 40.5 9.5t22.5 32.5l27 181q3 22 -11.5 33.5t-34.5 11.5q-19 0 -38 -7
z" />
    <glyph glyph-name="c" unicode="c" horiz-adv-x="462" 
d="M426 142q-20 -44 -47.5 -73t-57.5 -46.5t-61 -25t-57 -7.5q-39 0 -75.5 12t-63.5 35.5t-40.5 59t-6.5 82.5l24 169q7 48 30 82t56 55.5t73 32t79 10.5q26 0 54 -6.5t52.5 -23t42 -43.5t23.5 -69l-148 -44q-2 23 -15 33.5t-29 10.5q-18 0 -34 -11t-19 -33l-24 -166
q-3 -21 10 -32.5t30 -11.5t34.5 10t28.5 33z" />
    <glyph glyph-name="d" unicode="d" horiz-adv-x="508" 
d="M423 34q-49 -18 -106 -31t-114 -13q-41 0 -78 9.5t-63 31t-39 57.5t-5 89l25 177q6 43 26 76t49 54.5t64.5 32.5t73.5 11q17 0 33.5 -2.5t32.5 -7.5l26 190h170zM302 382q-12 6 -32 6t-38.5 -10.5t-22.5 -34.5l-26 -180q-3 -23 13.5 -32.5t37.5 -9.5q15 0 32 5z" />
    <glyph glyph-name="e" unicode="e" horiz-adv-x="470" 
d="M179 194q-4 -29 11 -45t38.5 -20t50 3t44.5 24l81 -82q-27 -27 -53.5 -43.5t-52.5 -25.5t-50.5 -12t-46.5 -3q-39 0 -75 12.5t-62.5 36.5t-40 60t-6.5 83l21 148q7 49 30 86t56.5 62t73.5 37.5t80 12.5t74.5 -12t58.5 -35.5t35 -59t4 -83.5q-7 -46 -33 -78t-64 -50
t-83.5 -22t-90.5 6zM195 294q15 -7 32.5 -7.5t32.5 5t25.5 17.5t12.5 32q3 18 -6.5 33t-33.5 15q-18 0 -35.5 -12t-20.5 -34z" />
    <glyph glyph-name="f" unicode="f" horiz-adv-x="317" 
d="M-41 -54q17 12 26.5 22.5t14 20t5.5 17t2 13.5l69 490q8 59 34 100.5t64.5 66.5t86 33.5t99.5 1.5l-21 -153q-20 5 -37 2.5t-30 -10t-21 -18.5t-10 -23l-3 -17h87l-21 -149h-87l-45 -324q-7 -51 -42.5 -96.5t-104.5 -84.5z" />
    <glyph glyph-name="g" unicode="g" horiz-adv-x="502" 
d="M41 344q7 52 30.5 87.5t57.5 57t75 30.5t84 9q57 0 106 -13t87 -32l-63 -445q-8 -61 -29.5 -105.5t-52.5 -74t-69.5 -44t-80.5 -14.5q-49 0 -97 18.5t-90 55.5l83 95q22 -17 45.5 -24.5t46.5 -7.5q34 0 54.5 15.5t25.5 51.5q-20 -8 -39.5 -11t-39.5 -3q-36 0 -67.5 12
t-54 36t-32.5 59.5t-4 80.5zM305 391q-15 9 -38 9q-21 0 -39 -12t-22 -38l-26 -181q-4 -25 11.5 -36t35.5 -11q22 0 41 11z" />
    <glyph glyph-name="h" unicode="h" horiz-adv-x="514" 
d="M245 518q33 10 68 10q42 0 74.5 -12.5t54 -37t30.5 -61t2 -84.5l-46 -333h-168l47 334q3 22 -10.5 32t-33.5 10q-23 0 -39 -9l-51 -367h-168l99 708h168z" />
    <glyph glyph-name="i" unicode="i" horiz-adv-x="265" 
d="M81 639q4 32 21.5 52.5t40.5 31t48.5 10t45.5 -11t31 -31t7 -51.5q-4 -29 -21 -48.5t-40 -29t-48 -10t-45.5 9t-32 29t-7.5 49.5zM247 518l-73 -518h-169l73 518h169z" />
    <glyph glyph-name="j" unicode="j" horiz-adv-x="264" 
d="M81 639q4 32 21.5 52.5t40.5 31t48.5 10t45.5 -11t31 -31t7 -51.5q-4 -29 -21 -48.5t-40 -29t-48 -10t-45.5 9t-32 29t-7.5 49.5zM-76 -37q37 -9 57.5 6t23.5 38l73 511h169l-73 -513q-7 -50 -31.5 -90.5t-61 -67t-82 -36t-95.5 4.5z" />
    <glyph glyph-name="k" unicode="k" horiz-adv-x="508" 
d="M349 518h190l-223 -251l150 -267h-188l-89 166l-23 -166h-161l99 708h161l-49 -351z" />
    <glyph glyph-name="l" unicode="l" horiz-adv-x="294" 
d="M245 -1q-36 -9 -67 -9q-39 0 -70 13t-51.5 38.5t-28.5 62.5t-1 84l73 520h169l-73 -518q-3 -19 8 -33t36 -14q12 0 26 3z" />
    <glyph glyph-name="m" unicode="m" horiz-adv-x="736" 
d="M71 476q33 23 82 37.5t100 14.5q45 0 79 -13t64 -42q32 29 64.5 42t67.5 13q37 0 70 -12.5t57 -36t36 -57.5t6 -77l-48 -345h-168l48 347q2 16 -6 24t-25 8q-14 0 -27 -7.5t-15 -23.5l-48 -348h-163l48 340q2 14 -8 24.5t-28 10.5q-10 0 -19.5 -2.5t-16.5 -8.5l-51 -364
h-166z" />
    <glyph glyph-name="n" unicode="n" 
d="M72 486q44 20 94.5 31t101.5 11q47 0 87.5 -10.5t69 -33.5t41.5 -60t6 -91l-47 -333h-168l47 332q4 28 -10 38t-34 10t-35 -6l-53 -374h-169z" />
    <glyph glyph-name="o" unicode="o" horiz-adv-x="493" 
d="M39 337q7 48 30 83.5t56.5 59.5t73 36t79.5 12q39 0 75.5 -12t62.5 -36t39.5 -59.5t6.5 -83.5l-23 -164q-6 -46 -29.5 -80t-56.5 -57t-72.5 -34.5t-79.5 -11.5q-39 0 -75.5 11.5t-63 34.5t-39.5 57.5t-7 79.5zM255 378q-15 0 -31.5 -10t-18.5 -28l-23 -169
q-2 -18 10 -28.5t29 -10.5t32.5 9t18.5 30l23 169q2 18 -11.5 28t-28.5 10z" />
    <glyph glyph-name="p" unicode="p" horiz-adv-x="507" 
d="M71 484q50 18 108 31t114 13q42 0 77.5 -8.5t60.5 -29.5t37.5 -55t8.5 -85l-24 -173q-6 -47 -26.5 -81.5t-49 -57.5t-63.5 -34t-70 -11q-18 0 -35.5 2.5t-34.5 7.5l-27 -189h-169zM193 139q16 -8 40 -8q19 0 34 10t19 38l25 176q3 22 -11.5 32t-36.5 10q-9 0 -18 -1
t-17 -4z" />
    <glyph glyph-name="q" unicode="q" horiz-adv-x="509" 
d="M248 1q-18 -6 -36 -8.5t-35 -2.5q-37 0 -69 13.5t-54.5 37.5t-32.5 58t-4 76l26 175q8 54 31 89t55.5 54.5t71.5 27t80 7.5q56 0 109 -13t97 -31l-95 -670h-170zM304 389q-16 8 -35 8q-20 0 -37 -10t-21 -32l-28 -180q-4 -23 11 -34t35 -11q12 0 21 2t17 5z" />
    <glyph glyph-name="r" unicode="r" horiz-adv-x="353" 
d="M283 528q14 0 33.5 -2.5t51.5 -10.5l-20 -141q-17 6 -38.5 7t-41.5 -4.5t-35 -18.5t-18 -34l-45 -324h-169l45 326q7 53 27.5 91t51.5 63t71 36.5t87 11.5z" />
    <glyph glyph-name="s" unicode="s" horiz-adv-x="425" 
d="M80 174q24 -20 53 -30t55 -8q13 1 19.5 8.5t6 16.5t-7.5 16t-21 8q-44 8 -73.5 26.5t-47 43.5t-23.5 54t-2 58q4 33 20 62.5t42 51t62 34.5t80 13q35 0 79.5 -13t87.5 -53l-91 -107q-44 23 -72.5 24.5t-35.5 -14.5q-4 -9 -1 -15.5t9.5 -11.5t15 -8.5t15.5 -4.5
q25 -5 50.5 -16t45.5 -30t30.5 -48t4.5 -69q-6 -44 -25.5 -76.5t-48 -53.5t-64 -31.5t-72.5 -10.5q-26 0 -50 3.5t-47 12.5t-44.5 24.5t-40.5 40.5z" />
    <glyph glyph-name="t" unicode="t" horiz-adv-x="330" 
d="M268 9q-50 -19 -99 -19q-36 0 -65.5 12t-49 36t-27.5 61t-1 87l64 454h159l-9 -122h85l-18 -126h-85l-28 -205q-5 -31 9.5 -41.5t36.5 -10.5q20 0 47 8z" />
    <glyph glyph-name="u" unicode="u" 
d="M427 32q-44 -20 -92 -31t-105 -11q-45 0 -85 10.5t-68.5 33.5t-42.5 60.5t-7 90.5l45 333h168l-45 -332q-4 -26 11 -37t35 -11q18 0 33 6l51 374h169z" />
    <glyph glyph-name="v" unicode="v" horiz-adv-x="510" 
d="M363 518h181l-257 -518h-150l-111 518h179l30 -250l2 -102h3l24 103z" />
    <glyph glyph-name="w" unicode="w" horiz-adv-x="753" 
d="M110 0l-78 518h170l23 -225l2 -108h2l106 333h141l14 -333h3l31 108l85 225h171l-223 -518h-173l-17 127l-2 89h-3l-28 -89l-51 -127h-173z" />
    <glyph glyph-name="x" unicode="x" horiz-adv-x="523" 
d="M141 0h-180l194 259l-123 259h183l41 -91l13 -59h2l26 61q0 -1 6 9q5 8 18.5 26.5t39.5 53.5h188l-198 -257l130 -261h-192l-45 95l-10 54h-2l-23 -55z" />
    <glyph glyph-name="y" unicode="y" horiz-adv-x="511" 
d="M426 38q-9 -67 -31 -112.5t-52.5 -73.5t-68.5 -40t-80 -12q-49 0 -97 18.5t-90 55.5l83 95q22 -17 45.5 -24.5t46.5 -7.5q34 0 54.5 15.5t25.5 51.5q-20 -8 -39.5 -11t-39.5 -3q-36 0 -67.5 12t-54 36t-32.5 59.5t-4 80.5l48 340h164l-49 -349q-2 -15 1 -24.5t10 -14.5
t16.5 -6.5t19.5 -1.5q20 0 39 11l53 385h166z" />
    <glyph glyph-name="z" unicode="z" horiz-adv-x="457" 
d="M431 518l25 -47l-228 -321h176l-21 -150h-371l-28 52l225 316h-165l21 150h366z" />
    <glyph glyph-name="braceleft" unicode="{" horiz-adv-x="350" 
d="M269 418q-2 -16 -9.5 -34t-19.5 -34.5t-27 -30t-32 -19.5q33 -13 46.5 -47.5t8.5 -71.5l-17 -118h59l-23 -163h-90q-42 0 -67.5 10.5t-38 30.5t-15 48.5t2.5 64.5l16 111q3 21 -6 37t-41 16l23 163q32 0 45.5 16t15.5 36l18 122q5 35 16 63.5t31 49t50 31.5t72 11h82
l-23 -163h-59z" />
    <glyph glyph-name="bar" unicode="|" horiz-adv-x="268" 
d="M-11 -135l119 859h169l-120 -859h-168z" />
    <glyph glyph-name="braceright" unicode="}" horiz-adv-x="343" 
d="M164 708q51 0 79.5 -11t41.5 -31.5t13.5 -49t-4.5 -63.5l-17 -120q-2 -20 6.5 -36t41.5 -16l-23 -163q-33 0 -46 -16t-16 -37l-17 -119q-5 -36 -15 -64.5t-30 -48.5t-51.5 -30.5t-79.5 -10.5h-66l23 163h50l18 126q1 19 10 38t22.5 35.5t29.5 28.5t32 18q-14 7 -26.5 19
t-21.5 28t-13 34t0 36l18 127h-51l23 163h69z" />
    <glyph glyph-name="asciitilde" unicode="~" horiz-adv-x="490" 
d="M464 306q-18 -25 -38.5 -47.5t-43 -39t-47 -26.5t-50.5 -10q-19 0 -34.5 7t-28 16t-24.5 16.5t-23.5 9t-25 -6.5t-29.5 -30l-98 93q18 22 38 43t42 36.5t45 25t47 9.5q22 0 38.5 -8t30 -18.5t25.5 -19t25 -10t27 8t33 36.5z" />
    <glyph glyph-name="uni00A0" unicode="&#xa0;" horiz-adv-x="184" 
 />
    <glyph glyph-name="exclamdown" unicode="&#xa1;" horiz-adv-x="266" 
d="M248 416q-6 -44 -38.5 -72t-75.5 -28q-44 0 -67 28t-17 72q6 42 37 70t75 28q43 0 67.5 -28t18.5 -70zM150 -184h-171l66 475h171z" />
    <glyph glyph-name="cent" unicode="&#xa2;" horiz-adv-x="478" 
d="M348 514q19 -6 36.5 -16.5t31.5 -26.5t24.5 -38t14.5 -51l-148 -44q-2 24 -16 34.5t-31 9.5t-32 -12t-18 -32l-22 -158q-3 -21 9 -32t29 -12t35.5 9.5t29.5 33.5l141 -33q-29 -62 -70.5 -95t-85.5 -47l-10 -73h-128l10 70q-30 7 -55.5 22.5t-42.5 38t-24.5 53t-2.5 68.5
l21 151q6 38 22 68.5t39.5 53t53 37.5t61.5 23l10 71h128z" />
    <glyph glyph-name="sterling" unicode="&#xa3;" horiz-adv-x="529" 
d="M433 532q-13 17 -32 22t-38 -1t-33.5 -21t-17.5 -39l-10 -70h168l-22 -153h-168l-15 -112h206l-22 -158h-455l22 158h78l15 112h-78l22 153h78l10 75q5 36 21 73.5t45 68t73 50.5t106 20q38 0 83 -19t77 -64z" />
    <glyph glyph-name="currency" unicode="&#xa4;" horiz-adv-x="615" 
d="M67 220q-17 51 -8 111q5 29 15.5 57.5t24.5 53.5l-42 47l131 122l46 -53q26 11 53.5 17t57.5 6q29 0 56 -7t50 -18l61 54l96 -121l-56 -48q19 -52 10 -110q-9 -60 -40 -112l42 -46l-130 -121l-46 53q-28 -14 -54.5 -19t-58.5 -5q-27 0 -54 5.5t-51 17.5q-7 -6 -17 -15
t-20 -17q-11 -10 -24 -19l-94 118zM211 330q-6 -42 19 -70.5t66 -28.5q20 0 39 7.5t34 21t25.5 31.5t13.5 39q6 43 -19 72t-65 29q-20 0 -39 -8t-34.5 -21.5t-26 -32t-13.5 -39.5z" />
    <glyph glyph-name="yen" unicode="&#xa5;" horiz-adv-x="714" 
d="M532 253h-95l-4 -31h118l-38 -108h-95l-16 -114h-179l16 114h-109l37 108h87l4 31h-109l37 108h40l-151 347h208l90 -270l166 270h210l-250 -347h71z" />
    <glyph glyph-name="brokenbar" unicode="&#xa6;" horiz-adv-x="273" 
d="M52 313l49 347h170l-49 -347h-170zM-6 -110l52 377h170l-53 -377h-169z" />
    <glyph glyph-name="section" unicode="&#xa7;" horiz-adv-x="475" 
d="M127 115q11 -21 29.5 -30.5t36 -10t31 7.5t15.5 23t-13.5 27.5t-39.5 25.5t-52.5 28t-52 35t-37 47t-8.5 63q9 70 65 106q-14 19 -18.5 42.5t-1.5 44.5q6 44 28 78.5t53 58t68 36t75 12.5q47 0 85 -23.5t69 -82.5l-128 -71q-8 17 -20.5 23t-25 3.5t-22 -12t-11.5 -22.5
q-2 -17 13 -28.5t38 -22.5t50 -23.5t49.5 -31t35 -46t6.5 -67.5q-4 -29 -20 -55t-42 -45q17 -26 22 -53t1 -53q-5 -36 -25.5 -69t-51 -58t-69.5 -39.5t-80 -14.5q-54 0 -102.5 29.5t-77.5 89.5zM284 267q29 26 7 50.5t-86 52.5q-14 -7 -20 -16t-4.5 -18t9 -17.5t19.5 -13.5z
" />
    <glyph glyph-name="dieresis" unicode="&#xa8;" horiz-adv-x="446" 
d="M51 836q5 37 33.5 62t64.5 25t57.5 -25t16.5 -62q-3 -18 -11.5 -33.5t-22 -27t-30 -18t-34.5 -6.5q-36 0 -57.5 25t-16.5 60zM292 836q5 37 32.5 62t65.5 25q37 0 58.5 -25t16.5 -62q-3 -18 -11.5 -33.5t-22 -27t-30.5 -18t-35 -6.5q-38 0 -58.5 25t-15.5 60z" />
    <glyph glyph-name="copyright" unicode="&#xa9;" horiz-adv-x="777" 
d="M36 351q10 74 48 139.5t93.5 114t125 77t143.5 28.5t135 -28.5t103 -77t61 -114t9 -139.5q-11 -74 -48.5 -139.5t-93 -114.5t-124.5 -77t-143 -28t-135.5 28t-103.5 77t-61.5 114.5t-8.5 139.5zM139 351q-8 -53 5.5 -100t43.5 -82t74 -55t98 -20q53 0 102 20t88.5 55
t66 82t34.5 100q7 54 -6 100.5t-43 81t-73.5 54.5t-96.5 20q-54 0 -103.5 -20t-89 -54.5t-66.5 -81t-34 -100.5zM211 404q6 42 27 73.5t51 52t66 30.5t72 10q28 0 56.5 -7t52.5 -22t40.5 -39t21.5 -59l-99 -36q-5 34 -31.5 49t-57.5 13.5t-59 -18t-36 -46.5l-15 -113
q-1 -30 22 -46.5t53.5 -18t61 13.5t45.5 49l91 -36q-15 -35 -38.5 -59t-52 -39t-59.5 -22t-59 -7q-36 0 -69 10t-57 30.5t-36 52t-6 73.5z" />
    <glyph glyph-name="ordfeminine" unicode="&#xaa;" horiz-adv-x="371" 
d="M81 626q36 45 88 63.5t98.5 10.5t76 -41.5t21.5 -91.5l-33 -233q-50 -13 -103.5 -19t-96 3.5t-67 39.5t-16.5 88q6 44 30 70.5t55 38.5t64 12t58 -8q2 20 -11 30t-33 11.5t-42.5 -5.5t-39.5 -21zM237 471q-10 4 -23 5t-25 -2t-21 -11t-11 -20q-2 -16 4.5 -25t17 -13
t24 -3.5t24.5 3.5z" />
    <glyph glyph-name="guillemotleft" unicode="&#xab;" horiz-adv-x="612" 
d="M343 438l-124 -151l82 -153l-159 -86l-125 239l193 237zM601 438l-125 -153l84 -150l-159 -87l-126 239l193 237z" />
    <glyph glyph-name="logicalnot" unicode="&#xac;" horiz-adv-x="576" 
d="M57 429h487l-43 -301h-168l19 132h-319z" />
    <glyph glyph-name="uni00AD" unicode="&#xad;" horiz-adv-x="409" 
d="M341 161h-313l24 171h313z" />
    <glyph glyph-name="registered" unicode="&#xae;" horiz-adv-x="777" 
d="M36 351q10 74 48 139.5t93.5 114t125 77t143.5 28.5t135 -28.5t103 -77t61 -114t9 -139.5q-11 -74 -48.5 -139.5t-93 -114.5t-124.5 -77t-143 -28t-135.5 28t-103.5 77t-61.5 114.5t-8.5 139.5zM143 351q-8 -53 5.5 -99t43.5 -81t73.5 -55t96.5 -20q52 0 101 20t88 55
t65.5 81t34.5 99q7 53 -6 99t-42.5 80.5t-73 54.5t-95.5 20q-53 0 -102 -20t-88.5 -54.5t-66.5 -80.5t-34 -99zM275 527h162q40 0 66.5 -14t40 -36.5t14.5 -49.5t-8.5 -53t-30 -48t-50.5 -33l68 -124h-116l-61 117h-21l-17 -117h-98zM411 366q20 0 31.5 12t13 26t-7 26
t-27.5 12h-60l-11 -76h61z" />
    <glyph glyph-name="macron" unicode="&#xaf;" horiz-adv-x="377" 
d="M77 896h320l-27 -140h-320z" />
    <glyph glyph-name="degree" unicode="&#xb0;" horiz-adv-x="375" 
d="M200 392q-34 0 -62.5 13t-47.5 35.5t-28 52.5t-4 64t22 64t42.5 52.5t57.5 35t66 12.5t62 -12.5t47 -35t28 -52.5t4 -64t-22.5 -64t-43 -52.5t-57 -35.5t-64.5 -13zM216 507q22 0 38 14t19 34q2 20 -9.5 36t-33.5 16t-38.5 -16t-18.5 -36q-3 -20 9 -34t34 -14z" />
    <glyph glyph-name="plusminus" unicode="&#xb1;" horiz-adv-x="538" 
d="M232 652h170l-18 -132h141l-24 -170h-141l-19 -131h-170l19 131h-138l24 170h138zM454 13h-451l24 168h451z" />
    <glyph glyph-name="twosuperior" unicode="&#xb2;" horiz-adv-x="396" 
d="M75 611q37 48 79 67.5t88 19.5q37 0 65.5 -12.5t46.5 -33.5t25 -48.5t3 -57.5q-5 -31 -19.5 -59t-48.5 -54l-67 -56h119l-18 -131h-301l-17 76l179 176q26 25 28 43.5t-10 24.5t-32.5 -1.5t-38.5 -32.5z" />
    <glyph glyph-name="threesuperior" unicode="&#xb3;" horiz-adv-x="371" 
d="M211 532q11 0 18 9t7.5 19.5t-6.5 19.5t-23 8t-31 -8t-23 -17l-67 64q35 32 64 50t69 20q43 2 76.5 -17t48.5 -49.5t6.5 -68t-48.5 -71.5q29 -14 40.5 -37t10 -48.5t-14.5 -51.5t-34 -47q-34 -33 -77 -46t-83.5 -8t-73.5 28t-47 63l99 57q6 -16 21.5 -23t32 -6t30 10
t15.5 25q1 8 -5 17.5t-18 7.5h-51l14 100h50z" />
    <glyph glyph-name="acute" unicode="&#xb4;" horiz-adv-x="288" 
d="M443 751h-157l109 159h188z" />
    <glyph glyph-name="mu" unicode="&#xb5;" horiz-adv-x="527" 
d="M292 37q-32 -40 -64.5 -38t-48.5 35l-29 -206h-170l96 688h171l-44 -310q-3 -25 9 -37.5t29 -13t33 12t19 37.5l44 311h172l-71 -518l-146 1v38z" />
    <glyph glyph-name="paragraph" unicode="&#xb6;" horiz-adv-x="663" 
d="M216 218q-50 7 -85 29.5t-56 54.5t-29 71.5t-2 80.5q6 45 27.5 88t57 76.5t84 54t110.5 20.5h336l-109 -776h-168l86 614h-40l-86 -614h-168z" />
    <glyph glyph-name="periodcentered" unicode="&#xb7;" horiz-adv-x="262" 
d="M31 303q3 21 13 39.5t25 32t34.5 21.5t41.5 8q43 0 66.5 -29.5t17.5 -71.5t-37.5 -70t-74.5 -28q-45 0 -68.5 28t-17.5 70z" />
    <glyph glyph-name="cedilla" unicode="&#xb8;" horiz-adv-x="403" 
d="M338 -35q24 -3 38.5 -15t21 -28.5t6 -36.5t-7.5 -41q-14 -42 -57 -70t-103 -28q-17 0 -33.5 1t-34.5 5.5t-37 14.5t-39 27l53 93q45 -29 72.5 -26.5t32.5 15.5q7 18 -8.5 31.5t-61.5 13.5l74 119h130z" />
    <glyph glyph-name="onesuperior" unicode="&#xb9;" horiz-adv-x="289" 
d="M43 570l145 137h107l-62 -441h-134l37 262l-53 -28z" />
    <glyph glyph-name="ordmasculine" unicode="&#xba;" horiz-adv-x="409" 
d="M203 298q-32 0 -61.5 9.5t-51 28t-32.5 46.5t-6 65l17 120q5 37 24 65t46 47t59 28t64 9q31 0 60.5 -9t51.5 -28t33 -47t6 -65l-17 -120q-5 -37 -24 -65t-46 -46.5t-59.5 -28t-63.5 -9.5zM187 447q-2 -17 8.5 -25.5t24 -8.5t26 8t15.5 26l17 119q2 18 -8 26.5t-24 8.5
t-26.5 -8.5t-15.5 -25.5z" />
    <glyph glyph-name="guillemotright" unicode="&#xbb;" horiz-adv-x="602" 
d="M3 134l127 153l-82 151l156 87l128 -238l-193 -238zM254 135l125 152l-83 152l159 85l126 -237l-194 -239z" />
    <glyph glyph-name="onequarter" unicode="&#xbc;" horiz-adv-x="831" 
d="M188 -45l-107 70l520 694l107 -70zM250 272h-134l37 262l-53 -28l-41 70l146 137h107zM784 468l-37 -264h36l-16 -117h-36l-12 -87h-134l12 87h-161l-46 90l281 291h113zM625 200l15 93l-4 1l-95 -94h84z" />
    <glyph glyph-name="onehalf" unicode="&#xbd;" horiz-adv-x="857" 
d="M193 -45l-105 71l520 693l106 -70zM249 272h-134l37 262l-53 -28l-41 70l146 137h107zM514 356q35 46 76.5 65t86.5 19q37 0 65 -12t46 -32.5t25.5 -47t3.5 -55.5q-5 -30 -19.5 -57t-47.5 -52l-66 -54h112l-18 -127h-291l-18 74l177 170q25 24 27 41.5t-10 23.5t-31.5 -1
t-37.5 -31z" />
    <glyph glyph-name="threequarters" unicode="&#xbe;" horiz-adv-x="860" 
d="M245 -45l-103 71l520 693l103 -70zM158 438l15 103h53q12 0 19 9.5t7.5 20.5t-7 20t-24.5 8t-32.5 -8.5t-24.5 -17.5l-71 66q36 33 67.5 51.5t72.5 20.5q45 2 80.5 -17.5t51 -51t7 -70t-51.5 -73.5q30 -15 42.5 -38.5t11 -50t-15 -53t-35.5 -47.5q-36 -34 -81 -48
t-87.5 -8.5t-77 29t-49.5 65.5l104 58q6 -17 22 -24t33.5 -5.5t31.5 10.5t16 25q2 9 -4 18.5t-19 7.5h-54zM710 452h105l-36 -255h35l-16 -113h-35l-11 -84h-118l11 84h-163l-43 87zM584 193h81l14 90l-4 1z" />
    <glyph glyph-name="questiondown" unicode="&#xbf;" horiz-adv-x="488" 
d="M391 435q-6 -40 -36 -65t-68 -25t-60.5 25t-16.5 65q3 19 12 35.5t23 29t31 19.5t36 7q38 0 61 -26.5t18 -64.5zM414 -84q-39 -58 -88 -89.5t-99.5 -40.5t-98 2.5t-82.5 41t-53 74.5t-10 102q4 33 19 65.5t39.5 59.5t60 46.5t80.5 25.5l26 113h150l-22 -224
q-30 13 -60 13.5t-54.5 -10t-41 -31t-20.5 -47.5t14 -43.5t45 -19.5t56 8.5t49 40.5z" />
    <glyph glyph-name="Agrave" unicode="&#xc0;" horiz-adv-x="646" 
d="M327 754l-130 159h188l99 -159h-157zM613 0h-192l-27 142h-189l-63 -142h-192l346 708h163zM374 301l-21 207h-7l-78 -207h106z" />
    <glyph glyph-name="Aacute" unicode="&#xc1;" horiz-adv-x="646" 
d="M427 751h-157l109 159h188zM613 0h-192l-27 142h-189l-63 -142h-192l346 708h163zM374 301l-21 207h-7l-78 -207h106z" />
    <glyph glyph-name="Acircumflex" unicode="&#xc2;" horiz-adv-x="646" 
d="M429 752l-42 49l-53 -49h-181l187 158h128l140 -158h-179zM613 0h-192l-27 142h-189l-63 -142h-192l346 708h163zM374 301l-21 207h-7l-78 -207h106z" />
    <glyph glyph-name="Atilde" unicode="&#xc3;" horiz-adv-x="646" 
d="M191 794q13 72 49 104.5t77 33.5q24 1 47 -10.5t44 -20t40 -7t36 28.5l92 -53q-14 -58 -45.5 -88t-65.5 -32q-35 -1 -61.5 12t-48.5 22t-41 4.5t-40 -39.5zM613 0h-192l-27 142h-189l-63 -142h-192l346 708h163zM374 301l-21 207h-7l-78 -207h106z" />
    <glyph glyph-name="Adieresis" unicode="&#xc4;" horiz-adv-x="646" 
d="M187 836q5 37 33.5 62t64.5 25t57.5 -25t16.5 -62q-3 -18 -11.5 -33.5t-22 -27t-30 -18t-34.5 -6.5q-36 0 -57.5 25t-16.5 60zM428 836q5 37 32.5 62t65.5 25q37 0 58.5 -25t16.5 -62q-3 -18 -11.5 -33.5t-22 -27t-30.5 -18t-35 -6.5q-38 0 -58.5 25t-15.5 60zM613 0
h-192l-27 142h-189l-63 -142h-192l346 708h163zM374 301l-21 207h-7l-78 -207h106z" />
    <glyph glyph-name="Aring" unicode="&#xc5;" horiz-adv-x="646" 
d="M394 142h-189l-63 -142h-192l338 691q-26 25 -30 61.5t11 71t48 59t83 24.5q49 0 76 -24.5t34 -58.5t-5.5 -70.5t-42.5 -60.5l151 -693h-192zM346 783q-1 -13 7.5 -25.5t27.5 -12.5q15 0 27.5 10.5t14.5 27.5q3 17 -7.5 27.5t-25.5 10.5q-19 0 -30 -10.5t-14 -27.5z
M346 508l-78 -207h106l-21 207h-7z" />
    <glyph glyph-name="AE" unicode="&#xc6;" horiz-adv-x="815" 
d="M582 532l-13 -93h200l-24 -173h-200l-13 -95h225l-24 -171h-395l26 192h-108l-95 -192h-215l401 708h485l-25 -176h-225zM395 345l29 180h-9l-92 -180h72z" />
    <glyph glyph-name="Ccedilla" unicode="&#xc7;" horiz-adv-x="581" 
d="M294 157q31 0 62 15t49 49l146 -72q-49 -69 -102 -104t-106 -47l-20 -33q24 -3 38.5 -15t21 -28.5t6 -36.5t-7.5 -41q-14 -42 -57 -70t-103 -28q-17 0 -33.5 1t-34.5 5.5t-37 14.5t-39 27l53 93q45 -29 72.5 -26.5t32.5 15.5q7 18 -8.5 31.5t-61.5 13.5l46 75
q-42 7 -78.5 26t-62 48.5t-37.5 70t-5 91.5l34 244q8 60 38.5 105.5t74.5 75.5t97 45.5t106 15.5q33 0 66.5 -8t64.5 -26.5t55.5 -50t39.5 -78.5l-154 -59q-12 30 -40 43.5t-60 13.5q-19 0 -37.5 -5.5t-33.5 -15.5t-25 -24t-13 -32l-34 -244q-5 -35 22 -55t65 -20z" />
    <glyph glyph-name="Egrave" unicode="&#xc8;" horiz-adv-x="588" 
d="M316 754l-130 159h188l99 -159h-157zM254 434h287l-22 -159h-287l-15 -106h312l-23 -169h-493l99 708h493l-24 -169h-312z" />
    <glyph glyph-name="Eacute" unicode="&#xc9;" horiz-adv-x="588" 
d="M416 751h-157l109 159h188zM254 434h287l-22 -159h-287l-15 -106h312l-23 -169h-493l99 708h493l-24 -169h-312z" />
    <glyph glyph-name="Ecircumflex" unicode="&#xca;" horiz-adv-x="588" 
d="M418 752l-42 49l-53 -49h-181l187 158h128l140 -158h-179zM254 434h287l-22 -159h-287l-15 -106h312l-23 -169h-493l99 708h493l-24 -169h-312z" />
    <glyph glyph-name="Edieresis" unicode="&#xcb;" horiz-adv-x="588" 
d="M176 836q5 37 33.5 62t64.5 25t57.5 -25t16.5 -62q-3 -18 -11.5 -33.5t-22 -27t-30 -18t-34.5 -6.5q-36 0 -57.5 25t-16.5 60zM417 836q5 37 32.5 62t65.5 25q37 0 58.5 -25t16.5 -62q-3 -18 -11.5 -33.5t-22 -27t-30.5 -18t-35 -6.5q-38 0 -58.5 25t-15.5 60zM254 434
h287l-22 -159h-287l-15 -106h312l-23 -169h-493l99 708h493l-24 -169h-312z" />
    <glyph glyph-name="Igrave" unicode="&#xcc;" horiz-adv-x="291" 
d="M155 754l-130 159h188l99 -159h-157zM192 0h-179l99 708h179z" />
    <glyph glyph-name="Iacute" unicode="&#xcd;" horiz-adv-x="291" 
d="M255 751h-157l109 159h188zM192 0h-179l99 708h179z" />
    <glyph glyph-name="Icircumflex" unicode="&#xce;" horiz-adv-x="291" 
d="M239 754l-24 41l-35 -41h-162l152 153h123l109 -153h-163zM192 0h-179l99 708h179z" />
    <glyph glyph-name="Idieresis" unicode="&#xcf;" horiz-adv-x="291" 
d="M25 836q5 37 33.5 62t64.5 25t57.5 -25t16.5 -62q-3 -18 -11.5 -33.5t-22 -27t-30 -18t-34.5 -6.5q-36 0 -57.5 25t-16.5 60zM240 836q5 37 32.5 62t65.5 25q37 0 58.5 -25t16.5 -62q-3 -18 -11.5 -33.5t-22 -27t-30.5 -18t-35 -6.5q-38 0 -58.5 25t-15.5 60zM192 0h-179
l99 708h179z" />
    <glyph glyph-name="Eth" unicode="&#xd0;" horiz-adv-x="642" 
d="M118 708h286q54 0 98.5 -13.5t74.5 -42t43.5 -72.5t4.5 -106l-34 -241q-9 -61 -34.5 -105t-63.5 -72.5t-86 -42t-102 -13.5h-286l41 304h-51l19 124h51zM329 176q35 0 56.5 14t25.5 43l34 241q5 29 -13 43.5t-53 14.5h-105l-14 -104h83l-19 -124h-83l-17 -128h105z" />
    <glyph glyph-name="Ntilde" unicode="&#xd1;" horiz-adv-x="676" 
d="M201 794q13 72 49 104.5t77 33.5q24 1 47 -10.5t44 -20t40 -7t36 28.5l92 -53q-14 -58 -45.5 -88t-65.5 -32q-35 -1 -61.5 12t-48.5 22t-41 4.5t-40 -39.5zM112 708h170l129 -302l40 -142l4 1l-2 122l45 321h178l-99 -708h-181l-121 279l-42 142l-4 -1l2 -137l-39 -283
h-179z" />
    <glyph glyph-name="Ograve" unicode="&#xd2;" horiz-adv-x="664" 
d="M337 761l-130 159h188l99 -159h-157zM63 475q9 61 40.5 106.5t77 76t100 45.5t109.5 15t106 -15t88 -45.5t56 -76t10 -106.5l-35 -242q-9 -61 -39.5 -106.5t-75.5 -76t-100 -45.5t-113 -15q-55 0 -105.5 15t-87.5 45.5t-56 76t-10 106.5zM207 233q-3 -19 5 -33.5t22 -24
t33.5 -14.5t39.5 -5q22 0 43.5 5t39.5 15t30.5 25.5t15.5 36.5l35 237q3 20 -4 35t-21 25t-33.5 15t-41.5 5t-43.5 -5t-39.5 -15t-30.5 -25t-15.5 -35z" />
    <glyph glyph-name="Oacute" unicode="&#xd3;" horiz-adv-x="664" 
d="M437 758h-157l109 159h188zM63 475q9 61 40.5 106.5t77 76t100 45.5t109.5 15t106 -15t88 -45.5t56 -76t10 -106.5l-35 -242q-9 -61 -39.5 -106.5t-75.5 -76t-100 -45.5t-113 -15q-55 0 -105.5 15t-87.5 45.5t-56 76t-10 106.5zM207 233q-3 -19 5 -33.5t22 -24
t33.5 -14.5t39.5 -5q22 0 43.5 5t39.5 15t30.5 25.5t15.5 36.5l35 237q3 20 -4 35t-21 25t-33.5 15t-41.5 5t-43.5 -5t-39.5 -15t-30.5 -25t-15.5 -35z" />
    <glyph glyph-name="Ocircumflex" unicode="&#xd4;" horiz-adv-x="664" 
d="M439 759l-42 49l-53 -49h-181l187 158h128l140 -158h-179zM63 475q9 61 40.5 106.5t77 76t100 45.5t109.5 15t106 -15t88 -45.5t56 -76t10 -106.5l-35 -242q-9 -61 -39.5 -106.5t-75.5 -76t-100 -45.5t-113 -15q-55 0 -105.5 15t-87.5 45.5t-56 76t-10 106.5zM207 233
q-3 -19 5 -33.5t22 -24t33.5 -14.5t39.5 -5q22 0 43.5 5t39.5 15t30.5 25.5t15.5 36.5l35 237q3 20 -4 35t-21 25t-33.5 15t-41.5 5t-43.5 -5t-39.5 -15t-30.5 -25t-15.5 -35z" />
    <glyph glyph-name="Otilde" unicode="&#xd5;" horiz-adv-x="664" 
d="M201 801q13 72 49 104.5t77 33.5q24 1 47 -10.5t44 -20t40 -7t36 28.5l92 -53q-14 -58 -45.5 -88t-65.5 -32q-35 -1 -61.5 12t-48.5 22t-41 4.5t-40 -39.5zM63 475q9 61 40.5 106.5t77 76t100 45.5t109.5 15t106 -15t88 -45.5t56 -76t10 -106.5l-35 -242
q-9 -61 -39.5 -106.5t-75.5 -76t-100 -45.5t-113 -15q-55 0 -105.5 15t-87.5 45.5t-56 76t-10 106.5zM207 233q-3 -19 5 -33.5t22 -24t33.5 -14.5t39.5 -5q22 0 43.5 5t39.5 15t30.5 25.5t15.5 36.5l35 237q3 20 -4 35t-21 25t-33.5 15t-41.5 5t-43.5 -5t-39.5 -15
t-30.5 -25t-15.5 -35z" />
    <glyph glyph-name="Odieresis" unicode="&#xd6;" horiz-adv-x="664" 
d="M197 843q5 37 33.5 62t64.5 25t57.5 -25t16.5 -62q-3 -18 -11.5 -33.5t-22 -27t-30 -18t-34.5 -6.5q-36 0 -57.5 25t-16.5 60zM438 843q5 37 32.5 62t65.5 25q37 0 58.5 -25t16.5 -62q-3 -18 -11.5 -33.5t-22 -27t-30.5 -18t-35 -6.5q-38 0 -58.5 25t-15.5 60zM63 475
q9 61 40.5 106.5t77 76t100 45.5t109.5 15t106 -15t88 -45.5t56 -76t10 -106.5l-35 -242q-9 -61 -39.5 -106.5t-75.5 -76t-100 -45.5t-113 -15q-55 0 -105.5 15t-87.5 45.5t-56 76t-10 106.5zM207 233q-3 -19 5 -33.5t22 -24t33.5 -14.5t39.5 -5q22 0 43.5 5t39.5 15
t30.5 25.5t15.5 36.5l35 237q3 20 -4 35t-21 25t-33.5 15t-41.5 5t-43.5 -5t-39.5 -15t-30.5 -25t-15.5 -35z" />
    <glyph glyph-name="multiply" unicode="&#xd7;" horiz-adv-x="535" 
d="M422 534l101 -122l-135 -119l102 -120l-137 -120l-103 120q-34 -30 -71 -62t-69 -61l-100 121l136 120l-106 125l137 119l105 -123z" />
    <glyph glyph-name="Oslash" unicode="&#xd8;" horiz-adv-x="664" 
d="M593 649q33 -30 49 -73.5t8 -100.5l-35 -242q-9 -61 -39.5 -106.5t-75.5 -76t-100 -45.5t-113 -15q-24 0 -46 3l-55 -102l-159 63l58 105q-33 30 -49 73.5t-8 100.5l35 242q9 61 40.5 106.5t77 76t100 45.5t109.5 15q23 0 46 -3l53 98l162 -57zM471 475q3 20 -4 35
t-21 25t-33.5 15t-41.5 5t-43.5 -5t-39.5 -15t-30.5 -25t-15.5 -35l-35 -242q-3 -19 5 -33.5t22 -24t33.5 -14.5t39.5 -5q22 0 43.5 5t39.5 15t30.5 25.5t15.5 36.5z" />
    <glyph glyph-name="Ugrave" unicode="&#xd9;" horiz-adv-x="666" 
d="M341 754l-130 159h188l99 -159h-157zM222 239q-3 -21 3.5 -37t19.5 -26.5t30.5 -16t36.5 -5.5q20 0 39 5.5t34.5 16t26 26.5t13.5 37l66 469h181l-66 -469q-9 -62 -40 -109t-75 -78t-97 -46.5t-106 -15.5t-101.5 15.5t-84 46.5t-53 78t-8.5 109l66 469h181z" />
    <glyph glyph-name="Uacute" unicode="&#xda;" horiz-adv-x="666" 
d="M441 751h-157l109 159h188zM222 239q-3 -21 3.5 -37t19.5 -26.5t30.5 -16t36.5 -5.5q20 0 39 5.5t34.5 16t26 26.5t13.5 37l66 469h181l-66 -469q-9 -62 -40 -109t-75 -78t-97 -46.5t-106 -15.5t-101.5 15.5t-84 46.5t-53 78t-8.5 109l66 469h181z" />
    <glyph glyph-name="Ucircumflex" unicode="&#xdb;" horiz-adv-x="666" 
d="M443 752l-42 49l-53 -49h-181l187 158h128l140 -158h-179zM222 239q-3 -21 3.5 -37t19.5 -26.5t30.5 -16t36.5 -5.5q20 0 39 5.5t34.5 16t26 26.5t13.5 37l66 469h181l-66 -469q-9 -62 -40 -109t-75 -78t-97 -46.5t-106 -15.5t-101.5 15.5t-84 46.5t-53 78t-8.5 109
l66 469h181z" />
    <glyph glyph-name="Udieresis" unicode="&#xdc;" horiz-adv-x="666" 
d="M201 836q5 37 33.5 62t64.5 25t57.5 -25t16.5 -62q-3 -18 -11.5 -33.5t-22 -27t-30 -18t-34.5 -6.5q-36 0 -57.5 25t-16.5 60zM442 836q5 37 32.5 62t65.5 25q37 0 58.5 -25t16.5 -62q-3 -18 -11.5 -33.5t-22 -27t-30.5 -18t-35 -6.5q-38 0 -58.5 25t-15.5 60zM222 239
q-3 -21 3.5 -37t19.5 -26.5t30.5 -16t36.5 -5.5q20 0 39 5.5t34.5 16t26 26.5t13.5 37l66 469h181l-66 -469q-9 -62 -40 -109t-75 -78t-97 -46.5t-106 -15.5t-101.5 15.5t-84 46.5t-53 78t-8.5 109l66 469h181z" />
    <glyph glyph-name="Yacute" unicode="&#xdd;" horiz-adv-x="653" 
d="M422 751h-157l109 159h188zM194 0l39 279l-187 429h208l92 -249l164 249h210l-308 -429l-39 -279h-179z" />
    <glyph glyph-name="Thorn" unicode="&#xde;" horiz-adv-x="556" 
d="M288 602q143 0 207 -62.5t51 -177.5q-9 -80 -41.5 -127t-79 -71t-102.5 -30.5t-112 -6.5l-17 -126h-181l100 714h181l-16 -113h10zM234 285q63 -8 97.5 12.5t40.5 65.5q5 39 -23.5 61t-93.5 15z" />
    <glyph glyph-name="germandbls" unicode="&#xdf;" horiz-adv-x="575" 
d="M76 507q6 52 32 92t63 66t81.5 39.5t88.5 13.5q43 0 82.5 -12.5t68 -38t42.5 -64.5t7 -91q-2 -15 -7.5 -34.5t-16.5 -39.5t-28 -40t-42 -35q43 -17 64.5 -48t25 -68t-9.5 -76.5t-39 -72.5q-18 -24 -42 -42.5t-51.5 -30.5t-57.5 -18.5t-59 -6.5q-35 0 -71 9l22 158
q21 -11 42 -11t38.5 8t29.5 23.5t15 34.5q4 29 -15 44.5t-49 15.5h-45l21 152q42 -9 68 9.5t33 44.5t-5 49t-45 23q-25 0 -47 -15t-26 -45l-70 -500h-169z" />
    <glyph glyph-name="agrave" unicode="&#xe0;" horiz-adv-x="506" 
d="M240 566l-130 159h188l99 -159h-157zM276 38q-27 -23 -58.5 -35.5t-58.5 -12.5q-36 0 -64.5 14t-47 38.5t-26.5 58t-3 73.5l22 161q7 54 31 91t58.5 59.5t76 32.5t84.5 10q49 0 99.5 -14t94.5 -40l-65 -474h-124zM307 382q-15 7 -33 7q-25 0 -44.5 -14.5t-23.5 -38.5
l-21 -149q-2 -15 1.5 -25.5t10 -16.5t16 -9t19.5 -3q24 0 42 9z" />
    <glyph glyph-name="aacute" unicode="&#xe1;" horiz-adv-x="506" 
d="M340 563h-157l109 159h188zM276 38q-27 -23 -58.5 -35.5t-58.5 -12.5q-36 0 -64.5 14t-47 38.5t-26.5 58t-3 73.5l22 161q7 54 31 91t58.5 59.5t76 32.5t84.5 10q49 0 99.5 -14t94.5 -40l-65 -474h-124zM307 382q-15 7 -33 7q-25 0 -44.5 -14.5t-23.5 -38.5l-21 -149
q-2 -15 1.5 -25.5t10 -16.5t16 -9t19.5 -3q24 0 42 9z" />
    <glyph glyph-name="acircumflex" unicode="&#xe2;" horiz-adv-x="506" 
d="M342 564l-42 49l-53 -49h-181l187 158h128l140 -158h-179zM276 38q-27 -23 -58.5 -35.5t-58.5 -12.5q-36 0 -64.5 14t-47 38.5t-26.5 58t-3 73.5l22 161q7 54 31 91t58.5 59.5t76 32.5t84.5 10q49 0 99.5 -14t94.5 -40l-65 -474h-124zM307 382q-15 7 -33 7
q-25 0 -44.5 -14.5t-23.5 -38.5l-21 -149q-2 -15 1.5 -25.5t10 -16.5t16 -9t19.5 -3q24 0 42 9z" />
    <glyph glyph-name="atilde" unicode="&#xe3;" horiz-adv-x="506" 
d="M111 603q13 69 48 100.5t74 32.5q23 1 45 -10t42 -19.5t38.5 -7t34.5 27.5l88 -51q-13 -56 -43.5 -84.5t-62.5 -30.5q-22 -1 -41 5t-35 13.5t-30 13.5t-27 6.5t-25.5 -8.5t-25.5 -31zM276 38q-27 -23 -58.5 -35.5t-58.5 -12.5q-36 0 -64.5 14t-47 38.5t-26.5 58t-3 73.5
l22 161q7 54 31 91t58.5 59.5t76 32.5t84.5 10q49 0 99.5 -14t94.5 -40l-65 -474h-124zM307 382q-15 7 -33 7q-25 0 -44.5 -14.5t-23.5 -38.5l-21 -149q-2 -15 1.5 -25.5t10 -16.5t16 -9t19.5 -3q24 0 42 9z" />
    <glyph glyph-name="adieresis" unicode="&#xe4;" horiz-adv-x="506" 
d="M110 648q5 37 33.5 62t64.5 25t57.5 -25t16.5 -62q-3 -18 -11.5 -33.5t-22 -27t-30 -18t-34.5 -6.5q-36 0 -57.5 25t-16.5 60zM331 648q5 37 32.5 62t65.5 25q37 0 58.5 -25t16.5 -62q-3 -18 -11.5 -33.5t-22 -27t-30.5 -18t-35 -6.5q-38 0 -58.5 25t-15.5 60zM276 38
q-27 -23 -58.5 -35.5t-58.5 -12.5q-36 0 -64.5 14t-47 38.5t-26.5 58t-3 73.5l22 161q7 54 31 91t58.5 59.5t76 32.5t84.5 10q49 0 99.5 -14t94.5 -40l-65 -474h-124zM307 382q-15 7 -33 7q-25 0 -44.5 -14.5t-23.5 -38.5l-21 -149q-2 -15 1.5 -25.5t10 -16.5t16 -9t19.5 -3
q24 0 42 9z" />
    <glyph glyph-name="aring" unicode="&#xe5;" horiz-adv-x="506" 
d="M314 784q39 0 63.5 -17t34.5 -43t6.5 -55.5t-19.5 -55.5t-44 -43t-67 -17q-41 0 -66 17t-35.5 43t-6.5 55.5t20.5 55.5t45 43t68.5 17zM335 667q3 16 -7 26t-24 10q-17 0 -27.5 -10t-13.5 -26q-1 -12 7 -24t26 -12q14 0 25.5 9.5t13.5 26.5zM276 38q-27 -23 -58.5 -35.5
t-58.5 -12.5q-36 0 -64.5 14t-47 38.5t-26.5 58t-3 73.5l22 161q7 54 31 91t58.5 59.5t76 32.5t84.5 10q49 0 99.5 -14t94.5 -40l-65 -474h-124zM307 382q-15 7 -33 7q-25 0 -44.5 -14.5t-23.5 -38.5l-21 -149q-2 -15 1.5 -25.5t10 -16.5t16 -9t19.5 -3q24 0 42 9z" />
    <glyph glyph-name="ae" unicode="&#xe6;" horiz-adv-x="740" 
d="M563 528q35 0 67.5 -11.5t55.5 -35.5t34 -59.5t4 -83.5q-8 -50 -38 -82.5t-70.5 -49t-87 -19t-88.5 6.5q-4 -29 11.5 -45t39 -20t49 2.5t40.5 22.5l82 -78q-22 -22 -42 -38.5t-41 -27t-44 -15.5t-51 -5q-29 0 -54.5 11t-45.5 34l-12 -35h-94l-5 29q-27 -21 -55 -30
t-55 -9q-41 0 -71.5 14t-49 38.5t-25.5 58t-1 73.5l24 157q8 54 31.5 91.5t57.5 61t76 34t87 10.5q14 0 31 -3t34.5 -10t33.5 -18t27 -27q32 29 70 43.5t75 14.5zM312 382q-18 8 -36 8q-29 0 -47.5 -16t-22.5 -42l-22 -141q-5 -29 11 -44t37 -15q23 0 43 10zM508 290
q28 0 43.5 15.5t18 34t-9 34t-37.5 15.5q-18 0 -38 -11.5t-24 -34.5l-7 -47q11 -3 26.5 -4.5t27.5 -1.5z" />
    <glyph glyph-name="ccedilla" unicode="&#xe7;" horiz-adv-x="462" 
d="M222 132q17 0 34.5 10t28.5 33l141 -33q-28 -62 -70.5 -95t-85.5 -47l-24 -43q22 -3 36.5 -14.5t21.5 -27.5t7 -36t-6 -39q-13 -40 -53.5 -66t-97.5 -26q-31 0 -64 6.5t-71 38.5l50 88q21 -14 38 -19.5t30 -5.5t21 4t10 10q6 17 -8.5 30t-57.5 13l44 83q-30 7 -56.5 22
t-44.5 38t-26 53.5t-2 69.5l24 169q7 48 30 82t56 55.5t73 32t79 10.5q26 0 54 -6.5t52.5 -23t42 -43.5t23.5 -69l-148 -44q-2 23 -15 33.5t-29 10.5q-18 0 -34 -11t-19 -33l-24 -166q-3 -21 10 -32.5t30 -11.5z" />
    <glyph glyph-name="egrave" unicode="&#xe8;" horiz-adv-x="470" 
d="M225 566l-125 152h181l95 -152h-151zM179 194q-4 -29 11 -45t38.5 -20t50 3t44.5 24l81 -82q-27 -27 -53.5 -43.5t-52.5 -25.5t-50.5 -12t-46.5 -3q-39 0 -75 12.5t-62.5 36.5t-40 60t-6.5 83l21 148q7 49 30 86t56.5 62t73.5 37.5t80 12.5t74.5 -12t58.5 -35.5t35 -59
t4 -83.5q-7 -46 -33 -78t-64 -50t-83.5 -22t-90.5 6zM195 294q15 -7 32.5 -7.5t32.5 5t25.5 17.5t12.5 32q3 18 -6.5 33t-33.5 15q-18 0 -35.5 -12t-20.5 -34z" />
    <glyph glyph-name="eacute" unicode="&#xe9;" horiz-adv-x="470" 
d="M321 563h-151l105 153h180zM179 194q-4 -29 11 -45t38.5 -20t50 3t44.5 24l81 -82q-27 -27 -53.5 -43.5t-52.5 -25.5t-50.5 -12t-46.5 -3q-39 0 -75 12.5t-62.5 36.5t-40 60t-6.5 83l21 148q7 49 30 86t56.5 62t73.5 37.5t80 12.5t74.5 -12t58.5 -35.5t35 -59t4 -83.5
q-7 -46 -33 -78t-64 -50t-83.5 -22t-90.5 6zM195 294q15 -7 32.5 -7.5t32.5 5t25.5 17.5t12.5 32q3 18 -6.5 33t-33.5 15q-18 0 -35.5 -12t-20.5 -34z" />
    <glyph glyph-name="ecircumflex" unicode="&#xea;" horiz-adv-x="470" 
d="M323 564l-41 47l-51 -47h-174l180 152h123l135 -152h-172zM179 194q-4 -29 11 -45t38.5 -20t50 3t44.5 24l81 -82q-27 -27 -53.5 -43.5t-52.5 -25.5t-50.5 -12t-46.5 -3q-39 0 -75 12.5t-62.5 36.5t-40 60t-6.5 83l21 148q7 49 30 86t56.5 62t73.5 37.5t80 12.5t74.5 -12
t58.5 -35.5t35 -59t4 -83.5q-7 -46 -33 -78t-64 -50t-83.5 -22t-90.5 6zM195 294q15 -7 32.5 -7.5t32.5 5t25.5 17.5t12.5 32q3 18 -6.5 33t-33.5 15q-18 0 -35.5 -12t-20.5 -34z" />
    <glyph glyph-name="edieresis" unicode="&#xeb;" horiz-adv-x="470" 
d="M104 638q5 35 31.5 58.5t60.5 23.5q35 0 55 -23.5t15 -58.5q-5 -34 -31.5 -57t-60.5 -23t-54.5 23t-15.5 57zM311 638q5 35 31 58.5t62 23.5q35 0 55 -23.5t15 -58.5q-5 -34 -31.5 -57t-61.5 -23t-55 23t-15 57zM179 194q-4 -29 11 -45t38.5 -20t50 3t44.5 24l81 -82
q-27 -27 -53.5 -43.5t-52.5 -25.5t-50.5 -12t-46.5 -3q-39 0 -75 12.5t-62.5 36.5t-40 60t-6.5 83l21 148q7 49 30 86t56.5 62t73.5 37.5t80 12.5t74.5 -12t58.5 -35.5t35 -59t4 -83.5q-7 -46 -33 -78t-64 -50t-83.5 -22t-90.5 6zM195 294q15 -7 32.5 -7.5t32.5 5t25.5 17.5
t12.5 32q3 18 -6.5 33t-33.5 15q-18 0 -35.5 -12t-20.5 -34z" />
    <glyph glyph-name="igrave" unicode="&#xec;" horiz-adv-x="268" 
d="M115 564l-106 157h184l79 -157h-157zM177 0h-172l72 518h172z" />
    <glyph glyph-name="iacute" unicode="&#xed;" horiz-adv-x="268" 
d="M215 561h-157l109 159h188zM177 0h-172l72 518h172z" />
    <glyph glyph-name="icircumflex" unicode="&#xee;" horiz-adv-x="268" 
d="M203 562l-28 46l-39 -46h-165l157 158h128l110 -158h-163zM177 0h-172l72 518h172z" />
    <glyph glyph-name="idieresis" unicode="&#xef;" horiz-adv-x="268" 
d="M-5 632q3 16 11 30t20.5 24.5t28 16.5t32.5 6q35 0 55.5 -22.5t15.5 -54.5q-4 -32 -30.5 -53.5t-61.5 -21.5q-34 0 -54 21.5t-17 53.5zM189 632q5 32 31 54.5t62 22.5q35 0 55.5 -22.5t15.5 -54.5q-4 -32 -30.5 -53.5t-61.5 -21.5q-36 0 -56 21.5t-16 53.5zM177 0h-172
l72 518h172z" />
    <glyph glyph-name="eth" unicode="&#xf0;" horiz-adv-x="502" 
d="M399 687q45 -25 69 -76.5t13 -130.5l-64 -446q-44 -20 -99 -32t-110 -12q-42 0 -80 10t-65 31.5t-40.5 56t-5.5 85.5l26 176q7 46 26 79t46 54t60 31t68 10q20 0 39.5 -3t34.5 -9q7 30 -4 47.5t-32 22.5t-49.5 -1.5t-56.5 -25.5l-57 99q38 29 84 43t91 14l35 68l101 -36z
M298 381q-11 7 -25.5 10t-28.5 -0.5t-24.5 -13.5t-13.5 -29l-26 -179q-4 -26 11 -37t35 -11q21 0 36 9z" />
    <glyph glyph-name="ntilde" unicode="&#xf1;" 
d="M92 604q13 72 49 104.5t77 33.5q24 1 47 -10.5t44 -20t40 -7t36 28.5l92 -53q-14 -58 -45.5 -88t-65.5 -32q-35 -1 -61.5 12t-48.5 22t-41 4.5t-40 -39.5zM72 486q44 20 94.5 31t101.5 11q47 0 87.5 -10.5t69 -33.5t41.5 -60t6 -91l-47 -333h-168l47 332q4 28 -10 38
t-34 10t-35 -6l-53 -374h-169z" />
    <glyph glyph-name="ograve" unicode="&#xf2;" horiz-adv-x="493" 
d="M227 568l-125 152h181l95 -152h-151zM39 337q7 48 30 83.5t56.5 59.5t73 36t79.5 12q39 0 75.5 -12t62.5 -36t39.5 -59.5t6.5 -83.5l-23 -164q-6 -46 -29.5 -80t-56.5 -57t-72.5 -34.5t-79.5 -11.5q-39 0 -75.5 11.5t-63 34.5t-39.5 57.5t-7 79.5zM255 378
q-15 0 -31.5 -10t-18.5 -28l-23 -169q-2 -18 10 -28.5t29 -10.5t32.5 9t18.5 30l23 169q2 18 -11.5 28t-28.5 10z" />
    <glyph glyph-name="oacute" unicode="&#xf3;" horiz-adv-x="493" 
d="M323 565h-151l105 153h180zM39 337q7 48 30 83.5t56.5 59.5t73 36t79.5 12q39 0 75.5 -12t62.5 -36t39.5 -59.5t6.5 -83.5l-23 -164q-6 -46 -29.5 -80t-56.5 -57t-72.5 -34.5t-79.5 -11.5q-39 0 -75.5 11.5t-63 34.5t-39.5 57.5t-7 79.5zM255 378q-15 0 -31.5 -10
t-18.5 -28l-23 -169q-2 -18 10 -28.5t29 -10.5t32.5 9t18.5 30l23 169q2 18 -11.5 28t-28.5 10z" />
    <glyph glyph-name="ocircumflex" unicode="&#xf4;" horiz-adv-x="493" 
d="M323 564l-39 45l-49 -45h-167l173 146h118l129 -146h-165zM39 337q7 48 30 83.5t56.5 59.5t73 36t79.5 12q39 0 75.5 -12t62.5 -36t39.5 -59.5t6.5 -83.5l-23 -164q-6 -46 -29.5 -80t-56.5 -57t-72.5 -34.5t-79.5 -11.5q-39 0 -75.5 11.5t-63 34.5t-39.5 57.5t-7 79.5z
M255 378q-15 0 -31.5 -10t-18.5 -28l-23 -169q-2 -18 10 -28.5t29 -10.5t32.5 9t18.5 30l23 169q2 18 -11.5 28t-28.5 10z" />
    <glyph glyph-name="otilde" unicode="&#xf5;" horiz-adv-x="493" 
d="M96 606q13 69 48 100.5t74 32.5q23 1 45 -10t42 -19.5t38.5 -7t34.5 27.5l88 -51q-13 -56 -43.5 -84.5t-62.5 -30.5q-23 -1 -41.5 5t-34.5 13.5t-30 13.5t-27 6.5t-25.5 -8.5t-25.5 -31zM39 337q7 48 30 83.5t56.5 59.5t73 36t79.5 12q39 0 75.5 -12t62.5 -36t39.5 -59.5
t6.5 -83.5l-23 -164q-6 -46 -29.5 -80t-56.5 -57t-72.5 -34.5t-79.5 -11.5q-39 0 -75.5 11.5t-63 34.5t-39.5 57.5t-7 79.5zM255 378q-15 0 -31.5 -10t-18.5 -28l-23 -169q-2 -18 10 -28.5t29 -10.5t32.5 9t18.5 30l23 169q2 18 -11.5 28t-28.5 10z" />
    <glyph glyph-name="odieresis" unicode="&#xf6;" horiz-adv-x="493" 
d="M98 635q4 34 31 57.5t62 23.5t56 -23.5t16 -57.5q-5 -32 -32.5 -55.5t-62.5 -23.5t-55 23.5t-15 55.5zM311 635q4 34 30.5 57.5t62.5 23.5q35 0 56.5 -23.5t16.5 -57.5q-5 -32 -32.5 -55.5t-63.5 -23.5q-35 0 -55 23.5t-15 55.5zM39 337q7 48 30 83.5t56.5 59.5t73 36
t79.5 12q39 0 75.5 -12t62.5 -36t39.5 -59.5t6.5 -83.5l-23 -164q-6 -46 -29.5 -80t-56.5 -57t-72.5 -34.5t-79.5 -11.5q-39 0 -75.5 11.5t-63 34.5t-39.5 57.5t-7 79.5zM255 378q-15 0 -31.5 -10t-18.5 -28l-23 -169q-2 -18 10 -28.5t29 -10.5t32.5 9t18.5 30l23 169
q2 18 -11.5 28t-28.5 10z" />
    <glyph glyph-name="divide" unicode="&#xf7;" horiz-adv-x="505" 
d="M176 478q3 21 13.5 39.5t26.5 32t35 21.5t40 8t38.5 -8t30 -21.5t18 -32t2.5 -39.5q-4 -26 -19 -48t-37 -36h169l-24 -172h-167q18 -14 27.5 -36t5.5 -48q-3 -21 -13.5 -40t-26.5 -32.5t-35 -21.5t-40 -8t-38.5 8t-30 21.5t-18 32.5t-2.5 40q4 28 19 49t38 35h-173
l24 172h168q-17 14 -26 36t-5 48z" />
    <glyph glyph-name="oslash" unicode="&#xf8;" horiz-adv-x="493" 
d="M413 483q28 -24 42 -60t7 -86l-23 -164q-6 -46 -29.5 -80t-56.5 -57t-72.5 -34.5t-79.5 -11.5h-11.5t-11.5 1l-35 -68l-104 44l32 63q-30 23 -46 58.5t-9 84.5l23 164q7 48 30 83.5t56.5 59.5t73 36t79.5 12q8 0 15 -0.5t14 -1.5l34 68l107 -40zM295 340q2 18 -11.5 28
t-28.5 10t-31.5 -10t-18.5 -28l-23 -169q-2 -18 10 -28.5t29 -10.5t32.5 9t18.5 30z" />
    <glyph glyph-name="ugrave" unicode="&#xf9;" 
d="M232 564l-130 159h188l99 -159h-157zM427 32q-44 -20 -92 -31t-105 -11q-45 0 -85 10.5t-68.5 33.5t-42.5 60.5t-7 90.5l45 333h168l-45 -332q-4 -26 11 -37t35 -11q18 0 33 6l51 374h169z" />
    <glyph glyph-name="uacute" unicode="&#xfa;" 
d="M332 561h-157l109 159h188zM427 32q-44 -20 -92 -31t-105 -11q-45 0 -85 10.5t-68.5 33.5t-42.5 60.5t-7 90.5l45 333h168l-45 -332q-4 -26 11 -37t35 -11q18 0 33 6l51 374h169z" />
    <glyph glyph-name="ucircumflex" unicode="&#xfb;" 
d="M334 562l-42 49l-53 -49h-181l187 158h128l140 -158h-179zM427 32q-44 -20 -92 -31t-105 -11q-45 0 -85 10.5t-68.5 33.5t-42.5 60.5t-7 90.5l45 333h168l-45 -332q-4 -26 11 -37t35 -11q18 0 33 6l51 374h169z" />
    <glyph glyph-name="udieresis" unicode="&#xfc;" 
d="M102 646q5 37 33.5 62t64.5 25t57.5 -25t16.5 -62q-3 -18 -11.5 -33.5t-22 -27t-30 -18t-34.5 -6.5q-36 0 -57.5 25t-16.5 60zM323 646q5 37 32.5 62t65.5 25q37 0 58.5 -25t16.5 -62q-3 -18 -11.5 -33.5t-22 -27t-30.5 -18t-35 -6.5q-38 0 -58.5 25t-15.5 60zM427 32
q-44 -20 -92 -31t-105 -11q-45 0 -85 10.5t-68.5 33.5t-42.5 60.5t-7 90.5l45 333h168l-45 -332q-4 -26 11 -37t35 -11q18 0 33 6l51 374h169z" />
    <glyph glyph-name="yacute" unicode="&#xfd;" horiz-adv-x="511" 
d="M335 561h-157l109 159h188zM426 38q-9 -67 -31 -112.5t-52.5 -73.5t-68.5 -40t-80 -12q-49 0 -97 18.5t-90 55.5l83 95q22 -17 45.5 -24.5t46.5 -7.5q34 0 54.5 15.5t25.5 51.5q-20 -8 -39.5 -11t-39.5 -3q-36 0 -67.5 12t-54 36t-32.5 59.5t-4 80.5l48 340h164l-49 -349
q-2 -15 1 -24.5t10 -14.5t16.5 -6.5t19.5 -1.5q20 0 39 11l53 385h166z" />
    <glyph glyph-name="thorn" unicode="&#xfe;" horiz-adv-x="506" 
d="M245 514q12 3 25.5 5.5t25.5 2.5q39 0 74.5 -11.5t61 -35t37.5 -59t6 -84.5l-22 -158q-6 -43 -29 -77t-56 -57.5t-72.5 -36t-78.5 -12.5q-11 0 -22 2t-23 5l-22 -156h-167l121 866h168zM192 136q10 -6 24.5 -8t28 2t24.5 14.5t15 29.5l23 163q1 19 -7 30t-20 15t-27 2.5
t-27 -6.5z" />
    <glyph glyph-name="ydieresis" unicode="&#xff;" horiz-adv-x="511" 
d="M95 646q5 37 33.5 62t64.5 25t57.5 -25t16.5 -62q-3 -18 -11.5 -33.5t-22 -27t-30 -18t-34.5 -6.5q-36 0 -57.5 25t-16.5 60zM336 646q5 37 32.5 62t65.5 25q37 0 58.5 -25t16.5 -62q-3 -18 -11.5 -33.5t-22 -27t-30.5 -18t-35 -6.5q-38 0 -58.5 25t-15.5 60zM426 38
q-9 -67 -31 -112.5t-52.5 -73.5t-68.5 -40t-80 -12q-49 0 -97 18.5t-90 55.5l83 95q22 -17 45.5 -24.5t46.5 -7.5q34 0 54.5 15.5t25.5 51.5q-20 -8 -39.5 -11t-39.5 -3q-36 0 -67.5 12t-54 36t-32.5 59.5t-4 80.5l48 340h164l-49 -349q-2 -15 1 -24.5t10 -14.5t16.5 -6.5
t19.5 -1.5q20 0 39 11l53 385h166z" />
    <glyph glyph-name="Amacron" unicode="&#x100;" horiz-adv-x="646" 
d="M244 896h320l-27 -140h-320zM613 0h-192l-27 142h-189l-63 -142h-192l346 708h163zM374 301l-21 207h-7l-78 -207h106z" />
    <glyph glyph-name="amacron" unicode="&#x101;" horiz-adv-x="506" 
d="M163 707h307l-26 -134h-307zM276 38q-27 -23 -58.5 -35.5t-58.5 -12.5q-36 0 -64.5 14t-47 38.5t-26.5 58t-3 73.5l22 161q7 54 31 91t58.5 59.5t76 32.5t84.5 10q49 0 99.5 -14t94.5 -40l-65 -474h-124zM307 382q-15 7 -33 7q-25 0 -44.5 -14.5t-23.5 -38.5l-21 -149
q-2 -15 1.5 -25.5t10 -16.5t16 -9t19.5 -3q24 0 42 9z" />
    <glyph glyph-name="Abreve" unicode="&#x102;" horiz-adv-x="646" 
d="M577 914q-6 -57 -37.5 -95t-74 -56.5t-89.5 -18t-85.5 19.5t-61 56.5t-16.5 93.5h139q-3 -22 10 -32.5t29.5 -10.5t31.5 11t18 32h136zM613 0h-192l-27 142h-189l-63 -142h-192l346 708h163zM374 301l-21 207h-7l-78 -207h106z" />
    <glyph glyph-name="abreve" unicode="&#x103;" horiz-adv-x="506" 
d="M490 726q-6 -58 -37.5 -95.5t-74 -56t-89.5 -18t-85.5 19.5t-61 56.5t-16.5 93.5h139q-3 -22 10 -32.5t29.5 -10.5t31.5 11t18 32h136zM276 38q-27 -23 -58.5 -35.5t-58.5 -12.5q-36 0 -64.5 14t-47 38.5t-26.5 58t-3 73.5l22 161q7 54 31 91t58.5 59.5t76 32.5t84.5 10
q49 0 99.5 -14t94.5 -40l-65 -474h-124zM307 382q-15 7 -33 7q-25 0 -44.5 -14.5t-23.5 -38.5l-21 -149q-2 -15 1.5 -25.5t10 -16.5t16 -9t19.5 -3q24 0 42 9z" />
    <glyph glyph-name="Aogonek" unicode="&#x104;" horiz-adv-x="646" 
d="M650 -194q-31 -29 -68.5 -43t-72.5 -12.5t-62 17.5t-36 47q-11 38 8.5 88.5t66.5 96.5h-65l-27 142h-189l-63 -142h-192l346 708h163l154 -708q-28 -17 -41.5 -38.5t-12.5 -37.5t17 -21.5t47 10.5zM346 508l-78 -207h106l-21 207h-7z" />
    <glyph glyph-name="aogonek" unicode="&#x105;" horiz-adv-x="506" 
d="M419 0q-28 -17 -43.5 -40t-16 -40.5t16 -24t51.5 9.5l27 -99q-31 -29 -68.5 -42.5t-72.5 -11.5t-62 18.5t-36 47.5q-12 39 9 88.5t69 96.5l-17 35q-27 -23 -58.5 -35.5t-58.5 -12.5q-36 0 -64.5 14t-47 38.5t-26.5 58t-3 73.5l22 161q7 54 31 91t58.5 59.5t76 32.5
t84.5 10q49 0 99.5 -14t94.5 -40zM307 382q-15 7 -33 7q-25 0 -44.5 -14.5t-23.5 -38.5l-21 -149q-2 -15 1.5 -25.5t10 -16.5t16 -9t19.5 -3q24 0 42 9z" />
    <glyph glyph-name="Cacute" unicode="&#x106;" horiz-adv-x="581" 
d="M427 751h-157l109 159h188zM551 149q-33 -47 -68 -77.5t-70.5 -48.5t-71 -25.5t-68.5 -7.5q-52 0 -100 15t-83 45.5t-52.5 76t-9.5 105.5l34 244q8 60 38.5 105.5t74.5 75.5t97 45.5t106 15.5q33 0 66.5 -8t64.5 -26.5t55.5 -50t39.5 -78.5l-154 -59q-12 30 -40 43.5
t-60 13.5q-19 0 -37.5 -5.5t-33.5 -15.5t-25 -24t-13 -32l-34 -244q-5 -35 22 -55t65 -20q31 0 62 15t49 49z" />
    <glyph glyph-name="cacute" unicode="&#x107;" horiz-adv-x="462" 
d="M324 562h-151l105 153h180zM426 142q-20 -44 -47.5 -73t-57.5 -46.5t-61 -25t-57 -7.5q-39 0 -75.5 12t-63.5 35.5t-40.5 59t-6.5 82.5l24 169q7 48 30 82t56 55.5t73 32t79 10.5q26 0 54 -6.5t52.5 -23t42 -43.5t23.5 -69l-148 -44q-2 23 -15 33.5t-29 10.5
q-18 0 -34 -11t-19 -33l-24 -166q-3 -21 10 -32.5t30 -11.5t34.5 10t28.5 33z" />
    <glyph glyph-name="Cdotaccent" unicode="&#x10a;" horiz-adv-x="581" 
d="M298 839q3 19 12.5 35.5t24 28.5t32.5 19t38 7q41 0 64 -25.5t18 -64.5q-6 -39 -36.5 -63.5t-70.5 -24.5q-41 0 -64 24.5t-18 63.5zM551 149q-33 -47 -68 -77.5t-70.5 -48.5t-71 -25.5t-68.5 -7.5q-52 0 -100 15t-83 45.5t-52.5 76t-9.5 105.5l34 244q8 60 38.5 105.5
t74.5 75.5t97 45.5t106 15.5q33 0 66.5 -8t64.5 -26.5t55.5 -50t39.5 -78.5l-154 -59q-12 30 -40 43.5t-60 13.5q-19 0 -37.5 -5.5t-33.5 -15.5t-25 -24t-13 -32l-34 -244q-5 -35 22 -55t65 -20q31 0 62 15t49 49z" />
    <glyph glyph-name="cdotaccent" unicode="&#x10b;" horiz-adv-x="462" 
d="M200 646q3 19 12 35t23 27.5t31.5 18t36.5 6.5q39 0 61 -24.5t18 -62.5q-6 -38 -35.5 -61t-67.5 -23q-39 0 -61.5 23t-17.5 61zM426 142q-20 -44 -47.5 -73t-57.5 -46.5t-61 -25t-57 -7.5q-39 0 -75.5 12t-63.5 35.5t-40.5 59t-6.5 82.5l24 169q7 48 30 82t56 55.5t73 32
t79 10.5q26 0 54 -6.5t52.5 -23t42 -43.5t23.5 -69l-148 -44q-2 23 -15 33.5t-29 10.5q-18 0 -34 -11t-19 -33l-24 -166q-3 -21 10 -32.5t30 -11.5t34.5 10t28.5 33z" />
    <glyph glyph-name="Ccaron" unicode="&#x10c;" horiz-adv-x="581" 
d="M355 909l42 -49l53 49h181l-187 -158h-128l-140 158h179zM551 149q-33 -47 -68 -77.5t-70.5 -48.5t-71 -25.5t-68.5 -7.5q-52 0 -100 15t-83 45.5t-52.5 76t-9.5 105.5l34 244q8 60 38.5 105.5t74.5 75.5t97 45.5t106 15.5q33 0 66.5 -8t64.5 -26.5t55.5 -50t39.5 -78.5
l-154 -59q-12 30 -40 43.5t-60 13.5q-19 0 -37.5 -5.5t-33.5 -15.5t-25 -24t-13 -32l-34 -244q-5 -35 22 -55t65 -20q31 0 62 15t49 49z" />
    <glyph glyph-name="ccaron" unicode="&#x10d;" horiz-adv-x="462" 
d="M255 714l41 -48l51 48h174l-180 -152h-123l-135 152h172zM426 142q-20 -44 -47.5 -73t-57.5 -46.5t-61 -25t-57 -7.5q-39 0 -75.5 12t-63.5 35.5t-40.5 59t-6.5 82.5l24 169q7 48 30 82t56 55.5t73 32t79 10.5q26 0 54 -6.5t52.5 -23t42 -43.5t23.5 -69l-148 -44
q-2 23 -15 33.5t-29 10.5q-18 0 -34 -11t-19 -33l-24 -166q-3 -21 10 -32.5t30 -11.5t34.5 10t28.5 33z" />
    <glyph glyph-name="Dcaron" unicode="&#x10e;" horiz-adv-x="635" 
d="M329 909l42 -49l53 49h181l-187 -158h-128l-140 158h179zM377 708q53 0 101 -14t82 -43t51 -73.5t8 -106.5l-34 -238q-9 -61 -38 -105t-71 -72.5t-93.5 -42t-104.5 -13.5h-265l99 708h265zM307 168q37 0 65.5 18t32.5 47l34 238q4 29 -19 49.5t-60 20.5h-91l-53 -373h91z
" />
    <glyph glyph-name="dcaron" unicode="&#x10f;" horiz-adv-x="603" 
d="M423 34q-49 -18 -106 -31t-114 -13q-41 0 -78 9.5t-63 31t-39 57.5t-5 89l25 177q6 43 26 76t49 54.5t64.5 32.5t73.5 11q17 0 33.5 -2.5t32.5 -7.5l26 190h170zM635 492h-123l53 214h147zM302 382q-12 6 -32 6t-38.5 -10.5t-22.5 -34.5l-26 -180q-3 -23 13.5 -32.5
t37.5 -9.5q15 0 32 5z" />
    <glyph glyph-name="Dcroat" unicode="&#x110;" horiz-adv-x="642" 
d="M118 708h286q54 0 98.5 -13.5t74.5 -42t43.5 -72.5t4.5 -106l-34 -241q-9 -61 -34.5 -105t-63.5 -72.5t-86 -42t-102 -13.5h-286l41 304h-51l19 124h51zM329 176q35 0 56.5 14t25.5 43l34 241q5 29 -13 43.5t-53 14.5h-105l-14 -104h83l-19 -124h-83l-17 -128h105z" />
    <glyph glyph-name="dcroat" unicode="&#x111;" horiz-adv-x="508" 
d="M423 34q-49 -18 -106 -31t-114 -13q-41 0 -78 9.5t-63 31t-39 57.5t-5 89l25 177q6 43 26 76t49 54.5t64.5 32.5t73.5 11q17 0 33.5 -2.5t32.5 -7.5l8 56h-86l12 81h85l7 53h170l-7 -53h49l-12 -81h-49zM302 382q-12 6 -32 6t-38.5 -10.5t-22.5 -34.5l-26 -180
q-3 -23 13.5 -32.5t37.5 -9.5q15 0 32 5z" />
    <glyph glyph-name="Emacron" unicode="&#x112;" horiz-adv-x="588" 
d="M233 896h320l-27 -140h-320zM254 434h287l-22 -159h-287l-15 -106h312l-23 -169h-493l99 708h493l-24 -169h-312z" />
    <glyph glyph-name="emacron" unicode="&#x113;" horiz-adv-x="470" 
d="M153 692h290l-25 -127h-290zM179 194q-4 -29 11 -45t38.5 -20t50 3t44.5 24l81 -82q-27 -27 -53.5 -43.5t-52.5 -25.5t-50.5 -12t-46.5 -3q-39 0 -75 12.5t-62.5 36.5t-40 60t-6.5 83l21 148q7 49 30 86t56.5 62t73.5 37.5t80 12.5t74.5 -12t58.5 -35.5t35 -59t4 -83.5
q-7 -46 -33 -78t-64 -50t-83.5 -22t-90.5 6zM195 294q15 -7 32.5 -7.5t32.5 5t25.5 17.5t12.5 32q3 18 -6.5 33t-33.5 15q-18 0 -35.5 -12t-20.5 -34z" />
    <glyph glyph-name="Edotaccent" unicode="&#x116;" horiz-adv-x="588" 
d="M287 839q3 19 12.5 35.5t24 28.5t32.5 19t38 7q41 0 64 -25.5t18 -64.5q-6 -39 -36.5 -63.5t-70.5 -24.5q-41 0 -64 24.5t-18 63.5zM254 434h287l-22 -159h-287l-15 -106h312l-23 -169h-493l99 708h493l-24 -169h-312z" />
    <glyph glyph-name="edotaccent" unicode="&#x117;" horiz-adv-x="470" 
d="M197 647q3 19 12 35t23 27.5t31.5 18t36.5 6.5q39 0 61 -24.5t18 -62.5q-6 -38 -35.5 -61t-67.5 -23q-39 0 -61.5 23t-17.5 61zM179 194q-4 -29 11 -45t38.5 -20t50 3t44.5 24l81 -82q-27 -27 -53.5 -43.5t-52.5 -25.5t-50.5 -12t-46.5 -3q-39 0 -75 12.5t-62.5 36.5
t-40 60t-6.5 83l21 148q7 49 30 86t56.5 62t73.5 37.5t80 12.5t74.5 -12t58.5 -35.5t35 -59t4 -83.5q-7 -46 -33 -78t-64 -50t-83.5 -22t-90.5 6zM195 294q15 -7 32.5 -7.5t32.5 5t25.5 17.5t12.5 32q3 18 -6.5 33t-33.5 15q-18 0 -35.5 -12t-20.5 -34z" />
    <glyph glyph-name="Eogonek" unicode="&#x118;" horiz-adv-x="588" 
d="M541 434l-22 -159h-287l-15 -106h312l-23 -169q-29 -17 -43 -38.5t-13.5 -37.5t16 -21.5t46.5 10.5l27 -107q-31 -29 -68.5 -43t-72.5 -12.5t-62 17.5t-36 47q-11 38 8.5 88.5t66.5 96.5h-362l99 708h493l-24 -169h-312l-15 -105h287z" />
    <glyph glyph-name="eogonek" unicode="&#x119;" horiz-adv-x="470" 
d="M279 528q40 0 74.5 -12t58.5 -35.5t35 -59t4 -83.5q-7 -46 -33 -78t-64 -50t-83.5 -22t-90.5 6q-4 -29 11 -45t38.5 -20t50 3t44.5 24l81 -82q-42 -42 -83 -60q-29 -18 -44.5 -41.5t-15.5 -42t16.5 -25.5t51.5 8l27 -107q-31 -29 -68.5 -43t-72.5 -12.5t-62 17.5t-36 47
q-11 36 7.5 83t63.5 92q-37 2 -71 15t-58 37.5t-36 59.5t-6 80l21 148q7 49 30 86t56.5 62t73.5 37.5t80 12.5zM299 341q3 18 -6.5 33t-33.5 15q-18 0 -35.5 -12t-20.5 -34l-7 -49q15 -7 32.5 -7.5t32.5 5t25.5 17.5t12.5 32z" />
    <glyph glyph-name="Ecaron" unicode="&#x11a;" horiz-adv-x="588" 
d="M344 909l42 -49l53 49h181l-187 -158h-128l-140 158h179zM254 434h287l-22 -159h-287l-15 -106h312l-23 -169h-493l99 708h493l-24 -169h-312z" />
    <glyph glyph-name="ecaron" unicode="&#x11b;" horiz-adv-x="470" 
d="M252 715l41 -48l51 48h174l-180 -152h-123l-135 152h172zM179 194q-4 -29 11 -45t38.5 -20t50 3t44.5 24l81 -82q-27 -27 -53.5 -43.5t-52.5 -25.5t-50.5 -12t-46.5 -3q-39 0 -75 12.5t-62.5 36.5t-40 60t-6.5 83l21 148q7 49 30 86t56.5 62t73.5 37.5t80 12.5t74.5 -12
t58.5 -35.5t35 -59t4 -83.5q-7 -46 -33 -78t-64 -50t-83.5 -22t-90.5 6zM195 294q15 -7 32.5 -7.5t32.5 5t25.5 17.5t12.5 32q3 18 -6.5 33t-33.5 15q-18 0 -35.5 -12t-20.5 -34z" />
    <glyph glyph-name="Gbreve" unicode="&#x11e;" horiz-adv-x="623" 
d="M574 914q-6 -57 -37.5 -95t-74 -56.5t-89.5 -18t-85.5 19.5t-61 56.5t-16.5 93.5h139q-3 -22 10 -32.5t29.5 -10.5t31.5 11t18 32h136zM441 498q-8 32 -33.5 46.5t-55.5 14.5q-19 0 -37.5 -5.5t-33.5 -16t-25.5 -25.5t-13.5 -34l-34 -243q-5 -41 23.5 -61t68.5 -20
q19 0 38.5 5t35.5 15t27 25.5t14 35.5l4 30h-113l20 146h285l-24 -176q-9 -61 -39 -107t-73.5 -76.5t-96 -46t-105.5 -15.5t-100.5 15.5t-82.5 46t-52.5 76.5t-8.5 107l34 243q9 62 39 107t73.5 74.5t95.5 44t105 14.5q34 0 69 -7.5t65.5 -25.5t54.5 -47t36 -71z" />
    <glyph glyph-name="gbreve" unicode="&#x11f;" horiz-adv-x="502" 
d="M485 730q-6 -58 -37.5 -95.5t-74 -56t-89.5 -18t-85.5 19.5t-61 56.5t-16.5 93.5h139q-3 -22 10 -32.5t29.5 -10.5t31.5 11t18 32h136zM41 344q7 52 30.5 87.5t57.5 57t75 30.5t84 9q57 0 106 -13t87 -32l-63 -445q-8 -61 -29.5 -105.5t-52.5 -74t-69.5 -44t-80.5 -14.5
q-49 0 -97 18.5t-90 55.5l83 95q22 -17 45.5 -24.5t46.5 -7.5q34 0 54.5 15.5t25.5 51.5q-20 -8 -39.5 -11t-39.5 -3q-36 0 -67.5 12t-54 36t-32.5 59.5t-4 80.5zM305 391q-15 9 -38 9q-21 0 -39 -12t-22 -38l-26 -181q-4 -25 11.5 -36t35.5 -11q22 0 41 11z" />
    <glyph glyph-name="Gdotaccent" unicode="&#x120;" horiz-adv-x="623" 
d="M295 839q3 19 12.5 35.5t24 28.5t32.5 19t38 7q41 0 64 -25.5t18 -64.5q-6 -39 -36.5 -63.5t-70.5 -24.5q-41 0 -64 24.5t-18 63.5zM441 498q-8 32 -33.5 46.5t-55.5 14.5q-19 0 -37.5 -5.5t-33.5 -16t-25.5 -25.5t-13.5 -34l-34 -243q-5 -41 23.5 -61t68.5 -20
q19 0 38.5 5t35.5 15t27 25.5t14 35.5l4 30h-113l20 146h285l-24 -176q-9 -61 -39 -107t-73.5 -76.5t-96 -46t-105.5 -15.5t-100.5 15.5t-82.5 46t-52.5 76.5t-8.5 107l34 243q9 62 39 107t73.5 74.5t95.5 44t105 14.5q34 0 69 -7.5t65.5 -25.5t54.5 -47t36 -71z" />
    <glyph glyph-name="gdotaccent" unicode="&#x121;" horiz-adv-x="502" 
d="M206 655q3 19 12.5 35.5t24 28.5t32.5 19t38 7q41 0 64 -25.5t18 -64.5q-6 -39 -36.5 -63.5t-70.5 -24.5q-41 0 -64 24.5t-18 63.5zM41 344q7 52 30.5 87.5t57.5 57t75 30.5t84 9q57 0 106 -13t87 -32l-63 -445q-8 -61 -29.5 -105.5t-52.5 -74t-69.5 -44t-80.5 -14.5
q-49 0 -97 18.5t-90 55.5l83 95q22 -17 45.5 -24.5t46.5 -7.5q34 0 54.5 15.5t25.5 51.5q-20 -8 -39.5 -11t-39.5 -3q-36 0 -67.5 12t-54 36t-32.5 59.5t-4 80.5zM305 391q-15 9 -38 9q-21 0 -39 -12t-22 -38l-26 -181q-4 -25 11.5 -36t35.5 -11q22 0 41 11z" />
    <glyph glyph-name="Gcommaaccent" unicode="&#x122;" horiz-adv-x="623" 
d="M441 498q-8 32 -33.5 46.5t-55.5 14.5q-19 0 -37.5 -5.5t-33.5 -16t-25.5 -25.5t-13.5 -34l-34 -243q-5 -41 23.5 -61t68.5 -20q19 0 38.5 5t35.5 15t27 25.5t14 35.5l4 30h-113l20 146h285l-24 -176q-9 -61 -39 -107t-73.5 -76.5t-96 -46t-105.5 -15.5t-100.5 15.5
t-82.5 46t-52.5 76.5t-8.5 107l34 243q9 62 39 107t73.5 74.5t95.5 44t105 14.5q34 0 69 -7.5t65.5 -25.5t54.5 -47t36 -71zM276 -254h-157l77 191h181z" />
    <glyph glyph-name="gcommaaccent" unicode="&#x123;" horiz-adv-x="502" 
d="M284 760h151l-74 -183h-174zM41 344q7 52 30.5 87.5t57.5 57t75 30.5t84 9q57 0 106 -13t87 -32l-63 -445q-8 -61 -29.5 -105.5t-52.5 -74t-69.5 -44t-80.5 -14.5q-49 0 -97 18.5t-90 55.5l83 95q22 -17 45.5 -24.5t46.5 -7.5q34 0 54.5 15.5t25.5 51.5q-20 -8 -39.5 -11
t-39.5 -3q-36 0 -67.5 12t-54 36t-32.5 59.5t-4 80.5zM305 391q-15 9 -38 9q-21 0 -39 -12t-22 -38l-26 -181q-4 -25 11.5 -36t35.5 -11q22 0 41 11z" />
    <glyph glyph-name="Hbar" unicode="&#x126;" horiz-adv-x="715" 
d="M594 0h-180l37 267h-204l-37 -267h-180l74 529h-68l17 99h65l11 80h180l-11 -80h204l11 80h180l-11 -80h74l-18 -99h-70zM271 440h204l13 89h-204z" />
    <glyph glyph-name="hbar" unicode="&#x127;" horiz-adv-x="514" 
d="M313 528q42 0 74.5 -12.5t54 -37t30.5 -61t2 -84.5l-46 -333h-168l47 334q3 22 -10.5 32t-33.5 10q-23 0 -39 -9l-51 -367h-168l80 571h-59l12 83h58l8 54h168l-8 -54h105l-12 -83h-104l-8 -53q33 10 68 10z" />
    <glyph glyph-name="Imacron" unicode="&#x12a;" horiz-adv-x="291" 
d="M74 890h298l-25 -134h-298zM192 0h-179l99 708h179z" />
    <glyph glyph-name="imacron" unicode="&#x12b;" horiz-adv-x="268" 
d="M44 707h289l-26 -134h-289zM177 0h-172l72 518h172z" />
    <glyph glyph-name="Iogonek" unicode="&#x12e;" horiz-adv-x="291" 
d="M182 0q-28 -17 -41.5 -38.5t-12.5 -37.5t17 -21.5t47 10.5l27 -107q-31 -29 -68.5 -43t-72.5 -12.5t-62 17.5t-36 47q-11 38 8.5 88.5t66.5 96.5h-43l99 708h179l-99 -708h-9z" />
    <glyph glyph-name="iogonek" unicode="&#x12f;" horiz-adv-x="265" 
d="M80 639q5 32 22 52.5t40 31t48.5 10t45.5 -11t31 -31t7 -51.5q-4 -29 -21 -48.5t-40 -29t-48 -10t-45.5 9t-32 29t-7.5 49.5zM173 0q-28 -17 -41.5 -38.5t-12.5 -37.5t17 -21.5t47 10.5l27 -107q-31 -29 -68.5 -43t-72.5 -12.5t-62 17.5t-36 47q-11 38 8.5 88.5
t66.5 96.5h-42l73 518h169z" />
    <glyph glyph-name="Idotaccent" unicode="&#x130;" horiz-adv-x="291" 
d="M126 839q3 19 12.5 35.5t24 28.5t32.5 19t38 7q41 0 64 -25.5t18 -64.5q-6 -39 -36.5 -63.5t-70.5 -24.5q-41 0 -64 24.5t-18 63.5zM192 0h-179l99 708h179z" />
    <glyph glyph-name="dotlessi" unicode="&#x131;" horiz-adv-x="268" 
d="M177 0h-172l72 518h172z" />
    <glyph glyph-name="IJ" unicode="&#x132;" horiz-adv-x="876" 
d="M192 0h-179l99 708h179zM453 243q1 -21 8.5 -36t19.5 -25t27.5 -14.5t31.5 -4.5q34 0 63.5 18t34.5 50l44 315h-161l23 162h338l-67 -477q-8 -58 -36 -103t-68.5 -75.5t-90.5 -46.5t-104 -16q-46 0 -89 13t-76 40t-53 68t-19 97z" />
    <glyph glyph-name="ij" unicode="&#x133;" horiz-adv-x="529" 
d="M81 639q4 32 21.5 52.5t40.5 31t48.5 10t45.5 -11t31 -31t7 -51.5q-4 -29 -21 -48.5t-40 -29t-48 -10t-45.5 9t-32 29t-7.5 49.5zM247 518l-73 -518h-169l73 518h169zM346 639q4 32 21.5 52.5t40.5 31t48.5 10t45.5 -11t31 -31t7 -51.5q-4 -29 -21 -48.5t-40 -29t-48 -10
t-45.5 9t-32 29t-7.5 49.5zM189 -37q37 -9 57.5 6t23.5 38l73 511h169l-73 -513q-7 -50 -31.5 -90.5t-61 -67t-82 -36t-95.5 4.5z" />
    <glyph glyph-name="Kcommaaccent" unicode="&#x136;" horiz-adv-x="638" 
d="M484 708h223l-329 -348l229 -360h-225l-148 253l-7 -8l-34 -245h-180l99 708h180l-37 -262zM278 -254h-157l77 191h181z" />
    <glyph glyph-name="kcommaaccent" unicode="&#x137;" horiz-adv-x="508" 
d="M349 518h190l-223 -251l150 -267h-188l-89 166l-23 -166h-161l99 708h161l-49 -351zM220 -254h-157l77 191h181z" />
    <glyph glyph-name="Lacute" unicode="&#x139;" horiz-adv-x="536" 
d="M252 751h-157l109 159h188zM112 708h180l-75 -531h288l-24 -177h-468z" />
    <glyph glyph-name="lacute" unicode="&#x13a;" horiz-adv-x="295" 
d="M242 751h-157l109 159h188zM245 -1q-36 -9 -67 -9q-39 0 -70 13t-51.5 38.5t-28.5 62.5t-1 84l73 520h169l-73 -518q-3 -19 8 -33t36 -14q12 0 26 3z" />
    <glyph glyph-name="Lcommaaccent" unicode="&#x13b;" horiz-adv-x="536" 
d="M112 708h180l-75 -531h288l-24 -177h-468zM255 -254h-157l77 191h181z" />
    <glyph glyph-name="lcommaaccent" unicode="&#x13c;" horiz-adv-x="295" 
d="M245 -1q-36 -9 -67 -9q-39 0 -70 13t-51.5 38.5t-28.5 62.5t-1 84l73 520h169l-73 -518q-3 -19 8 -33t36 -14q12 0 26 3zM133 -250h-154l76 187h177z" />
    <glyph glyph-name="Lcaron" unicode="&#x13d;" horiz-adv-x="537" 
d="M112 708h180l-75 -531h288l-24 -177h-468zM448 509h-133l75 197h157z" />
    <glyph glyph-name="lcaron" unicode="&#x13e;" horiz-adv-x="304" 
d="M245 -1q-36 -9 -67 -9q-39 0 -70 13t-51.5 38.5t-28.5 62.5t-1 84l73 520h169l-73 -518q-3 -19 8 -33t36 -14q12 0 26 3zM381 527h-113l42 181h146z" />
    <glyph glyph-name="Ldot" unicode="&#x13f;" horiz-adv-x="545" 
d="M112 708h180l-75 -531h288l-24 -177h-468zM300 391q6 41 36.5 69t72.5 28t64.5 -28t16.5 -69q-6 -40 -36 -67t-72 -27t-65 27t-17 67z" />
    <glyph glyph-name="ldot" unicode="&#x140;" horiz-adv-x="396" 
d="M245 -1q-36 -9 -67 -9q-39 0 -70 13t-51.5 38.5t-28.5 62.5t-1 84l73 520h169l-73 -518q-3 -19 8 -33t36 -14q12 0 26 3zM245 357q5 38 33.5 64t68.5 26q38 0 58.5 -26t15.5 -64q-5 -37 -33 -62t-66 -25q-40 0 -61 25t-16 62z" />
    <glyph glyph-name="Lslash" unicode="&#x141;" horiz-adv-x="571" 
d="M49 0l35 249l-51 -19l-27 109l96 37l46 332h180l-37 -260l76 29l39 -108l-133 -50l-20 -142h288l-24 -177h-468z" />
    <glyph glyph-name="lslash" unicode="&#x142;" horiz-adv-x="340" 
d="M227 190q-3 -19 8 -33t36 -14q12 0 26 3l-21 -147q-36 -9 -67 -9q-39 0 -70 13t-51.5 38.5t-28.5 62.5t-1 84l17 118l-46 -13l-19 110l82 25l39 280h169l-32 -226l59 18l32 -111l-108 -32z" />
    <glyph glyph-name="Nacute" unicode="&#x143;" horiz-adv-x="676" 
d="M437 751h-157l109 159h188zM112 708h170l129 -302l40 -142l4 1l-2 122l45 321h178l-99 -708h-181l-121 279l-42 142l-4 -1l2 -137l-39 -283h-179z" />
    <glyph glyph-name="nacute" unicode="&#x144;" 
d="M326 560h-151l105 153h180zM72 486q44 20 94.5 31t101.5 11q47 0 87.5 -10.5t69 -33.5t41.5 -60t6 -91l-47 -333h-168l47 332q4 28 -10 38t-34 10t-35 -6l-53 -374h-169z" />
    <glyph glyph-name="Ncommaaccent" unicode="&#x145;" horiz-adv-x="676" 
d="M112 708h170l129 -302l40 -142l4 1l-2 122l45 321h178l-99 -708h-181l-121 279l-42 142l-4 -1l2 -137l-39 -283h-179zM301 -254h-157l77 191h181z" />
    <glyph glyph-name="ncommaaccent" unicode="&#x146;" 
d="M72 486q44 20 94.5 31t101.5 11q47 0 87.5 -10.5t69 -33.5t41.5 -60t6 -91l-47 -333h-168l47 332q4 28 -10 38t-34 10t-35 -6l-53 -374h-169zM209 -252h-157l77 191h181z" />
    <glyph glyph-name="Ncaron" unicode="&#x147;" horiz-adv-x="676" 
d="M365 909l42 -49l53 49h181l-187 -158h-128l-140 158h179zM112 708h170l129 -302l40 -142l4 1l-2 122l45 321h178l-99 -708h-181l-121 279l-42 142l-4 -1l2 -137l-39 -283h-179z" />
    <glyph glyph-name="ncaron" unicode="&#x148;" 
d="M257 712l41 -48l51 48h174l-180 -152h-123l-135 152h172zM72 486q44 20 94.5 31t101.5 11q47 0 87.5 -10.5t69 -33.5t41.5 -60t6 -91l-47 -333h-168l47 332q4 28 -10 38t-34 10t-35 -6l-53 -374h-169z" />
    <glyph glyph-name="Eng" unicode="&#x14a;" horiz-adv-x="676" 
d="M575 -8q-19 -126 -89.5 -171t-180.5 -18l20 147q37 -9 57 6t24 38l2 14l-133 271l-42 142l-4 -1l2 -137l-39 -283h-179l99 708h170l130 -293l40 -142l4 1l-2 122l44 312h178l-100 -708z" />
    <glyph glyph-name="eng" unicode="&#x14b;" horiz-adv-x="510" 
d="M267 528q47 0 87.5 -10.5t69 -33.5t41.5 -60t6 -91l-47 -337q-7 -50 -26.5 -89.5t-52 -65.5t-77.5 -35.5t-104 1.5l20 147q21 -5 34.5 -3t21 8.5t11 16.5t5.5 22v2l47 332q4 28 -10 38t-34 10t-35 -6l-53 -374h-169l69 486q44 20 94.5 31t101.5 11z" />
    <glyph glyph-name="Omacron" unicode="&#x14c;" horiz-adv-x="664" 
d="M254 903h320l-27 -140h-320zM63 475q9 61 40.5 106.5t77 76t100 45.5t109.5 15t106 -15t88 -45.5t56 -76t10 -106.5l-35 -242q-9 -61 -39.5 -106.5t-75.5 -76t-100 -45.5t-113 -15q-55 0 -105.5 15t-87.5 45.5t-56 76t-10 106.5zM207 233q-3 -19 5 -33.5t22 -24
t33.5 -14.5t39.5 -5q22 0 43.5 5t39.5 15t30.5 25.5t15.5 36.5l35 237q3 20 -4 35t-21 25t-33.5 15t-41.5 5t-43.5 -5t-39.5 -15t-30.5 -25t-15.5 -35z" />
    <glyph glyph-name="omacron" unicode="&#x14d;" horiz-adv-x="493" 
d="M152 697h296l-25 -129h-296zM39 337q7 48 30 83.5t56.5 59.5t73 36t79.5 12q39 0 75.5 -12t62.5 -36t39.5 -59.5t6.5 -83.5l-23 -164q-6 -46 -29.5 -80t-56.5 -57t-72.5 -34.5t-79.5 -11.5q-39 0 -75.5 11.5t-63 34.5t-39.5 57.5t-7 79.5zM255 378q-15 0 -31.5 -10
t-18.5 -28l-23 -169q-2 -18 10 -28.5t29 -10.5t32.5 9t18.5 30l23 169q2 18 -11.5 28t-28.5 10z" />
    <glyph glyph-name="Ohungarumlaut" unicode="&#x150;" horiz-adv-x="664" 
d="M352 767h-146l76 151h179zM572 767h-145l74 151h187zM63 475q9 61 40.5 106.5t77 76t100 45.5t109.5 15t106 -15t88 -45.5t56 -76t10 -106.5l-35 -242q-9 -61 -39.5 -106.5t-75.5 -76t-100 -45.5t-113 -15q-55 0 -105.5 15t-87.5 45.5t-56 76t-10 106.5zM207 233
q-3 -19 5 -33.5t22 -24t33.5 -14.5t39.5 -5q22 0 43.5 5t39.5 15t30.5 25.5t15.5 36.5l35 237q3 20 -4 35t-21 25t-33.5 15t-41.5 5t-43.5 -5t-39.5 -15t-30.5 -25t-15.5 -35z" />
    <glyph glyph-name="ohungarumlaut" unicode="&#x151;" horiz-adv-x="493" 
d="M241 573h-140l73 145h172zM453 573h-139l71 145h179zM39 337q7 48 30 83.5t56.5 59.5t73 36t79.5 12q39 0 75.5 -12t62.5 -36t39.5 -59.5t6.5 -83.5l-23 -164q-6 -46 -29.5 -80t-56.5 -57t-72.5 -34.5t-79.5 -11.5q-39 0 -75.5 11.5t-63 34.5t-39.5 57.5t-7 79.5z
M255 378q-15 0 -31.5 -10t-18.5 -28l-23 -169q-2 -18 10 -28.5t29 -10.5t32.5 9t18.5 30l23 169q2 18 -11.5 28t-28.5 10z" />
    <glyph glyph-name="OE" unicode="&#x152;" horiz-adv-x="822" 
d="M562 434h212l-22 -163h-212l-15 -103h238l-23 -168h-401l4 35q-32 -26 -65.5 -35.5t-65.5 -9.5q-47 0 -84.5 16t-61.5 45.5t-34.5 70t-3.5 88.5l39 277q7 52 29.5 94.5t55.5 73t74.5 47t87.5 16.5q31 0 61.5 -8.5t58.5 -29.5l4 27h401l-24 -171h-238zM414 536
q-29 26 -65 26q-43 0 -70 -18.5t-32 -57.5l-38 -269q-5 -40 18.5 -58t55.5 -18q23 0 45.5 8t33.5 20z" />
    <glyph glyph-name="oe" unicode="&#x153;" horiz-adv-x="722" 
d="M543 528q37 0 69.5 -13t54.5 -37.5t32 -59.5t4 -80q-7 -50 -32.5 -81.5t-62.5 -48t-81.5 -19.5t-89.5 5q-4 -29 10.5 -44t37 -18.5t47 4t39.5 23.5l82 -80q-49 -50 -97.5 -69.5t-93.5 -19.5q-34 0 -66.5 10t-58.5 48q-31 -30 -66.5 -43.5t-70.5 -13.5q-39 0 -75.5 11.5
t-62.5 34.5t-39 57.5t-7 79.5l23 163q7 48 29 83.5t54 59.5t70.5 36t78.5 12q35 -1 69 -12t59 -44q31 28 68.5 42t75.5 14zM553 338q2 17 -8 31.5t-32 14.5q-18 0 -35 -11.5t-20 -31.5l-7 -45q17 -5 34.5 -6t31.5 3.5t24 15t12 29.5zM295 339q3 19 -11 29t-29 10t-31 -10
t-19 -28l-23 -168q-2 -18 10 -28.5t29 -10.5t32.5 9t18.5 30z" />
    <glyph glyph-name="Racute" unicode="&#x154;" horiz-adv-x="643" 
d="M409 751h-157l109 159h188zM257 225h-32l-31 -225h-181l99 708h283q55 0 100.5 -15t77 -45t45.5 -76t7 -108q-7 -49 -21 -83.5t-35 -59t-50 -43t-65 -35.5l170 -243h-223zM352 379q42 0 65 25.5t27 56.5q4 32 -12.5 56t-56.5 24h-105l-23 -162h105z" />
    <glyph glyph-name="racute" unicode="&#x155;" horiz-adv-x="353" 
d="M297 568h-157l109 159h188zM283 528q14 0 33.5 -2.5t51.5 -10.5l-20 -141q-17 6 -38.5 7t-41.5 -4.5t-35 -18.5t-18 -34l-45 -324h-169l45 326q7 53 27.5 91t51.5 63t71 36.5t87 11.5z" />
    <glyph glyph-name="Rcommaaccent" unicode="&#x156;" horiz-adv-x="643" 
d="M257 225h-32l-31 -225h-181l99 708h283q55 0 100.5 -15t77 -45t45.5 -76t7 -108q-7 -49 -21 -83.5t-35 -59t-50 -43t-65 -35.5l170 -243h-223zM352 379q42 0 65 25.5t27 56.5q4 32 -12.5 56t-56.5 24h-105l-23 -162h105zM301 -254h-157l77 191h181z" />
    <glyph glyph-name="rcommaaccent" unicode="&#x157;" horiz-adv-x="353" 
d="M283 528q14 0 33.5 -2.5t51.5 -10.5l-20 -141q-17 6 -38.5 7t-41.5 -4.5t-35 -18.5t-18 -34l-45 -324h-169l45 326q7 53 27.5 91t51.5 63t71 36.5t87 11.5zM83 -250h-151l74 183h174z" />
    <glyph glyph-name="Rcaron" unicode="&#x158;" horiz-adv-x="643" 
d="M337 909l42 -49l53 49h181l-187 -158h-128l-140 158h179zM257 225h-32l-31 -225h-181l99 708h283q55 0 100.5 -15t77 -45t45.5 -76t7 -108q-7 -49 -21 -83.5t-35 -59t-50 -43t-65 -35.5l170 -243h-223zM352 379q42 0 65 25.5t27 56.5q4 32 -12.5 56t-56.5 24h-105
l-23 -162h105z" />
    <glyph glyph-name="rcaron" unicode="&#x159;" horiz-adv-x="353" 
d="M235 721l30 -46l39 46h172l-162 -153h-128l-130 153h179zM283 528q14 0 33.5 -2.5t51.5 -10.5l-20 -141q-17 6 -38.5 7t-41.5 -4.5t-35 -18.5t-18 -34l-45 -324h-169l45 326q7 53 27.5 91t51.5 63t71 36.5t87 11.5z" />
    <glyph glyph-name="Sacute" unicode="&#x15a;" horiz-adv-x="569" 
d="M391 751h-157l109 159h188zM118 224q23 -34 63 -51t80 -17q36 0 64 13t33 41q3 16 -6 28.5t-25 20.5t-37.5 13.5t-42.5 8.5q-42 7 -79.5 26.5t-64.5 50.5t-39 72.5t-3 91.5q10 54 37.5 91.5t66.5 61t85.5 33.5t95.5 10q32 0 63 -5t60 -18t55 -35t49 -55l-130 -90
q-23 26 -55 38t-63 13q-34 1 -59 -12t-28 -40q-4 -31 20 -46.5t65 -24.5q46 -9 89.5 -23.5t74 -42t44.5 -71t2 -109.5q-10 -52 -36.5 -90.5t-65.5 -64.5t-89.5 -39t-107.5 -13q-32 0 -66.5 8t-67 24t-61.5 40t-49 56z" />
    <glyph glyph-name="sacute" unicode="&#x15b;" horiz-adv-x="425" 
d="M288 565h-151l105 153h180zM80 174q24 -20 53 -30t55 -8q13 1 19.5 8.5t6 16.5t-7.5 16t-21 8q-44 8 -73.5 26.5t-47 43.5t-23.5 54t-2 58q4 33 20 62.5t42 51t62 34.5t80 13q35 0 79.5 -13t87.5 -53l-91 -107q-44 23 -72.5 24.5t-35.5 -14.5q-4 -9 -1 -15.5t9.5 -11.5
t15 -8.5t15.5 -4.5q25 -5 50.5 -16t45.5 -30t30.5 -48t4.5 -69q-6 -44 -25.5 -76.5t-48 -53.5t-64 -31.5t-72.5 -10.5q-26 0 -50 3.5t-47 12.5t-44.5 24.5t-40.5 40.5z" />
    <glyph glyph-name="Scedilla" unicode="&#x15e;" horiz-adv-x="569" 
d="M323 443q46 -9 89.5 -23.5t74 -42t44.5 -71t2 -109.5q-16 -82 -71 -131.5t-136 -66.5l-21 -34q24 -3 38.5 -15t21 -28.5t6 -36.5t-7.5 -41q-14 -42 -57 -70t-103 -28q-17 0 -33.5 1t-34.5 5.5t-37 14.5t-39 27l53 93q45 -29 72.5 -26.5t32.5 15.5q7 18 -8.5 31.5
t-61.5 13.5l45 72q-28 4 -57 14.5t-55.5 26t-49.5 36.5t-40 48l128 106q23 -34 63 -51t80 -17q36 0 64 13t33 41q3 16 -6 28.5t-25 20.5t-37.5 13.5t-42.5 8.5q-42 7 -79.5 26.5t-64.5 50.5t-39 72.5t-3 91.5q10 54 37.5 91.5t66.5 61t85.5 33.5t95.5 10q32 0 63 -5t60 -18
t55 -35t49 -55l-130 -90q-23 26 -55 38t-63 13q-34 1 -59 -12t-28 -40q-4 -31 20 -46.5t65 -24.5z" />
    <glyph glyph-name="scedilla" unicode="&#x15f;" horiz-adv-x="425" 
d="M250 325q25 -5 50.5 -16t45.5 -30t30.5 -48t4.5 -69q-9 -66 -46.5 -105.5t-88.5 -55.5l-23 -53q22 -3 36.5 -14t22 -26.5t8 -34t-5.5 -37.5q-13 -39 -52.5 -65t-95.5 -26q-31 0 -63 6.5t-70 38.5l49 86q21 -14 37.5 -19.5t29 -5.5t20.5 4t10 10q6 17 -5.5 30t-54.5 13
l34 85q-37 5 -70.5 22.5t-63.5 55.5l91 103q24 -20 53 -30t55 -8q13 1 19.5 8.5t6 16.5t-7.5 16t-21 8q-44 8 -73.5 26.5t-47 43.5t-23.5 54t-2 58q4 33 20 62.5t42 51t62 34.5t80 13q35 0 79.5 -13t87.5 -53l-91 -107q-44 23 -72.5 24.5t-35.5 -14.5q-4 -9 -1 -15.5
t9.5 -11.5t15 -8.5t15.5 -4.5z" />
    <glyph glyph-name="Scaron" unicode="&#x160;" horiz-adv-x="569" 
d="M319 909l42 -49l53 49h181l-187 -158h-128l-140 158h179zM118 224q23 -34 63 -51t80 -17q36 0 64 13t33 41q3 16 -6 28.5t-25 20.5t-37.5 13.5t-42.5 8.5q-42 7 -79.5 26.5t-64.5 50.5t-39 72.5t-3 91.5q10 54 37.5 91.5t66.5 61t85.5 33.5t95.5 10q32 0 63 -5t60 -18
t55 -35t49 -55l-130 -90q-23 26 -55 38t-63 13q-34 1 -59 -12t-28 -40q-4 -31 20 -46.5t65 -24.5q46 -9 89.5 -23.5t74 -42t44.5 -71t2 -109.5q-10 -52 -36.5 -90.5t-65.5 -64.5t-89.5 -39t-107.5 -13q-32 0 -66.5 8t-67 24t-61.5 40t-49 56z" />
    <glyph glyph-name="scaron" unicode="&#x161;" horiz-adv-x="426" 
d="M220 717l41 -48l51 48h174l-180 -152h-123l-135 152h172zM81 174q24 -20 53 -30t55 -8q13 1 19.5 8.5t6 16.5t-7.5 16t-21 8q-44 8 -73.5 26.5t-47 43.5t-23.5 54t-2 58q4 33 20 62.5t42 51t62 34.5t80 13q35 0 79.5 -13t87.5 -53l-91 -107q-44 23 -72.5 24.5
t-35.5 -14.5q-4 -9 -1 -15.5t9.5 -11.5t15 -8.5t15.5 -4.5q25 -5 50.5 -16t45.5 -30t30.5 -48t4.5 -69q-6 -44 -25.5 -76.5t-48 -53.5t-64 -31.5t-72.5 -10.5q-26 0 -50 3.5t-47 12.5t-44.5 24.5t-40.5 40.5z" />
    <glyph glyph-name="Tcommaaccent" unicode="&#x162;" horiz-adv-x="588" 
d="M45 0zM417 545l-75 -545h-181l75 545h-191l24 164h563l-24 -164h-191zM249 -254h-157l77 191h181z" />
    <glyph glyph-name="tcommaaccent" unicode="&#x163;" horiz-adv-x="330" 
d="M4 0zM155 -240h-151l74 183h174zM268 9q-50 -19 -99 -19q-36 0 -65.5 12t-49 36t-27.5 61t-1 87l64 454h159l-9 -122h85l-18 -126h-85l-28 -205q-5 -31 9.5 -41.5t36.5 -10.5q20 0 47 8z" />
    <glyph glyph-name="Tcaron" unicode="&#x164;" horiz-adv-x="588" 
d="M317 909l42 -49l53 49h181l-187 -158h-128l-140 158h179zM417 545l-75 -545h-181l75 545h-191l24 164h563l-24 -164h-191z" />
    <glyph glyph-name="tcaron" unicode="&#x165;" horiz-adv-x="330" 
d="M395 552h-124l57 166h155zM268 9q-50 -19 -99 -19q-36 0 -65.5 12t-49 36t-27.5 61t-1 87l64 454h159l-9 -122h85l-18 -126h-85l-28 -205q-5 -31 9.5 -41.5t36.5 -10.5q20 0 47 8z" />
    <glyph glyph-name="Tbar" unicode="&#x166;" horiz-adv-x="592" 
d="M470 345l-20 -114h-74l-32 -231h-181l32 231h-85l20 114h80l28 200h-191l24 164h563l-24 -164h-191l-28 -200h79z" />
    <glyph glyph-name="tbar" unicode="&#x167;" horiz-adv-x="343" 
d="M292 324l-15 -100h-65l-5 -37q-5 -31 9.5 -41.5t36.5 -10.5q20 0 47 8l-19 -134q-50 -19 -99 -19q-36 0 -65.5 12t-49 36t-27.5 61t-1 87l5 38h-45l15 100h44l44 316h158l-7 -122h85l-19 -132h-85l-8 -62h66z" />
    <glyph glyph-name="Umacron" unicode="&#x16a;" horiz-adv-x="666" 
d="M258 896h320l-27 -140h-320zM222 239q-3 -21 3.5 -37t19.5 -26.5t30.5 -16t36.5 -5.5q20 0 39 5.5t34.5 16t26 26.5t13.5 37l66 469h181l-66 -469q-9 -62 -40 -109t-75 -78t-97 -46.5t-106 -15.5t-101.5 15.5t-84 46.5t-53 78t-8.5 109l66 469h181z" />
    <glyph glyph-name="umacron" unicode="&#x16b;" 
d="M166 704h296l-25 -129h-296zM427 32q-44 -20 -92 -31t-105 -11q-45 0 -85 10.5t-68.5 33.5t-42.5 60.5t-7 90.5l45 333h168l-45 -332q-4 -26 11 -37t35 -11q18 0 33 6l51 374h169z" />
    <glyph glyph-name="Uring" unicode="&#x16e;" horiz-adv-x="666" 
d="M419 968q42 0 67.5 -18t36.5 -45.5t7.5 -59t-20.5 -59t-47 -45.5t-71 -18q-44 0 -70.5 18t-37.5 45.5t-7.5 59t21.5 59t48.5 45.5t72.5 18zM442 844q3 17 -7.5 27.5t-25.5 10.5q-19 0 -30 -10.5t-14 -27.5q-1 -13 7.5 -25.5t27.5 -12.5q15 0 27.5 10.5t14.5 27.5z
M222 239q-3 -21 3.5 -37t19.5 -26.5t30.5 -16t36.5 -5.5q20 0 39 5.5t34.5 16t26 26.5t13.5 37l66 469h181l-66 -469q-9 -62 -40 -109t-75 -78t-97 -46.5t-106 -15.5t-101.5 15.5t-84 46.5t-53 78t-8.5 109l66 469h181z" />
    <glyph glyph-name="uring" unicode="&#x16f;" 
d="M316 791q42 0 67.5 -18t36.5 -45.5t7.5 -59t-20.5 -59t-47 -45.5t-71 -18q-44 0 -70.5 18t-37.5 45.5t-7.5 59t21.5 59t48.5 45.5t72.5 18zM339 667q3 17 -7.5 27.5t-25.5 10.5q-19 0 -30 -10.5t-14 -27.5q-1 -13 7.5 -25.5t27.5 -12.5q15 0 27.5 10.5t14.5 27.5zM427 32
q-44 -20 -92 -31t-105 -11q-45 0 -85 10.5t-68.5 33.5t-42.5 60.5t-7 90.5l45 333h168l-45 -332q-4 -26 11 -37t35 -11q18 0 33 6l51 374h169z" />
    <glyph glyph-name="Uhungarumlaut" unicode="&#x170;" horiz-adv-x="666" 
d="M356 760h-146l76 151h179zM576 760h-145l74 151h187zM222 239q-3 -21 3.5 -37t19.5 -26.5t30.5 -16t36.5 -5.5q20 0 39 5.5t34.5 16t26 26.5t13.5 37l66 469h181l-66 -469q-9 -62 -40 -109t-75 -78t-97 -46.5t-106 -15.5t-101.5 15.5t-84 46.5t-53 78t-8.5 109l66 469
h181z" />
    <glyph glyph-name="uhungarumlaut" unicode="&#x171;" 
d="M247 570h-146l76 151h179zM467 570h-145l74 151h187zM427 32q-44 -20 -92 -31t-105 -11q-45 0 -85 10.5t-68.5 33.5t-42.5 60.5t-7 90.5l45 333h168l-45 -332q-4 -26 11 -37t35 -11q18 0 33 6l51 374h169z" />
    <glyph glyph-name="Uogonek" unicode="&#x172;" horiz-adv-x="666" 
d="M606 239q-6 -41 -21.5 -75t-38.5 -61.5t-52 -48.5t-62 -35q-28 -17 -42 -41.5t-14 -44t15 -28t46 7.5l27 -107q-31 -29 -68.5 -43t-72.5 -12.5t-62 17.5t-36 47q-11 36 6 83t59 92h-2q-53 0 -101.5 15.5t-84 46.5t-53 78t-8.5 109l66 469h181l-66 -469q-3 -21 3.5 -37
t19.5 -26.5t30.5 -16t36.5 -5.5q20 0 39 5.5t34.5 16t26 26.5t13.5 37l66 469h181z" />
    <glyph glyph-name="uogonek" unicode="&#x173;" 
d="M424 31q-27 -19 -44 -45.5t-20.5 -48t8.5 -31t42 6.5l27 -107q-31 -29 -68.5 -43t-72.5 -12.5t-62 17.5t-36 47q-11 36 6.5 83.5t59.5 92.5q-8 -1 -16.5 -1h-17.5q-45 0 -85 10.5t-68.5 33.5t-42.5 60.5t-7 90.5l45 333h168l-45 -332q-4 -26 11 -37t35 -11q18 0 33 6
l51 374h169l-67 -486z" />
    <glyph glyph-name="Wcircumflex" unicode="&#x174;" horiz-adv-x="913" 
d="M562 752l-42 49l-53 -49h-181l187 158h128l140 -158h-179zM785 708h185l-303 -708h-166l-36 196l-2 162h-3l-50 -161l-83 -197h-166l-106 708h186l36 -339l-2 -150h4l38 149l114 248h136l38 -249l2 -148h3l41 148z" />
    <glyph glyph-name="wcircumflex" unicode="&#x175;" horiz-adv-x="753" 
d="M456 564l-42 49l-53 -49h-181l187 158h128l140 -158h-179zM110 0l-78 518h170l23 -225l2 -108h2l106 333h141l14 -333h3l31 108l85 225h171l-223 -518h-173l-17 127l-2 89h-3l-28 -89l-51 -127h-173z" />
    <glyph glyph-name="Ycircumflex" unicode="&#x176;" horiz-adv-x="653" 
d="M424 752l-42 49l-53 -49h-181l187 158h128l140 -158h-179zM194 0l39 279l-187 429h208l92 -249l164 249h210l-308 -429l-39 -279h-179z" />
    <glyph glyph-name="ycircumflex" unicode="&#x177;" horiz-adv-x="511" 
d="M337 562l-42 49l-53 -49h-181l187 158h128l140 -158h-179zM426 38q-9 -67 -31 -112.5t-52.5 -73.5t-68.5 -40t-80 -12q-49 0 -97 18.5t-90 55.5l83 95q22 -17 45.5 -24.5t46.5 -7.5q34 0 54.5 15.5t25.5 51.5q-20 -8 -39.5 -11t-39.5 -3q-36 0 -67.5 12t-54 36
t-32.5 59.5t-4 80.5l48 340h164l-49 -349q-2 -15 1 -24.5t10 -14.5t16.5 -6.5t19.5 -1.5q20 0 39 11l53 385h166z" />
    <glyph glyph-name="Ydieresis" unicode="&#x178;" horiz-adv-x="653" 
d="M182 836q5 37 33.5 62t64.5 25t57.5 -25t16.5 -62q-3 -18 -11.5 -33.5t-22 -27t-30 -18t-34.5 -6.5q-36 0 -57.5 25t-16.5 60zM423 836q5 37 32.5 62t65.5 25q37 0 58.5 -25t16.5 -62q-3 -18 -11.5 -33.5t-22 -27t-30.5 -18t-35 -6.5q-38 0 -58.5 25t-15.5 60zM194 0
l39 279l-187 429h208l92 -249l164 249h210l-308 -429l-39 -279h-179z" />
    <glyph glyph-name="Zacute" unicode="&#x179;" horiz-adv-x="603" 
d="M405 753h-157l109 159h188zM613 708l23 -60l-374 -485l289 2l-23 -165h-524l-24 66l372 476h-284l23 166h522z" />
    <glyph glyph-name="zacute" unicode="&#x17a;" horiz-adv-x="457" 
d="M307 561h-157l109 159h188zM431 518l25 -47l-228 -321h176l-21 -150h-371l-28 52l225 316h-165l21 150h366z" />
    <glyph glyph-name="Zdotaccent" unicode="&#x17b;" horiz-adv-x="603" 
d="M276 841q3 19 12.5 35.5t24 28.5t32.5 19t38 7q41 0 64 -25.5t18 -64.5q-6 -39 -36.5 -63.5t-70.5 -24.5q-41 0 -64 24.5t-18 63.5zM613 708l23 -60l-374 -485l289 2l-23 -165h-524l-24 66l372 476h-284l23 166h522z" />
    <glyph glyph-name="zdotaccent" unicode="&#x17c;" horiz-adv-x="457" 
d="M178 649q3 19 12.5 35.5t24 28.5t32.5 19t38 7q41 0 64 -25.5t18 -64.5q-6 -39 -36.5 -63.5t-70.5 -24.5q-41 0 -64 24.5t-18 63.5zM431 518l25 -47l-228 -321h176l-21 -150h-371l-28 52l225 316h-165l21 150h366z" />
    <glyph glyph-name="Zcaron" unicode="&#x17d;" horiz-adv-x="603" 
d="M333 911l42 -49l53 49h181l-187 -158h-128l-140 158h179zM613 708l23 -60l-374 -485l289 2l-23 -165h-524l-24 66l372 476h-284l23 166h522z" />
    <glyph glyph-name="zcaron" unicode="&#x17e;" horiz-adv-x="457" 
d="M235 719l42 -49l53 49h181l-187 -158h-128l-140 158h179zM431 518l25 -47l-228 -321h176l-21 -150h-371l-28 52l225 316h-165l21 150h366z" />
    <glyph glyph-name="florin" unicode="&#x192;" horiz-adv-x="425" 
d="M13 40q26 -13 43 -6.5t22 35.5l45 235h-71v146h98l21 96q9 52 37.5 92.5t69 60t89 14.5t95.5 -43l-56 -108q-26 11 -42 3.5t-22 -37.5l-18 -78h70v-146h-96l-49 -269q-10 -51 -37.5 -85t-65.5 -49.5t-83.5 -12t-90.5 28.5z" />
    <glyph glyph-name="Scommaaccent" unicode="&#x218;" horiz-adv-x="569" 
d="M118 224q23 -34 63 -51t80 -17q36 0 64 13t33 41q3 16 -6 28.5t-25 20.5t-37.5 13.5t-42.5 8.5q-42 7 -79.5 26.5t-64.5 50.5t-39 72.5t-3 91.5q10 54 37.5 91.5t66.5 61t85.5 33.5t95.5 10q32 0 63 -5t60 -18t55 -35t49 -55l-130 -90q-23 26 -55 38t-63 13
q-34 1 -59 -12t-28 -40q-4 -31 20 -46.5t65 -24.5q46 -9 89.5 -23.5t74 -42t44.5 -71t2 -109.5q-10 -52 -36.5 -90.5t-65.5 -64.5t-89.5 -39t-107.5 -13q-32 0 -66.5 8t-67 24t-61.5 40t-49 56zM253 -254h-157l77 191h181z" />
    <glyph glyph-name="scommaaccent" unicode="&#x219;" horiz-adv-x="425" 
d="M80 174q24 -20 53 -30t55 -8q13 1 19.5 8.5t6 16.5t-7.5 16t-21 8q-44 8 -73.5 26.5t-47 43.5t-23.5 54t-2 58q4 33 20 62.5t42 51t62 34.5t80 13q35 0 79.5 -13t87.5 -53l-91 -107q-44 23 -72.5 24.5t-35.5 -14.5q-4 -9 -1 -15.5t9.5 -11.5t15 -8.5t15.5 -4.5
q25 -5 50.5 -16t45.5 -30t30.5 -48t4.5 -69q-6 -44 -25.5 -76.5t-48 -53.5t-64 -31.5t-72.5 -10.5q-26 0 -50 3.5t-47 12.5t-44.5 24.5t-40.5 40.5zM173 -239h-151l74 183h174z" />
    <glyph glyph-name="uni021A" unicode="&#x21a;" horiz-adv-x="588" 
d="M417 545l-75 -545h-181l75 545h-191l24 164h563l-24 -164h-191zM249 -254h-157l77 191h181z" />
    <glyph glyph-name="uni021B" unicode="&#x21b;" horiz-adv-x="330" 
d="M155 -240h-151l74 183h174zM268 9q-50 -19 -99 -19q-36 0 -65.5 12t-49 36t-27.5 61t-1 87l64 454h159l-9 -122h85l-18 -126h-85l-28 -205q-5 -31 9.5 -41.5t36.5 -10.5q20 0 47 8z" />
    <glyph glyph-name="circumflex" unicode="&#x2c6;" horiz-adv-x="470" 
d="M317 752l-42 49l-53 -49h-181l187 158h128l140 -158h-179z" />
    <glyph glyph-name="caron" unicode="&#x2c7;" horiz-adv-x="467" 
d="M222 909l42 -49l53 49h181l-187 -158h-128l-140 158h179z" />
    <glyph glyph-name="uni02C9" unicode="&#x2c9;" horiz-adv-x="330" 
d="M77 896h320l-27 -140h-320z" />
    <glyph glyph-name="breve" unicode="&#x2d8;" horiz-adv-x="381" 
d="M408 914q-6 -57 -37.5 -95t-74 -56.5t-89.5 -18t-85.5 19.5t-61 56.5t-16.5 93.5h139q-3 -22 10 -32.5t29.5 -10.5t31.5 11t18 32h136z" />
    <glyph glyph-name="dotaccent" unicode="&#x2d9;" horiz-adv-x="221" 
d="M51 839q3 19 12.5 35.5t24 28.5t32.5 19t38 7q41 0 64 -25.5t18 -64.5q-6 -39 -36.5 -63.5t-70.5 -24.5q-41 0 -64 24.5t-18 63.5z" />
    <glyph glyph-name="ring" unicode="&#x2da;" horiz-adv-x="286" 
d="M193 932q42 0 67.5 -18t36.5 -45.5t7.5 -59t-20.5 -59t-47 -45.5t-71 -18q-44 0 -70.5 18t-37.5 45.5t-7.5 59t21.5 59t48.5 45.5t72.5 18zM216 808q3 17 -7.5 27.5t-25.5 10.5q-19 0 -30 -10.5t-14 -27.5q-1 -13 7.5 -25.5t27.5 -12.5q15 0 27.5 10.5t14.5 27.5z" />
    <glyph glyph-name="ogonek" unicode="&#x2db;" horiz-adv-x="298" 
d="M261 0q-28 -17 -41.5 -38.5t-12.5 -37.5t17 -21.5t47 10.5l27 -107q-31 -29 -68.5 -43t-72.5 -12.5t-62 17.5t-36 47q-12 40 10 92.5t73 100.5h106z" />
    <glyph glyph-name="tilde" unicode="&#x2dc;" horiz-adv-x="393" 
d="M39 794q13 72 49 104.5t77 33.5q24 1 47 -10.5t44 -20t40 -7t36 28.5l92 -53q-14 -58 -45.5 -88t-65.5 -32q-35 -1 -61.5 12t-48.5 22t-41 4.5t-40 -39.5z" />
    <glyph glyph-name="hungarumlaut" unicode="&#x2dd;" horiz-adv-x="523" 
d="M373 760h-146l76 151h179zM593 760h-145l74 151h187z" />
    <glyph glyph-name="uni0326" unicode="&#x326;" horiz-adv-x="0" 
d="M287 -254h-157l77 191h181z" />
    <glyph glyph-name="uni03A9" unicode="&#x3a9;" horiz-adv-x="777" 
d="M87 176q-49 80 -32 198q12 84 50 147t92 105t118 63t128 21q65 0 124.5 -21.5t102.5 -63.5t64 -104t10 -143q-8 -57 -31.5 -110t-60.5 -92h64l-24 -176h-323l19 141q47 14 79.5 36.5t53.5 51.5t32.5 62.5t16.5 70.5q5 34 -1.5 66t-24.5 56.5t-49 39t-76 14.5
q-42 0 -76 -15.5t-59 -41t-41 -58.5t-21 -69q-5 -34 -1.5 -67t17 -61.5t38.5 -50.5t63 -34l-19 -141h-322l24 176h65z" />
    <glyph glyph-name="uni03BC" unicode="&#x3bc;" horiz-adv-x="529" 
d="M293 37q-32 -40 -64.5 -38t-48.5 35l-29 -206h-170l96 688h171l-44 -310q-3 -25 9 -37.5t29 -13t33 12t19 37.5l44 311h172l-71 -518l-146 1v38z" />
    <glyph glyph-name="pi" unicode="&#x3c0;" horiz-adv-x="573" 
d="M487 -5q-64 -6 -103.5 6t-60 37t-25 59t0.5 72l28 199h-51l-51 -368h-168l49 353l-65 -14l-15 126l21 17q28 17 59.5 29.5t79.5 12.5h389l-38 -156h-40l-27 -196q-1 -4 -1 -11.5t3.5 -14t11 -11.5t21.5 -5z" />
    <glyph glyph-name="uni0401" unicode="&#x401;" horiz-adv-x="588" 
d="M176 836q5 37 33.5 62t64.5 25t57.5 -25t16.5 -62q-3 -18 -11.5 -33.5t-22 -27t-30 -18t-34.5 -6.5q-36 0 -57.5 25t-16.5 60zM417 836q5 37 32.5 62t65.5 25q37 0 58.5 -25t16.5 -62q-3 -18 -11.5 -33.5t-22 -27t-30.5 -18t-35 -6.5q-38 0 -58.5 25t-15.5 60zM254 434
h287l-22 -159h-287l-15 -106h312l-23 -169h-493l99 708h493l-24 -169h-312z" />
    <glyph glyph-name="uni0410" unicode="&#x410;" horiz-adv-x="646" 
d="M613 0h-192l-26 142h-189l-64 -142h-192l347 708h163zM375 301l-17 207h-13l-76 -207h106z" />
    <glyph glyph-name="uni0411" unicode="&#x411;" horiz-adv-x="616" 
d="M588 231q-8 -53 -31.5 -95.5t-60.5 -72.5t-86 -46.5t-108 -16.5h-289l100 708h484l-21 -150h-304l-16 -110h104q74 0 121.5 -14t74 -41.5t33 -68t-0.5 -93.5zM320 157q46 0 66.5 22.5t25.5 60.5t-12 58t-59 20h-103l-22 -161h104z" />
    <glyph glyph-name="uni0412" unicode="&#x412;" horiz-adv-x="623" 
d="M596 492q-2 -12 -8.5 -28t-18 -32t-27 -30.5t-36.5 -24.5q34 -18 52 -43t25 -52t4.5 -53t-8.5 -46q-26 -86 -92.5 -134.5t-184.5 -48.5h-289l99 708h284q51 0 91.5 -15t67.5 -42.5t38.5 -67.5t2.5 -91zM357 431q33 0 52.5 19.5t23 43.5t-10 43.5t-47.5 19.5h-104
l-18 -126h104zM319 157q40 0 63.5 22.5t27 50t-13.5 50t-57 22.5h-104l-20 -145h104z" />
    <glyph glyph-name="uni0413" unicode="&#x413;" 
d="M554 708l-24 -170h-261l-76 -538h-180l100 708h441z" />
    <glyph glyph-name="uni0414" unicode="&#x414;" horiz-adv-x="750" 
d="M-44 -142l41 303q52 0 83.5 26t50 69t30 99t24.5 116l51 237h461l-77 -547h93l-41 -303h-180l18 142h-356l-18 -142h-180zM493 538h-117l-45 -215q-9 -44 -22.5 -85.5t-40.5 -76.5h172z" />
    <glyph glyph-name="uni0415" unicode="&#x415;" horiz-adv-x="588" 
d="M254 434h287l-22 -159h-287l-15 -106h312l-23 -169h-493l99 708h493l-24 -169h-312z" />
    <glyph glyph-name="uni0416" unicode="&#x416;" horiz-adv-x="944" 
d="M375 260l-5 8l-201 -268h-223l303 360l-204 348h216l140 -265l37 265h180l-37 -265l214 265h216l-302 -348l201 -360h-223l-125 268l-7 -8l-37 -260h-180z" />
    <glyph glyph-name="uni0417" unicode="&#x417;" horiz-adv-x="571" 
d="M450 377q26 -14 43 -33t26.5 -41t12 -45.5t-0.5 -45.5q-17 -113 -98.5 -167.5t-214.5 -54.5q-86 0 -149 36t-95 103l125 87q27 -35 56 -51t70 -16q107 0 125 74q3 14 1.5 27.5t-10.5 24.5t-27 17.5t-46 6.5h-105l19 133h101q49 0 70 20.5t26 53.5q4 26 -16.5 43.5
t-65.5 17.5q-39 0 -69.5 -16.5t-55.5 -37.5l-99 89q51 59 110.5 87.5t137.5 28.5q67 0 113 -16.5t72.5 -44.5t35.5 -65.5t2 -78.5q-3 -17 -10.5 -37t-19 -38.5t-27.5 -34.5t-37 -26z" />
    <glyph glyph-name="uni0418" unicode="&#x418;" horiz-adv-x="686" 
d="M446 283q2 10 6 21q3 9 6 20.5t7 24.5q8 29 18 67l-5 1l-86 -138l-210 -279h-169l100 708h180l-45 -321q-1 0 -5.5 -16.5t-9.5 -36.5q-6 -24 -15 -53l4 -1l77 127l223 301h164l-100 -708h-180z" />
    <glyph glyph-name="uni0419" unicode="&#x419;" horiz-adv-x="686" 
d="M406 749q-35 0 -66 11t-53 33t-32.5 54.5t-4.5 75.5h139q-3 -19 7.5 -30t28.5 -11t31.5 11t16.5 30h139q-6 -43 -26 -75.5t-48.5 -54.5t-62.5 -33t-69 -11zM406 0h180l100 708h-164l-223 -301l-77 -127l-4 1q9 29 15 53q5 20 9.5 36.5t5.5 16.5l45 321h-180l-100 -708
h169l210 279l86 138l5 -1q-10 -38 -18 -67q-4 -13 -7 -24.5t-6 -20.5q-4 -11 -6 -21z" />
    <glyph glyph-name="uni041A" unicode="&#x41a;" horiz-adv-x="640" 
d="M485 708h223l-329 -348l228 -360h-225l-147 253l-7 -8l-35 -245h-180l100 708h180l-37 -262z" />
    <glyph glyph-name="uni041B" unicode="&#x41b;" horiz-adv-x="692" 
d="M318 323q-13 -62 -31.5 -123.5t-55 -109t-97 -74t-157.5 -16.5l24 167q45 -5 73 19.5t46 68t30 100.5t24 116l50 237h469l-100 -708h-180l76 538h-126z" />
    <glyph glyph-name="uni041C" unicode="&#x41c;" horiz-adv-x="769" 
d="M112 708h179l100 -346l199 346h179l-99 -708h-180l29 204l30 143l-5 1l-127 -243h-123l-61 243l-4 -1l-9 -143l-28 -204h-179z" />
    <glyph glyph-name="uni041D" unicode="&#x41d;" horiz-adv-x="676" 
d="M193 0h-180l99 708h180l-38 -268h204l38 268h180l-99 -708h-180l37 267h-204z" />
    <glyph glyph-name="uni041E" unicode="&#x41e;" horiz-adv-x="664" 
d="M63 475q9 61 40.5 106.5t77 76t100 45.5t109.5 15t106 -15t88 -45.5t56 -76t10 -106.5l-35 -242q-9 -61 -39.5 -106.5t-75.5 -76t-100 -45.5t-113 -15q-55 0 -105.5 15t-87.5 45.5t-56 76t-10 106.5zM207 233q-3 -19 5 -33.5t22 -24t33.5 -14.5t39.5 -5q22 0 43.5 5
t39.5 15t30.5 25.5t15.5 36.5l35 237q3 20 -4 35t-21 25t-33.5 15t-41.5 5t-43.5 -5t-39.5 -15t-30.5 -25t-15.5 -35z" />
    <glyph glyph-name="uni041F" unicode="&#x41f;" horiz-adv-x="672" 
d="M193 0h-180l100 708h559l-100 -708h-180l76 538h-199z" />
    <glyph glyph-name="uni0420" unicode="&#x420;" horiz-adv-x="619" 
d="M112 708h283q65 0 110 -22t72 -57.5t37 -81.5t5 -94q-6 -50 -27 -95t-57 -78.5t-86.5 -53t-114.5 -19.5h-113l-29 -207h-179zM347 366q21 0 37.5 7.5t28.5 20t19 29.5t9 35q5 35 -12.5 59t-56.5 24h-104l-25 -175h104z" />
    <glyph glyph-name="uni0421" unicode="&#x421;" horiz-adv-x="581" 
d="M551 149q-33 -47 -68 -77.5t-70.5 -48.5t-71 -25.5t-68.5 -7.5q-52 0 -100 15t-83 45.5t-52.5 76t-9.5 105.5l34 244q8 60 38.5 105.5t74.5 75.5t97 45.5t106 15.5q33 0 66.5 -8t64.5 -26.5t55.5 -50t39.5 -78.5l-154 -59q-12 30 -40 43.5t-60 13.5q-19 0 -37.5 -5.5
t-33.5 -15.5t-25 -24t-13 -32l-34 -244q-5 -35 22 -55t65 -20q31 0 62 15t49 49z" />
    <glyph glyph-name="uni0422" unicode="&#x422;" horiz-adv-x="588" 
d="M417 545l-75 -545h-181l75 545h-191l24 164h563l-24 -164h-191z" />
    <glyph glyph-name="uni0423" unicode="&#x423;" horiz-adv-x="598" 
d="M307 426h5l73 138l84 144h199l-420 -708h-193l137 229l-166 479h203l48 -154z" />
    <glyph glyph-name="uni0424" unicode="&#x424;" horiz-adv-x="804" 
d="M282 58q-55 0 -105.5 13t-87.5 41t-55.5 73t-9.5 108l17 122q9 63 40 108t76 73t99 41t109 13l8 58h170l-8 -58q55 0 105.5 -13t87.5 -41t55.5 -73t9.5 -108l-17 -122q-9 -63 -40 -108t-76 -73t-99 -41t-109 -13l-9 -58h-170zM204 292q-3 -23 4 -37t21 -21.5t33.5 -10.5
t41.5 -3l38 268q-22 0 -42.5 -3t-37 -10.5t-27.5 -22t-14 -36.5zM613 416q3 22 -4.5 36.5t-21.5 22t-33.5 10.5t-41.5 3l-38 -268q22 0 42.5 3t37 10.5t28 21.5t14.5 37z" />
    <glyph glyph-name="uni0425" unicode="&#x425;" horiz-adv-x="656" 
d="M507 708h208l-248 -355l149 -353h-208l-91 241l-154 -241h-209l248 353l-149 355h209l87 -242z" />
    <glyph glyph-name="uni0426" unicode="&#x426;" horiz-adv-x="717" 
d="M112 708h180l-76 -538h193l76 538h180l-76 -538h86l-43 -312h-181l20 142h-459z" />
    <glyph glyph-name="uni0427" unicode="&#x427;" horiz-adv-x="638" 
d="M392 237q-20 -15 -56.5 -27.5t-78.5 -12.5q-47 0 -88.5 15.5t-70.5 46t-43 76t-6 105.5l38 268h180l-38 -268q-9 -71 67 -73q32 0 64.5 8.5t53.5 25.5l44 307h180l-100 -708h-180z" />
    <glyph glyph-name="uni0428" unicode="&#x428;" horiz-adv-x="989" 
d="M293 708l-76 -538h168l76 538h180l-76 -538h168l76 538h180l-100 -708h-876l100 708h180z" />
    <glyph glyph-name="uni0429" unicode="&#x429;" horiz-adv-x="1040" 
d="M998 170l-44 -312h-180l20 142h-782l100 708h180l-76 -538h168l76 538h180l-76 -538h168l76 538h180l-76 -538h86z" />
    <glyph glyph-name="uni042A" unicode="&#x42a;" horiz-adv-x="711" 
d="M47 538l24 170h315l-34 -241h106q72 0 118.5 -16t72.5 -45.5t33 -70.5t0 -92q-8 -52 -31 -96.5t-60 -77t-86 -51t-108 -18.5h-291l76 538h-135zM415 157q23 0 39 7.5t27 19.5t17 28t8 33q5 39 -13 59.5t-55 20.5h-106l-23 -168h106z" />
    <glyph glyph-name="uni042B" unicode="&#x42b;" horiz-adv-x="932" 
d="M589 243q-8 -52 -31 -96.5t-60 -77t-86 -51t-108 -18.5h-291l100 708h180l-34 -241h106q72 0 118.5 -16t72.5 -45.5t33 -70.5t0 -92zM832 0h-179l100 708h179zM322 157q23 0 39 7.5t27 19.5t17 28t8 33q5 39 -13 59.5t-55 20.5h-106l-23 -168h106z" />
    <glyph glyph-name="uni042C" unicode="&#x42c;" horiz-adv-x="618" 
d="M589 243q-8 -52 -31 -96.5t-60 -77t-86 -51t-108 -18.5h-291l100 708h180l-34 -241h106q72 0 118.5 -16t72.5 -45.5t33 -70.5t0 -92zM322 157q23 0 39 7.5t27 19.5t17 28t8 33q5 39 -13 59.5t-55 20.5h-106l-23 -168h106z" />
    <glyph glyph-name="uni042D" unicode="&#x42d;" horiz-adv-x="585" 
d="M363 283h-157l21 149h157l6 42q3 18 -3.5 32.5t-19 24.5t-30 15t-36.5 5q-32 0 -63 -14t-51 -43l-138 59q28 47 62 79t69.5 51t71.5 27t69 8q53 0 102 -15.5t84.5 -46.5t53.5 -76.5t9 -105.5l-34 -241q-8 -60 -38.5 -105.5t-74.5 -76t-96.5 -46t-104.5 -15.5
q-33 0 -67.5 9t-66 28t-57 49.5t-41.5 73.5l166 72q8 -34 35.5 -48t59.5 -14q37 1 68.5 19.5t36.5 53.5z" />
    <glyph glyph-name="uni042E" unicode="&#x42e;" horiz-adv-x="974" 
d="M370 475q9 61 40.5 106.5t77 76t100.5 45.5t110 15t106 -15t88.5 -45.5t56.5 -76t10 -106.5l-34 -242q-9 -61 -40.5 -106.5t-77 -76t-100.5 -45.5t-110 -15t-106 15t-88.5 45.5t-56.5 76t-10 106.5l6 42h-112l-39 -275h-180l100 708h180l-38 -269h112zM517 237
q-3 -19 5 -33.5t22.5 -24t34.5 -14.5t41 -5t42.5 4.5t39 14.5t29.5 24t15 34l32 231q3 20 -4.5 35t-22.5 25t-35 15t-41 5q-22 0 -43 -5.5t-38.5 -15.5t-29.5 -25t-15 -34z" />
    <glyph glyph-name="uni042F" unicode="&#x42f;" horiz-adv-x="647" 
d="M367 0l34 238h-29l-224 -238h-223l252 256q-29 10 -52.5 26.5t-39.5 42.5t-22 62.5t1 87.5q19 112 98 172.5t203 60.5h282l-100 -708h-180zM338 538q-41 0 -66 -20t-30 -57q-5 -35 12.5 -58.5t61.5 -23.5h105l22 159h-105z" />
    <glyph glyph-name="uni0430" unicode="&#x430;" horiz-adv-x="506" 
d="M276 38q-27 -23 -58.5 -35.5t-58.5 -12.5q-36 0 -64.5 14t-47 38.5t-26.5 58t-3 73.5l22 161q7 54 31 91t58.5 59.5t76 32.5t84.5 10q49 0 99.5 -14t94.5 -40l-65 -474h-124zM307 382q-15 7 -33 7q-25 0 -44.5 -14.5t-23.5 -38.5l-21 -149q-2 -15 1.5 -25.5t10 -16.5
t16 -9t19.5 -3q24 0 42 9z" />
    <glyph glyph-name="uni0431" unicode="&#x431;" horiz-adv-x="510" 
d="M323 485q39 0 69.5 -12.5t51 -36t29 -57.5t2.5 -77l-18 -129q-6 -46 -30 -80t-57.5 -57t-74 -34.5t-80.5 -11.5t-77 11.5t-64.5 34.5t-41 57t-7.5 80l50 358q7 52 30.5 84t54 50.5t63.5 26t61 11.5q50 7 97.5 17t84.5 31l34 -125q-33 -22 -74.5 -33.5t-77.5 -16.5
q-16 -2 -33 -3.5t-32 -7.5t-26.5 -18.5t-14.5 -36.5l-7 -48q12 8 35 15.5t53 7.5zM305 305q3 18 -10 28t-30 10q-14 0 -26.5 -3.5t-21.5 -11.5l-21 -149q-3 -18 9.5 -28.5t30.5 -10.5t33.5 10.5t18.5 28.5z" />
    <glyph glyph-name="uni0432" unicode="&#x432;" horiz-adv-x="515" 
d="M73 492q52 18 114 27t114 9q54 0 90 -10.5t57.5 -29.5t28.5 -45.5t2 -57.5q-6 -41 -27.5 -68t-51.5 -41q24 -12 38.5 -27.5t21 -33.5t7 -37t-2.5 -38q-11 -69 -72 -109.5t-165 -40.5q-26 0 -55 2t-58 6.5t-56.5 11.5t-51.5 16zM281 413q-19 0 -30.5 -2t-21.5 -5l-14 -95
h51q25 0 39.5 16t17.5 38q4 24 -8 36t-34 12zM187 112q10 -3 21.5 -5t30.5 -2q30 0 45.5 16.5t19.5 39.5q4 20 -9.5 35.5t-42.5 15.5h-51z" />
    <glyph glyph-name="uni0433" unicode="&#x433;" horiz-adv-x="431" 
d="M381 73q-48 -48 -101.5 -65t-111.5 -17q-37 0 -70 10.5t-56 31.5t-34.5 52t-5.5 72t22 69t38 46t48.5 29t53.5 18q21 5 43.5 13t25.5 25q2 14 -8 19.5t-28 5.5q-16 0 -30 -4t-32 -13l-78 90q44 42 95 57.5t99 15.5q44 0 75.5 -13t50.5 -34.5t26 -50t3 -59.5
q-10 -70 -54.5 -111.5t-120.5 -58.5q-31 -7 -48.5 -14t-20.5 -26q-2 -15 10.5 -22t33.5 -7q20 0 46 9.5t56 30.5z" />
    <glyph glyph-name="uni0434" unicode="&#x434;" horiz-adv-x="497" 
d="M436 177q-6 -46 -28.5 -81t-55 -58.5t-72 -35.5t-79.5 -12t-76.5 11.5t-62.5 34.5t-39 57.5t-7 80.5l18 126q6 47 26.5 80t50 53.5t64 29.5t68.5 9q21 0 40.5 -3t34.5 -9l7 50q5 34 -9 54t-50 20q-21 0 -47 -8.5t-47 -20.5l-65 96q42 32 90 49.5t107 17.5q40 0 76 -14.5
t60.5 -43.5t36 -74t2.5 -106zM180 174q-2 -18 10.5 -28.5t30.5 -10.5t34 10.5t18 28.5l23 162q-16 11 -39 11q-20 0 -38 -11t-21 -36z" />
    <glyph glyph-name="uni0435" unicode="&#x435;" horiz-adv-x="478" 
d="M179 182q-2 -15 3 -26.5t14 -19t20.5 -11.5t23.5 -4q22 0 44 5.5t38 18.5l78 -78q-50 -47 -98.5 -62t-100.5 -15q-39 0 -75 12t-62.5 36t-40 59.5t-6.5 82.5l21 154q7 49 30.5 85.5t56.5 60.5t73 36t80 12t76.5 -10.5t63 -32.5t39.5 -57t6 -83t-36 -79t-69.5 -47t-87 -18
t-87.5 8zM195 298q15 -5 33 -6t35 3.5t29 15t15 28.5q4 24 -9 36.5t-40 12.5q-20 0 -37 -13t-19 -30z" />
    <glyph glyph-name="uni0436" unicode="&#x436;" horiz-adv-x="745" 
d="M271 167l-124 -167h-188l222 267l-150 251h190l74 -173l25 173h165l-25 -173l124 173h190l-220 -251l146 -267h-188l-76 167l-24 -167h-165z" />
    <glyph glyph-name="uni0437" unicode="&#x437;" horiz-adv-x="443" 
d="M86 162q14 -18 35.5 -30.5t44.5 -12.5q25 0 44.5 11t24.5 34q4 23 -8 36t-41 13h-65l15 102h61q49 0 55 47q3 20 -10 29t-37 9t-43 -8t-38 -23l-77 76q38 41 92.5 62t108.5 21q36 0 67.5 -8.5t54 -25t33.5 -42.5t7 -60q-6 -44 -28 -73t-52 -43q83 -44 60 -143
q-9 -39 -30 -66t-50.5 -44.5t-65.5 -25t-75 -7.5q-62 0 -107 20t-82 76z" />
    <glyph glyph-name="uni0438" unicode="&#x438;" 
d="M427 32q-44 -20 -92 -31t-105 -11q-45 0 -85 10.5t-68.5 33.5t-42.5 60.5t-7 90.5l45 333h168l-45 -332q-4 -26 11 -37t35 -11q18 0 33 6l51 374h169z" />
    <glyph glyph-name="uni0439" unicode="&#x439;" horiz-adv-x="515" 
d="M482 756q-8 -59 -39.5 -98t-73 -58t-87 -18t-81.5 20.5t-56.5 58t-12.5 95.5h139q-3 -18 7.5 -27.5t24.5 -9.5t26.5 9t15.5 28h137zM430 32q-45 -20 -96.5 -31t-102.5 -11q-45 0 -85.5 10.5t-69.5 33.5t-43 60.5t-7 90.5l47 333h170l-46 -330q-4 -24 9.5 -36.5
t31.5 -12.5q20 0 38 7l52 372h170z" />
    <glyph glyph-name="uni043A" unicode="&#x43a;" horiz-adv-x="522" 
d="M359 518h193l-223 -251l149 -267h-191l-88 166l-24 -166h-170l73 518h170l-22 -161z" />
    <glyph glyph-name="uni043B" unicode="&#x43b;" horiz-adv-x="553" 
d="M292 0l52 368h-57l-36 -180q-11 -56 -32 -94.5t-54.5 -61.5t-80 -30.5t-109.5 -1.5l22 150q28 -3 46 3t29 23t19 45.5t17 69.5l50 227h377l-71 -518h-172z" />
    <glyph glyph-name="uni043C" unicode="&#x43c;" horiz-adv-x="656" 
d="M203 261h-5l-2 -112l-21 -149h-170l73 518h181l63 -261l135 261h181l-73 -518h-170l21 149l30 112h-5l-93 -185h-103z" />
    <glyph glyph-name="uni043D" unicode="&#x43d;" horiz-adv-x="525" 
d="M264 0l28 195h-89l-28 -195h-170l73 518h170l-24 -173h89l24 173h170l-73 -518h-170z" />
    <glyph glyph-name="uni043E" unicode="&#x43e;" horiz-adv-x="493" 
d="M39 337q7 48 30 83.5t56.5 59.5t73 36t79.5 12q39 0 75.5 -12t62.5 -36t39.5 -59.5t6.5 -83.5l-23 -164q-6 -46 -29.5 -80t-56.5 -57t-72.5 -34.5t-79.5 -11.5q-39 0 -75.5 11.5t-63 34.5t-39.5 57.5t-7 79.5zM255 378q-15 0 -31.5 -10t-18.5 -28l-23 -169
q-2 -18 10 -28.5t29 -10.5t32.5 9t18.5 30l23 169q2 18 -11.5 28t-28.5 10z" />
    <glyph glyph-name="uni043F" unicode="&#x43f;" 
d="M72 486q44 20 94.5 31t101.5 11q47 0 87.5 -10.5t69 -33.5t41.5 -60t6 -91l-47 -333h-168l47 332q4 28 -10 38t-34 10t-35 -6l-53 -374h-169z" />
    <glyph glyph-name="uni0440" unicode="&#x440;" horiz-adv-x="506" 
d="M71 484q50 18 108 31t114 13q42 0 77.5 -8.5t60.5 -29.5t37.5 -55t8.5 -85l-24 -173q-6 -47 -26.5 -81.5t-49 -57.5t-63.5 -34t-70 -11q-18 0 -35.5 2.5t-34.5 7.5l-27 -189h-169zM193 139q16 -8 40 -8q19 0 34 10t19 38l25 176q3 22 -11.5 32t-36.5 10q-9 0 -18 -1
t-17 -4z" />
    <glyph glyph-name="uni0441" unicode="&#x441;" horiz-adv-x="462" 
d="M426 142q-20 -44 -47.5 -73t-57.5 -46.5t-61 -25t-57 -7.5q-39 0 -75.5 12t-63.5 35.5t-40.5 59t-6.5 82.5l24 169q7 48 30 82t56 55.5t73 32t79 10.5q26 0 54 -6.5t52.5 -23t42 -43.5t23.5 -69l-148 -44q-2 23 -15 33.5t-29 10.5q-18 0 -34 -11t-19 -33l-24 -166
q-3 -21 10 -32.5t30 -11.5t34.5 10t28.5 33z" />
    <glyph glyph-name="uni0442" unicode="&#x442;" horiz-adv-x="736" 
d="M71 476q33 23 82 37.5t100 14.5q45 0 79 -13t64 -42q32 29 64.5 42t67.5 13q37 0 70 -12.5t57 -36t36 -57.5t6 -77l-48 -345h-168l48 347q2 16 -6 24t-25 8q-14 0 -27 -7.5t-15 -23.5l-48 -348h-163l48 340q2 14 -8 24.5t-28 10.5q-10 0 -19.5 -2.5t-16.5 -8.5l-51 -364
h-166z" />
    <glyph glyph-name="uni0443" unicode="&#x443;" horiz-adv-x="511" 
d="M426 38q-9 -67 -31 -112.5t-52.5 -73.5t-68.5 -40t-80 -12q-49 0 -97 18.5t-90 55.5l83 95q22 -17 45.5 -24.5t46.5 -7.5q34 0 54.5 15.5t25.5 51.5q-20 -8 -39.5 -11t-39.5 -3q-36 0 -67.5 12t-54 36t-32.5 59.5t-4 80.5l48 340h164l-49 -349q-2 -15 1 -24.5t10 -14.5
t16.5 -6.5t19.5 -1.5q20 0 39 11l53 385h166z" />
    <glyph glyph-name="uni0444" unicode="&#x444;" horiz-adv-x="727" 
d="M239 2q-11 -5 -27.5 -8.5t-36.5 -3.5q-95 0 -130.5 47.5t-24.5 125.5l27 192q11 78 60 125.5t144 47.5q20 0 35 -3.5t24 -8.5l27 192h165l-27 -192q11 5 27.5 8.5t36.5 3.5q48 0 80 -12.5t50.5 -35t24 -54.5t-0.5 -71l-27 -192q-5 -39 -19.5 -71t-39.5 -54.5t-60.5 -35
t-83.5 -12.5q-20 0 -35.5 3.5t-24.5 8.5l-27 -188h-165zM192 172q-4 -24 6 -34t30 -10q9 0 15.5 2t14.5 7l34 244q-6 5 -12 7t-15 2q-20 0 -32.5 -10t-16.5 -34zM522 346q4 24 -6.5 34t-30.5 10q-9 0 -15 -2t-14 -7l-34 -244q6 -5 11.5 -7t14.5 -2q20 0 33 10t17 34z" />
    <glyph glyph-name="uni0445" unicode="&#x445;" horiz-adv-x="525" 
d="M142 0h-180l194 259l-123 259h183l41 -91l13 -59h2l26 61q0 -1 6 9q5 8 18.5 26.5t39.5 53.5h188l-198 -257l130 -261h-192l-45 95l-10 54h-2l-23 -55z" />
    <glyph glyph-name="uni0446" unicode="&#x446;" horiz-adv-x="555" 
d="M340 13q-25 -11 -56.5 -17t-57.5 -6q-45 0 -84.5 10.5t-67.5 33.5t-41.5 60.5t-6.5 90.5l47 333h170l-46 -330q-4 -24 7 -36.5t29 -12.5q20 0 38 7l52 372h170l-50 -359h73l-25 -165l-35 -132h-140z" />
    <glyph glyph-name="uni0447" unicode="&#x447;" horiz-adv-x="500" 
d="M239 0l23 163q-15 -10 -39 -16t-50 -6q-25 0 -53.5 7.5t-51.5 26.5t-35.5 52t-5.5 83l29 208h170l-25 -180q-3 -24 5 -35.5t31 -11.5q14 0 25 3.5t20 8.5l30 215h170l-73 -518h-170z" />
    <glyph glyph-name="uni0448" unicode="&#x448;" horiz-adv-x="776" 
d="M692 42q-32 -23 -84 -37.5t-106 -14.5q-42 0 -84.5 12t-66.5 41q-14 -13 -32.5 -23t-38.5 -16.5t-40 -10t-38 -3.5q-39 0 -74 12.5t-59.5 36t-37 57.5t-6.5 78l48 344h170l-49 -348q-2 -17 9.5 -24t29.5 -7q14 0 30.5 8t18.5 22l49 349h170l-49 -350q-2 -14 12 -21.5
t30 -7.5q30 0 44 11l51 368h170z" />
    <glyph glyph-name="uni0449" unicode="&#x449;" horiz-adv-x="821" 
d="M719 -138h-137l23 147q-24 -9 -50.5 -14t-52.5 -5q-42 0 -84.5 12t-66.5 41q-14 -13 -32.5 -23t-38.5 -16.5t-40 -10t-38 -3.5q-39 0 -74 12.5t-59.5 36t-37 57.5t-6.5 78l48 344h170l-49 -348q-2 -17 9.5 -24t29.5 -7q14 0 30.5 8t18.5 22l49 349h170l-49 -350
q-2 -14 12 -21.5t30 -7.5q30 0 44 11l51 368h170l-50 -359h75l-27 -162z" />
    <glyph glyph-name="uni044A" unicode="&#x44a;" horiz-adv-x="561" 
d="M39 518h267l-23 -169q22 7 44 11.5t43 4.5q92 0 132 -46.5t27 -136.5q-6 -43 -26 -78.5t-52 -60.5t-75 -39t-95 -14q-44 0 -82 11.5t-65 34.5t-39.5 57t-6.5 80l31 223h-97zM303 127q29 0 46 19t22 47q9 59 -51 59q-13 0 -26 -4t-27 -9l-10 -73q-3 -18 12.5 -28.5
t33.5 -10.5z" />
    <glyph glyph-name="uni044B" unicode="&#x44b;" horiz-adv-x="754" 
d="M219 -10q-44 0 -82 11.5t-65 34.5t-39.5 57t-6.5 80l48 345h170l-23 -169q22 7 44 11.5t43 4.5q92 0 132 -46.5t27 -136.5q-6 -43 -26 -78.5t-52 -60.5t-75 -39t-95 -14zM569 518h169l-73 -518h-169zM241 127q29 0 46 19t22 47q9 59 -51 59q-13 0 -26 -4t-27 -9l-10 -73
q-3 -18 12.5 -28.5t33.5 -10.5z" />
    <glyph glyph-name="uni044C" unicode="&#x44c;" horiz-adv-x="498" 
d="M219 -10q-44 0 -82 11.5t-65 34.5t-39.5 57t-6.5 80l48 345h170l-23 -169q22 7 44 11.5t43 4.5q92 0 132 -46.5t27 -136.5q-6 -43 -26 -78.5t-52 -60.5t-75 -39t-95 -14zM241 127q29 0 46 19t22 47q9 59 -51 59q-13 0 -26 -4t-27 -9l-10 -73q-3 -18 12.5 -28.5
t33.5 -10.5z" />
    <glyph glyph-name="uni044D" unicode="&#x44d;" horiz-adv-x="468" 
d="M248 528q39 0 76.5 -12t65 -35.5t41.5 -59t7 -83.5l-22 -159q-7 -48 -31 -83.5t-58.5 -59t-75 -35t-79.5 -11.5q-26 0 -54.5 7t-54 23.5t-45 45t-27.5 72.5l146 33q5 -22 16 -38.5t36 -16.5q19 0 35 11t19 33l5 38h-90l14 101h90l6 36q4 21 -9 32.5t-30 11.5
q-17 1 -33.5 -10t-24.5 -34l-135 51q17 42 42.5 69t54.5 43.5t59 23t56 6.5z" />
    <glyph glyph-name="uni044E" unicode="&#x44e;" horiz-adv-x="742" 
d="M220 336h60l2 17q6 45 30 78t57.5 54.5t73.5 32t79 10.5t76.5 -11.5t65 -35.5t41.5 -60t7 -84l-23 -164q-6 -46 -30 -80t-57.5 -57t-74 -34.5t-80.5 -11.5t-77 11.5t-64.5 34.5t-41 57t-7.5 80l4 27h-60l-29 -200h-169l73 518h169zM468 140q18 0 33 10.5t19 28.5l22 161
q3 18 -10 28t-30 10t-33 -10t-19 -28l-22 -161q-2 -18 10 -28.5t30 -10.5z" />
    <glyph glyph-name="uni044F" unicode="&#x44f;" horiz-adv-x="522" 
d="M261 0l27 181h-4l-138 -181h-190l175 201q-45 17 -70.5 52t-16.5 98q6 46 26.5 77.5t52 51.5t74 29t93.5 9h214l-73 -518h-170zM272 402q-29 0 -47.5 -14.5t-22.5 -41.5q-4 -26 9 -43t45 -17h46l16 116h-46z" />
    <glyph glyph-name="uni0451" unicode="&#x451;" horiz-adv-x="478" 
d="M103 642q5 36 33 60.5t63 24.5t56 -24.5t16 -60.5q-2 -17 -11 -32.5t-22 -26.5t-29 -17.5t-34 -6.5q-35 0 -56 24t-16 59zM320 642q5 36 32 60.5t64 24.5q36 0 57 -24.5t16 -60.5q-5 -35 -33 -59t-64 -24q-37 0 -57 24t-15 59zM179 182q-2 -15 3 -26.5t14 -19t20.5 -11.5
t23.5 -4q22 0 44 5.5t38 18.5l78 -78q-50 -47 -98.5 -62t-100.5 -15q-39 0 -75 12t-62.5 36t-40 59.5t-6.5 82.5l21 154q7 49 30.5 85.5t56.5 60.5t73 36t80 12t76.5 -10.5t63 -32.5t39.5 -57t6 -83t-36 -79t-69.5 -47t-87 -18t-87.5 8zM195 298q15 -5 33 -6t35 3.5t29 15
t15 28.5q4 24 -9 36.5t-40 12.5q-20 0 -37 -13t-19 -30z" />
    <glyph glyph-name="Wgrave" unicode="&#x1e80;" horiz-adv-x="913" 
d="M460 754l-130 159h188l99 -159h-157zM785 708h185l-303 -708h-166l-36 196l-2 162h-3l-50 -161l-83 -197h-166l-106 708h186l36 -339l-2 -150h4l38 149l114 248h136l38 -249l2 -148h3l41 148z" />
    <glyph glyph-name="wgrave" unicode="&#x1e81;" horiz-adv-x="753" 
d="M354 566l-130 159h188l99 -159h-157zM110 0l-78 518h170l23 -225l2 -108h2l106 333h141l14 -333h3l31 108l85 225h171l-223 -518h-173l-17 127l-2 89h-3l-28 -89l-51 -127h-173z" />
    <glyph glyph-name="Wacute" unicode="&#x1e82;" horiz-adv-x="913" 
d="M560 751h-157l109 159h188zM785 708h185l-303 -708h-166l-36 196l-2 162h-3l-50 -161l-83 -197h-166l-106 708h186l36 -339l-2 -150h4l38 149l114 248h136l38 -249l2 -148h3l41 148z" />
    <glyph glyph-name="wacute" unicode="&#x1e83;" horiz-adv-x="753" 
d="M454 563h-157l109 159h188zM110 0l-78 518h170l23 -225l2 -108h2l106 333h141l14 -333h3l31 108l85 225h171l-223 -518h-173l-17 127l-2 89h-3l-28 -89l-51 -127h-173z" />
    <glyph glyph-name="Wdieresis" unicode="&#x1e84;" horiz-adv-x="913" 
d="M320 836q5 37 33.5 62t64.5 25t57.5 -25t16.5 -62q-3 -18 -11.5 -33.5t-22 -27t-30 -18t-34.5 -6.5q-36 0 -57.5 25t-16.5 60zM561 836q5 37 32.5 62t65.5 25q37 0 58.5 -25t16.5 -62q-3 -18 -11.5 -33.5t-22 -27t-30.5 -18t-35 -6.5q-38 0 -58.5 25t-15.5 60zM785 708
h185l-303 -708h-166l-36 196l-2 162h-3l-50 -161l-83 -197h-166l-106 708h186l36 -339l-2 -150h4l38 149l114 248h136l38 -249l2 -148h3l41 148z" />
    <glyph glyph-name="wdieresis" unicode="&#x1e85;" horiz-adv-x="753" 
d="M214 648q5 37 33.5 62t64.5 25t57.5 -25t16.5 -62q-3 -18 -11.5 -33.5t-22 -27t-30 -18t-34.5 -6.5q-36 0 -57.5 25t-16.5 60zM455 648q5 37 32.5 62t65.5 25q37 0 58.5 -25t16.5 -62q-3 -18 -11.5 -33.5t-22 -27t-30.5 -18t-35 -6.5q-38 0 -58.5 25t-15.5 60zM110 0
l-78 518h170l23 -225l2 -108h2l106 333h141l14 -333h3l31 108l85 225h171l-223 -518h-173l-17 127l-2 89h-3l-28 -89l-51 -127h-173z" />
    <glyph glyph-name="Ygrave" unicode="&#x1ef2;" horiz-adv-x="653" 
d="M322 754l-130 159h188l99 -159h-157zM194 0l39 279l-187 429h208l92 -249l164 249h210l-308 -429l-39 -279h-179z" />
    <glyph glyph-name="ygrave" unicode="&#x1ef3;" horiz-adv-x="511" 
d="M235 564l-130 159h188l99 -159h-157zM426 38q-9 -67 -31 -112.5t-52.5 -73.5t-68.5 -40t-80 -12q-49 0 -97 18.5t-90 55.5l83 95q22 -17 45.5 -24.5t46.5 -7.5q34 0 54.5 15.5t25.5 51.5q-20 -8 -39.5 -11t-39.5 -3q-36 0 -67.5 12t-54 36t-32.5 59.5t-4 80.5l48 340h164
l-49 -349q-2 -15 1 -24.5t10 -14.5t16.5 -6.5t19.5 -1.5q20 0 39 11l53 385h166z" />
    <glyph glyph-name="endash" unicode="&#x2013;" horiz-adv-x="571" 
d="M511 205h-479l24 169h479z" />
    <glyph glyph-name="emdash" unicode="&#x2014;" horiz-adv-x="868" 
d="M808 205h-776l24 169h776z" />
    <glyph glyph-name="quoteleft" unicode="&#x2018;" horiz-adv-x="312" 
d="M193 709h157l-98 -217h-202z" />
    <glyph glyph-name="quoteright" unicode="&#x2019;" horiz-adv-x="300" 
d="M213 500h-157l87 206h202z" />
    <glyph glyph-name="quotesinglbase" unicode="&#x201a;" horiz-adv-x="296" 
d="M87 -104h-151l104 219h195z" />
    <glyph glyph-name="quotedblleft" unicode="&#x201c;" horiz-adv-x="546" 
d="M193 709h157l-98 -217h-202zM427 709h157l-98 -217h-202z" />
    <glyph glyph-name="quotedblright" unicode="&#x201d;" horiz-adv-x="531" 
d="M213 500h-157l87 206h202zM444 500h-157l87 206h202z" />
    <glyph glyph-name="quotedblbase" unicode="&#x201e;" horiz-adv-x="518" 
d="M86 -104h-151l102 208h195zM310 -104h-152l102 208h196z" />
    <glyph glyph-name="dagger" unicode="&#x2020;" 
d="M55 518h145l27 190h171l-27 -190h145l-24 -170h-145l-62 -444h-171l62 444h-145z" />
    <glyph glyph-name="daggerdbl" unicode="&#x2021;" horiz-adv-x="545" 
d="M33 235h145l19 141h-145l24 165h145l23 167h171l-23 -167h145l-24 -165h-145l-19 -141h145l-24 -166h-145l-23 -165h-171l23 165h-144z" />
    <glyph glyph-name="bullet" unicode="&#x2022;" horiz-adv-x="418" 
d="M50 331q5 33 22 62.5t42 51.5t56.5 35t65.5 13q33 0 60.5 -13t46.5 -35t27.5 -51.5t3.5 -62.5q-5 -34 -22 -63.5t-41.5 -51.5t-56 -35t-64.5 -13q-34 0 -62 13t-47 35t-27.5 51.5t-3.5 63.5z" />
    <glyph glyph-name="ellipsis" unicode="&#x2026;" horiz-adv-x="784" 
d="M-1 95q3 21 13.5 39t26 31.5t35 21t40.5 7.5q42 0 66.5 -28.5t18.5 -70.5q-3 -21 -13.5 -39.5t-25.5 -32t-34 -21.5t-40 -8q-43 0 -68 29.5t-19 71.5zM264 95q6 42 38 70.5t74 28.5q43 0 68 -28.5t19 -70.5q-3 -21 -13.5 -39.5t-26 -32t-35 -21.5t-40.5 -8t-37.5 8
t-28 21.5t-16.5 32t-2 39.5zM527 95q3 21 13 39t25.5 31.5t34.5 21t40 7.5q44 0 68 -28.5t18 -70.5q-3 -21 -13 -39.5t-25 -32t-34.5 -21.5t-41.5 -8q-42 0 -66.5 29.5t-18.5 71.5z" />
    <glyph glyph-name="perthousand" unicode="&#x2030;" horiz-adv-x="1073" 
d="M612 767l117 -86l-598 -757l-118 83zM359 541q-6 -41 -22 -74t-39.5 -56t-52.5 -35t-62 -12q-71 0 -103.5 45.5t-19.5 133.5q6 40 21.5 72.5t38 55t51.5 35t61 12.5q73 0 105.5 -46t21.5 -131zM240 541q4 32 -3 46t-22 14t-27 -14t-16 -45q-5 -32 3 -45.5t23 -13.5
q33 0 42 58zM697 171q-6 -41 -22 -74t-39.5 -56t-52.5 -35t-62 -12q-71 0 -103.5 45.5t-19.5 133.5q6 40 21.5 72.5t38 55t51.5 35t61 12.5q73 0 105.5 -46t21.5 -131zM1031 171q-6 -41 -22 -74t-39.5 -56t-52.5 -35t-62 -12q-71 0 -103.5 45.5t-19.5 133.5q6 40 21.5 72.5
t38 55t51.5 35t61 12.5q73 0 105.5 -46t21.5 -131zM578 171q4 32 -3 46t-22 14t-27 -14t-16 -45q-5 -32 3 -45.5t23 -13.5q33 0 42 58zM912 171q4 32 -3 46t-22 14t-27 -14t-16 -45q-5 -32 3 -45.5t23 -13.5q33 0 42 58z" />
    <glyph glyph-name="guilsinglleft" unicode="&#x2039;" horiz-adv-x="352" 
d="M343 438l-124 -150q18 -36 41 -78.5t40 -76.5l-157 -85l-125 239l193 238z" />
    <glyph glyph-name="guilsinglright" unicode="&#x203a;" horiz-adv-x="353" 
d="M3 133l125 154l-81 151l157 86l126 -237l-191 -238z" />
    <glyph glyph-name="fraction" unicode="&#x2044;" horiz-adv-x="582" 
d="M81 -77l-129 87l560 761l129 -86z" />
    <glyph glyph-name="Euro" unicode="&#x20ac;" horiz-adv-x="644" 
d="M107 474q9 60 39.5 105.5t74 76.5t96.5 46.5t106 15.5q33 0 66.5 -8t64.5 -27t55.5 -51t39.5 -79l-154 -59q-9 22 -27 35t-40.5 18.5t-46 2.5t-44 -12.5t-34.5 -25.5t-17 -38v-4h178l-39 -108h-155l-4 -31h178l-38 -108h-154q0 -29 24 -46t56 -18.5t65 13.5t53 50
l146 -72q-29 -43 -63 -73.5t-71 -49.5t-74 -28t-70 -9q-51 0 -98 14.5t-82 44t-53.5 73t-12.5 101.5h-59l35 108h39l4 31h-59l36 108h39v4z" />
    <glyph glyph-name="uni2113" unicode="&#x2113;" horiz-adv-x="452" 
d="M395 73q-41 -43 -92 -62.5t-97.5 -15.5t-80.5 33t-40 83l-41 -28l-39 136l90 69l26 185q10 71 31.5 117.5t49 74.5t59 39t61.5 11q38 0 64.5 -14t41.5 -38.5t19.5 -58t-1.5 -71.5q-11 -83 -64 -161t-130 -151l-1 -7q-4 -25 0.5 -39.5t14.5 -19.5t24.5 -0.5t31.5 18.5z
M248 396q20 33 37.5 68.5t22.5 64.5q6 41 -4 49t-23 -11t-24 -62t-8 -104z" />
    <glyph glyph-name="trademark" unicode="&#x2122;" horiz-adv-x="861" 
d="M149 547h-88l23 162h343l-23 -162h-90l-36 -258h-165zM456 709h137l51 -132l89 132h133l-59 -418h-149l20 119l-52 -73h-25l-35 74l-15 -120h-154z" />
    <glyph glyph-name="Omega" unicode="&#x2126;" horiz-adv-x="773" 
d="M85 176q-49 80 -32 198q12 84 50 147t92 105t118 63t128 21q65 0 124.5 -21.5t102.5 -63.5t64 -104t10 -143q-8 -57 -31.5 -110t-60.5 -92h64l-24 -176h-323l19 141q47 14 79.5 36.5t53.5 51.5t32.5 62.5t16.5 70.5q5 34 -1.5 66t-24.5 56.5t-49 39t-76 14.5
q-42 0 -76 -15.5t-59 -41t-41 -58.5t-21 -69q-5 -34 -1.5 -67t17 -61.5t38.5 -50.5t63 -34l-19 -141h-322l24 176h65z" />
    <glyph glyph-name="estimated" unicode="&#x212e;" horiz-adv-x="811" 
d="M279 229q0 -14 0.5 -22.5t0.5 -23.5q26 -23 59.5 -36.5t70.5 -13.5q23 0 50 4.5t53.5 15.5t51 28.5t42.5 44.5l167 -1q-37 -64 -82 -108t-93 -71.5t-96.5 -40t-93.5 -12.5q-76 0 -143.5 26.5t-117.5 72t-79.5 107t-29.5 132.5q0 70 29.5 132t79.5 108t117.5 73t143.5 27
q77 0 145 -27t118.5 -73t79.5 -108t29 -132v-71h-502v-31zM541 477q-28 23 -61 37t-70 14q-36 0 -70.5 -14t-60.5 -37v-76h262v76z" />
    <glyph glyph-name="partialdiff" unicode="&#x2202;" horiz-adv-x="505" 
d="M102 629q45 26 90.5 44t89.5 18q45 0 86.5 -18.5t70.5 -59t41.5 -103.5t0.5 -151q-11 -80 -37 -146.5t-65 -115.5t-89.5 -76t-111.5 -27q-50 0 -84 19t-54 50.5t-26.5 72t-1.5 84.5q7 57 32 103.5t60 79.5t77 51t82 18q31 0 63 -12q3 36 -11 56t-38.5 26t-55 -1.5
t-59.5 -25.5zM209 153q15 -1 32.5 16t31.5 41q12 20 20 45t13 51q-28 23 -51 20.5t-40.5 -19.5t-28.5 -43.5t-13.5 -51t4 -42t24.5 -17.5h8z" />
    <glyph glyph-name="Delta" unicode="&#x2206;" horiz-adv-x="587" 
d="M415 675l120 -567l-15 -108h-537l15 107l278 568h139zM199 169h145l-33 273z" />
    <glyph glyph-name="product" unicode="&#x220f;" horiz-adv-x="633" 
d="M308 -53l84 594h-85l-84 -594h-170l84 594h-76l23 168h579l-23 -168h-79l-84 -594h-169z" />
    <glyph glyph-name="summation" unicode="&#x2211;" horiz-adv-x="547" 
d="M216 312q-35 65 -70 138t-70 137l17 119h468l-21 -147h-242q30 -58 61.5 -124.5t61.5 -122.5l-197 -223h262l-22 -154h-489l17 117z" />
    <glyph glyph-name="minus" unicode="&#x2212;" horiz-adv-x="606" 
d="M545 211h-511l24 168h511z" />
    <glyph glyph-name="uni2215" unicode="&#x2215;" horiz-adv-x="562" 
d="M80 -49l-129 87l549 750l129 -86z" />
    <glyph glyph-name="uni2219" unicode="&#x2219;" horiz-adv-x="262" 
d="M31 303q3 21 13 39.5t25 32t34.5 21.5t41.5 8q43 0 66.5 -29.5t17.5 -71.5t-37.5 -70t-74.5 -28q-45 0 -68.5 28t-17.5 70z" />
    <glyph glyph-name="radical" unicode="&#x221a;" horiz-adv-x="539" 
d="M93 224l-58 -15l-33 145l229 83l16 -283l179 605h174l-307 -875h-140z" />
    <glyph glyph-name="infinity" unicode="&#x221e;" horiz-adv-x="670" 
d="M638 284q-6 -40 -25.5 -73t-47 -56t-61 -36t-67.5 -13q-83 0 -122 61q-26 -24 -62 -42.5t-82 -18.5q-36 0 -65.5 13.5t-49.5 37t-28.5 55.5t-3.5 69q6 39 23.5 72t44.5 57t61 37.5t73 13.5q42 0 72.5 -18.5t51.5 -48.5q28 29 64.5 49t78.5 18q76 -3 116 -51t30 -125z
M206 324q-24 0 -37.5 -12.5t-15.5 -28t8 -28t33 -12.5t67 41q-14 17 -29 28.5t-26 11.5zM470 324q-11 0 -29 -11.5t-38 -28.5q35 -41 57 -41q23 0 36.5 12.5t15.5 28t-8 28t-34 12.5z" />
    <glyph glyph-name="integral" unicode="&#x222b;" horiz-adv-x="383" 
d="M394 644q-22 13 -43.5 4t-27.5 -49l-72 -546q-6 -44 -23.5 -76.5t-43 -54t-56 -32.5t-62.5 -11q-58 0 -119 43l57 106q22 -18 44 -11t27 36q3 23 8 58.5t12.5 97.5t19 157t28.5 237q6 44 24 78t43 56.5t55 34t62 11.5q27 0 56.5 -9t58.5 -32z" />
    <glyph glyph-name="approxequal" unicode="&#x2248;" horiz-adv-x="496" 
d="M479 422q-41 -60 -81 -84.5t-81 -24.5q-25 0 -49.5 7.5t-50.5 19.5q-29 16 -54 11.5t-49 -27.5l-71 75q39 53 80.5 81.5t77.5 31.5q18 3 35 -3t33 -15t32 -17.5t32 -11t32.5 3.5t33.5 27zM454 226q-42 -60 -83 -86.5t-83 -26.5q-26 0 -50 8.5t-47 23.5q-11 8 -20 12.5
t-17 4.5t-20 -9.5t-35 -29.5l-80 78q37 48 65 74.5t55 35t55.5 2.5t66.5 -22l1 1q18 -7 28.5 -11.5t20.5 -4.5t22 5t34 17z" />
    <glyph glyph-name="notequal" unicode="&#x2260;" horiz-adv-x="528" 
d="M31 256h139l28 42h-161l20 142h236l64 96l113 -55l-28 -41h66l-20 -142h-141l-28 -42h163l-19 -142h-238l-63 -94l-114 51l29 43h-65z" />
    <glyph glyph-name="lessequal" unicode="&#x2264;" horiz-adv-x="489" 
d="M301 400q2 -2 7 -4.5t19 -10t40 -21t69 -36.5l-21 -148h16l-24 -167h-412l24 167h325l-298 168l15 105l421 207l-25 -183z" />
    <glyph glyph-name="greaterequal" unicode="&#x2265;" horiz-adv-x="487" 
d="M454 345l-332 -162h313l-23 -165h-412l23 165h16l20 142l123 58l31 14l-133 75l26 185l363 -208z" />
    <glyph glyph-name="lozenge" unicode="&#x25ca;" horiz-adv-x="557" 
d="M24 331l251 357h117l148 -355l-250 -357h-120zM262 175l105 153l-64 160l-106 -157z" />
    <glyph glyph-name="i.loclTRK" horiz-adv-x="268" 
d="M86 649q3 19 12.5 35.5t24 28.5t32.5 19t38 7q41 0 64 -25.5t18 -64.5q-6 -39 -36.5 -63.5t-70.5 -24.5q-41 0 -64 24.5t-18 63.5zM177 0h-172l72 518h172z" />
    <glyph glyph-name="uni0414.loclBGR" horiz-adv-x="696" 
d="M-48 -142l42 303h64l256 547h177l105 -547h65l-42 -303h-178l19 142h-310l-19 -142h-179zM377 508h-4l-52 -159l-77 -188h167l-27 189z" />
    <glyph glyph-name="uni041B.loclBGR" horiz-adv-x="637" 
d="M346 508l-71 -207l-129 -301h-194l329 708h179l143 -708h-194l-47 302l-13 206h-3z" />
    <glyph glyph-name="uni0432.loclBGR" horiz-adv-x="515" 
d="M463 173q-6 -46 -30.5 -80t-59 -57t-76 -34.5t-81.5 -11.5q-48 0 -104 10t-104 30l71 505q6 46 29.5 80t57 57t74 34.5t80.5 11.5q39 0 74.5 -10.5t62 -32t39.5 -54.5t7 -79q-9 -64 -39 -102.5t-65 -52.5q45 -7 64.5 -40t11.5 -87zM232 418q11 3 19.5 6t19.5 7
q26 9 40 35t19 55q3 21 -5 34t-29 13q-18 0 -32 -10.5t-16 -28.5zM307 272q3 21 -9.5 35t-37.5 10q-15 -2 -24.5 -5.5t-19.5 -6.5l-22 -158q19 -7 44 -7q20 0 36.5 12t20.5 38z" />
    <glyph glyph-name="uni0433.loclBGR" horiz-adv-x="433" 
d="M382 73q-48 -48 -101.5 -65t-111.5 -17q-37 0 -70 10.5t-56 31.5t-34.5 52t-5.5 72t22 69t38 46t48.5 29t53.5 18q21 5 43.5 13t25.5 25q2 14 -8 19.5t-28 5.5q-16 0 -30 -4t-32 -13l-78 90q44 42 95 57.5t99 15.5q44 0 75.5 -13t50.5 -34.5t26 -50t3 -59.5
q-10 -70 -54.5 -111.5t-120.5 -58.5q-31 -7 -48.5 -14t-20.5 -26q-2 -15 10.5 -22t33.5 -7q20 0 46 9.5t56 30.5z" />
    <glyph glyph-name="uni0434.loclBGR" horiz-adv-x="502" 
d="M41 344q7 52 30.5 87.5t57.5 57t75 30.5t84 9q57 0 106 -13t87 -32l-63 -445q-8 -61 -29.5 -105.5t-52.5 -74t-69.5 -44t-80.5 -14.5q-49 0 -97 18.5t-90 55.5l83 95q22 -17 45.5 -24.5t46.5 -7.5q34 0 54.5 15.5t25.5 51.5q-20 -8 -39.5 -11t-39.5 -3q-36 0 -67.5 12
t-54 36t-32.5 59.5t-4 80.5zM305 391q-15 9 -38 9q-21 0 -39 -12t-22 -38l-26 -181q-4 -25 11.5 -36t35.5 -11q22 0 41 11z" />
    <glyph glyph-name="uni0436.loclBGR" horiz-adv-x="745" 
d="M271 167l-124 -167h-188l219 267l-147 251h190l75 -171l51 361h165l-51 -361l123 171h190l-217 -251l143 -267h-188l-76 167l-24 -167h-165z" />
    <glyph glyph-name="uni0438.loclBGR" 
d="M427 32q-44 -20 -92 -31t-105 -11q-45 0 -85 10.5t-68.5 33.5t-42.5 60.5t-7 90.5l45 333h168l-45 -332q-4 -26 11 -37t35 -11q18 0 33 6l51 374h169z" />
    <glyph glyph-name="uni0439.loclBGR" horiz-adv-x="515" 
d="M502 756q-8 -59 -39.5 -98t-73 -58t-87 -18t-81.5 20.5t-56.5 58t-12.5 95.5h139q-3 -18 7.5 -27.5t24.5 -9.5t26.5 9t15.5 28h137zM430 32q-45 -20 -96.5 -31t-102.5 -11q-45 0 -85.5 10.5t-69.5 33.5t-43 60.5t-7 90.5l47 333h170l-46 -330q-4 -24 9.5 -36.5
t31.5 -12.5q20 0 38 7l52 372h170z" />
    <glyph glyph-name="uni043A.loclBGR" horiz-adv-x="521" 
d="M359 518h193l-223 -251l149 -267h-191l-88 166l-24 -166h-170l100 708h170l-49 -351z" />
    <glyph glyph-name="uni043B.loclBGR" horiz-adv-x="517" 
d="M267 366l-43 -144l-86 -222h-180l227 518h199l90 -518h-185l-19 221v145h-3z" />
    <glyph glyph-name="uni043F.loclBGR" 
d="M72 486q44 20 94.5 31t101.5 11q47 0 87.5 -10.5t69 -33.5t41.5 -60t6 -91l-47 -333h-168l47 332q4 28 -10 38t-34 10t-35 -6l-53 -374h-169z" />
    <glyph glyph-name="uni0442.loclBGR" horiz-adv-x="736" 
d="M71 476q33 23 82 37.5t100 14.5q45 0 79 -13t64 -42q32 29 64.5 42t67.5 13q37 0 70 -12.5t57 -36t36 -57.5t6 -77l-48 -345h-168l48 347q2 16 -6 24t-25 8q-14 0 -27 -7.5t-15 -23.5l-48 -348h-163l48 340q2 14 -8 24.5t-28 10.5q-10 0 -19.5 -2.5t-16.5 -8.5l-51 -364
h-166z" />
    <glyph glyph-name="uni0446.loclBGR" horiz-adv-x="556" 
d="M340 13q-25 -11 -56.5 -17t-57.5 -6q-45 0 -84.5 10.5t-67.5 33.5t-41.5 60.5t-6.5 90.5l47 333h170l-46 -330q-4 -24 7 -36.5t29 -12.5q20 0 38 7l52 372h170l-50 -359h73l-25 -165l-35 -132h-140z" />
    <glyph glyph-name="uni0448.loclBGR" horiz-adv-x="776" 
d="M692 42q-32 -23 -84 -37.5t-106 -14.5q-42 0 -84.5 12t-66.5 41q-14 -13 -32.5 -23t-38.5 -16.5t-40 -10t-38 -3.5q-39 0 -74 12.5t-59.5 36t-37 57.5t-6.5 78l48 344h170l-49 -348q-2 -17 9.5 -24t29.5 -7q14 0 30.5 8t18.5 22l49 349h170l-49 -350q-2 -14 12 -21.5
t30 -7.5q30 0 44 11l51 368h170z" />
    <glyph glyph-name="uni0449.loclBGR" horiz-adv-x="822" 
d="M719 -138h-137l23 147q-24 -9 -50.5 -14t-52.5 -5q-42 0 -84.5 12t-66.5 41q-14 -13 -32.5 -23t-38.5 -16.5t-40 -10t-38 -3.5q-39 0 -74 12.5t-59.5 36t-37 57.5t-6.5 78l48 344h170l-49 -348q-2 -17 9.5 -24t29.5 -7q14 0 30.5 8t18.5 22l49 349h170l-49 -350
q-2 -14 12 -21.5t30 -7.5q30 0 44 11l51 368h170l-50 -359h75l-27 -162z" />
    <glyph glyph-name="uni044E.loclBGR" horiz-adv-x="743" 
d="M221 336h60l2 17q6 45 30 78t57.5 54.5t73.5 32t79 10.5t76.5 -11.5t65 -35.5t41.5 -60t7 -84l-23 -164q-6 -46 -30 -80t-57.5 -57t-74 -34.5t-80.5 -11.5t-77 11.5t-64.5 34.5t-41 57t-7.5 80l4 27h-60l-29 -200h-169l100 708h169zM469 140q18 0 33 10.5t19 28.5l22 161
q3 18 -10 28t-30 10t-33 -10t-19 -28l-22 -161q-2 -18 10 -28.5t30 -10.5z" />
    <glyph glyph-name="at.001" horiz-adv-x="750" 
d="M613 520q-11 18 -29 31t-40 22t-45.5 13t-44.5 4q-60 0 -110 -24.5t-87 -64t-60 -88.5t-30 -98q-8 -59 7 -106t50 -75.5t88 -36.5t119 11l13 -96q-71 -21 -128 -21q-66 0 -121.5 25t-93 71t-52.5 110.5t0 143.5q15 67 51.5 133t90.5 118t122.5 84t148.5 32q54 0 103 -13
q63 -19 112.5 -61t69.5 -94q16 -44 15 -95.5t-17 -101.5t-46 -95.5t-71 -77.5q-26 -21 -64 -36t-76 -15q-20 0 -36.5 4t-33.5 17q-34 -19 -73 -19q-40 0 -70.5 15t-50 41t-27.5 61t-2 76q6 47 27.5 91t52.5 77.5t69 54t79 20.5q27 0 50.5 -8.5t48.5 -31.5l21 21zM543 239
q31 13 53 42.5t33.5 65t12.5 71t-9 59.5l-7 18zM377 244q12 0 24.5 4t22.5 12l53 147q-21 26 -43 30.5t-41.5 -5.5t-35 -31t-24 -46t-8 -50.5t13.5 -44.5q7 -9 17 -12.5t21 -3.5z" />
    <glyph glyph-name=".ttfautohint" horiz-adv-x="330" 
d="M0 0z" />
    </font>
</defs>
</svg>
