<?xml version="1.0" standalone="no"?>
<!DOCTYPE svg PUBLIC "-//W3C//DTD SVG 1.1//EN" "http://www.w3.org/Graphics/SVG/1.1/DTD/svg11.dtd" >
<svg xmlns="http://www.w3.org/2000/svg" xmlns:xlink="http://www.w3.org/1999/xlink" version="1.1">
<metadata>
Created by FontForge 20170731 at Fri May 16 15:08:33 2014
 By Aleksey,,,
Copyright (c) 2014 by (c) 2009 Designed by Svetoslav Simov (c) Fontfabric, Inc. All rights reserved.
</metadata>
<defs>
<font id="UniSansHeavy" horiz-adv-x="588" >
  <font-face 
    font-family="Uni Sans Heavy"
    font-weight="900"
    font-stretch="normal"
    units-per-em="1000"
    panose-1="0 0 5 0 0 0 0 0 0 0"
    ascent="756"
    descent="-244"
    x-height="518"
    cap-height="708"
    bbox="-57 -254 1049 997"
    underline-thickness="50"
    underline-position="-150"
    unicode-range="U+0020-FB02"
  />
<missing-glyph horiz-adv-x="601" 
d="M540 0h-529v700h529v-700zM276 458q9 14 17 26l16 24t16.5 25t19.5 29h-139zM221 363l-80 121v-262l88 127zM327 349l88 -127v262l-80 -121zM344 139q-9 12 -25 36l-44 66l-70 -102h139z" />
    <glyph glyph-name="fi" unicode="fi" horiz-adv-x="583" 
d="M354 639q0 32 14.5 52.5t36 31t46.5 10t46.5 -11t36 -31t14.5 -51.5t-14.5 -51.5t-36 -31t-46.5 -11t-46.5 10t-36 31t-14.5 52.5zM307 561q-43 10 -66.5 -4t-23.5 -39v-27h85v-143h-85v-348h-169v518q0 49 19 88.5t53.5 65.5t82 35.5t104.5 -1.5v-145zM368 0v518h168
v-518h-168z" />
    <glyph glyph-name="fl" unicode="fl" horiz-adv-x="619" 
d="M612 152q-38 -9 -57 6t-19 38v512h-169v-514q0 -50 18.5 -90.5t51.5 -67t78 -36t97 4.5v147zM307 561q-43 10 -66.5 -4t-23.5 -39v-27h85v-143h-85v-348h-169v518q0 49 19 88.5t53.5 65.5t82 35.5t104.5 -1.5v-145z" />
    <glyph glyph-name=".notdef" horiz-adv-x="601" 
d="M540 0h-529v700h529v-700zM276 458q9 14 17 26l16 24t16.5 25t19.5 29h-139zM221 363l-80 121v-262l88 127zM327 349l88 -127v262l-80 -121zM344 139q-9 12 -25 36l-44 66l-70 -102h139z" />
    <glyph glyph-name=".null" horiz-adv-x="0" 
 />
    <glyph glyph-name="nonmarkingreturn" horiz-adv-x="333" 
 />
    <glyph glyph-name="space" unicode=" " horiz-adv-x="182" 
 />
    <glyph glyph-name="exclam" unicode="!" horiz-adv-x="291" 
d="M43 712h204l-10 -492h-184zM47 89q0 21 7.5 39.5t21 32t31.5 21.5t39 8t39.5 -8t32 -21.5t21.5 -32t8 -39.5t-8 -39t-21.5 -31.5t-32 -21t-39.5 -7.5q-42 0 -70.5 28.5t-28.5 70.5z" />
    <glyph glyph-name="quotedbl" unicode="&#x22;" horiz-adv-x="462" 
d="M199 419h-152v290h173zM405 419h-153v290h173z" />
    <glyph glyph-name="numbersign" unicode="#" horiz-adv-x="648" 
d="M569 315l-43 -146h-67l-50 -170h-158l49 170h-42l-49 -170h-163l50 170h-74l43 146h74l9 33h-74l45 152h74l47 161h158l-47 -161h42l47 161h165l-48 -161h66l-44 -152h-67l-9 -33h66zM291 302h59l16 59h-58z" />
    <glyph glyph-name="dollar" unicode="$" horiz-adv-x="570" 
d="M225 -1q-62 2 -113 38.5t-88 100.5l128 88q20 -28 36.5 -37t36.5 -12v97q-37 9 -71.5 24.5t-60.5 41.5t-42 64t-15 91q2 42 18 75.5t41.5 59t58.5 42.5t71 25v59h129v-58q52 -7 92.5 -33t80.5 -86l-120 -76q-8 14 -22 23.5t-31 12.5v-112q40 -10 75.5 -25.5t62 -41.5
t41 -65.5t11.5 -96.5q-3 -41 -19.5 -73.5t-42.5 -57t-59 -41.5t-69 -26v-65h-129v64zM194 493q-1 -21 8.5 -36.5t29.5 -22.5v114q-18 -10 -28 -24.5t-10 -29.5v-1zM386 218q1 21 -8.5 36.5t-29.5 22.5v-114q18 10 28 24.5t10 29.5v1z" />
    <glyph glyph-name="percent" unicode="%" horiz-adv-x="740" 
d="M547 767l129 -86l-492 -757l-129 83zM325 541q0 -41 -11.5 -74t-31.5 -56t-47.5 -35t-60.5 -12q-71 0 -109.5 45.5t-38.5 133.5q0 81 41.5 128t106.5 47q73 0 112 -46t39 -131zM206 541q0 32 -9 46t-24 14t-25 -14t-10 -45q0 -32 10 -45.5t25 -13.5q33 0 33 58zM715 171
q0 -41 -11.5 -74t-31.5 -56t-47.5 -35t-60.5 -12q-71 0 -109.5 45.5t-38.5 133.5q0 81 41.5 128t106.5 47q73 0 112 -46t39 -131zM596 171q0 32 -9 46t-24 14t-25 -14t-10 -45q0 -32 10 -45.5t25 -13.5q33 0 33 58z" />
    <glyph glyph-name="ampersand" unicode="&#x26;" horiz-adv-x="682" 
d="M622 221l-66 -54l133 -166h-210l-48 57q-36 -32 -80 -47.5t-88.5 -15t-86.5 15.5t-75 44.5t-52.5 72t-19.5 97.5q0 65 27.5 106.5t78.5 71.5q-46 48 -51.5 103.5t19.5 102t75 77t115 28.5q37 -1 72 -14.5t61.5 -37t42.5 -57t16 -75.5q0 -61 -24 -99t-62 -64l59 -73l64 55
zM290 573q-19 0 -33 -13t-14 -33q0 -14 11.5 -29.5t25.5 -32.5q23 16 36 30.5t13 34.5q0 17 -11 30t-28 13zM240 280q-17 -9 -26 -21.5t-12 -27t0 -28.5t11 -25q9 -13 23.5 -20t30.5 -7t32 6.5t28 20.5z" />
    <glyph glyph-name="quotesingle" unicode="'" horiz-adv-x="256" 
d="M202 418h-155v290h170z" />
    <glyph glyph-name="parenleft" unicode="(" horiz-adv-x="322" 
d="M308 718q-124 -185 -121.5 -376t124.5 -379l-127 -85q-78 109 -116.5 231.5t-38.5 237.5q0 58 10 118t30 118t50 112t71 100z" />
    <glyph glyph-name="parenright" unicode=")" horiz-adv-x="316" 
d="M126 783q81 -92 121 -205.5t40 -230.5q0 -115 -38.5 -236.5t-116.5 -230.5l-120 81q58 93 88.5 188.5t31.5 191t-28.5 188t-91.5 178.5z" />
    <glyph glyph-name="asterisk" unicode="*" horiz-adv-x="477" 
d="M453 490l-112 -14l81 -78l-129 -99l-54 101l-52 -101l-134 97l81 84l-110 13l46 158l102 -48l-15 107h164l-19 -106l104 45z" />
    <glyph glyph-name="plus" unicode="+" horiz-adv-x="566" 
d="M202 576h169v-170h168v-170h-168v-171h-169v171h-175v170h175v170z" />
    <glyph glyph-name="comma" unicode="," horiz-adv-x="288" 
d="M151 -149h-173l85 255h188z" />
    <glyph glyph-name="hyphen" unicode="-" horiz-adv-x="404" 
d="M358 205h-312v170h312v-170z" />
    <glyph glyph-name="period" unicode="." horiz-adv-x="257" 
d="M29 95q0 42 28.5 70.5t70.5 28.5t71 -28.5t29 -70.5q0 -21 -8 -39.5t-21.5 -32t-31.5 -21.5t-39 -8t-39 8t-31.5 21.5t-21 32t-7.5 39.5z" />
    <glyph glyph-name="slash" unicode="/" horiz-adv-x="492" 
d="M178 -70l-158 57l295 777l157 -55z" />
    <glyph glyph-name="zero" unicode="0" horiz-adv-x="596" 
d="M298 -10q-45 0 -90.5 13t-82.5 39.5t-60 67.5t-23 97v293q0 57 23 98t60 67.5t82.5 39.5t90.5 13t91 -13t82.5 -39.5t59.5 -67.5t23 -98v-293q0 -56 -23 -97t-59.5 -67.5t-82.5 -39.5t-91 -13zM298 561q-16 0 -31.5 -4.5t-27.5 -13t-19.5 -20.5t-7.5 -28v-290
q0 -15 7.5 -27t19.5 -20t27.5 -12t31.5 -4q15 0 30.5 4t28 12t20 20t7.5 27v290q0 16 -8 28.5t-20 20.5t-27.5 12.5t-30.5 4.5z" />
    <glyph glyph-name="one" unicode="1" horiz-adv-x="373" 
d="M161 0v475l-68 -47l-94 82l188 198h135v-708h-161z" />
    <glyph glyph-name="two" unicode="2" horiz-adv-x="557" 
d="M30 557q44 84 111 122.5t140 38.5q58 0 102.5 -18.5t74.5 -49t45 -69.5t15 -81q0 -50 -20 -101.5t-68 -96.5l-156 -148l83 17h160v-170h-456l-45 93l288 324q24 27 28 52t-5 44.5t-28 30.5t-42.5 9.5t-48.5 -18t-44 -52.5z" />
    <glyph glyph-name="three" unicode="3" horiz-adv-x="540" 
d="M132 225q20 -32 51 -46t63 -14q36 0 62.5 16t26.5 45q0 27 -19.5 47.5t-57.5 20.5h-110v143h106q17 0 28.5 9.5t17 23t4.5 28.5t-8 26q-12 19 -33 26t-44 5t-46.5 -13.5t-39.5 -30.5l-104 92q44 54 103.5 84.5t119.5 30.5q33 0 65 -6t60 -20.5t51 -38.5t37 -59
q10 -26 14 -57t-1.5 -60.5t-20.5 -55.5t-42 -43q27 -14 45 -34t29.5 -42.5t16 -45.5t4.5 -44q0 -52 -22 -93t-58 -69.5t-82 -44t-95 -15.5q-34 0 -68 7.5t-65 23t-57.5 40t-46.5 57.5z" />
    <glyph glyph-name="four" unicode="4" horiz-adv-x="574" 
d="M543 154h-66v-154h-171v154h-249l-57 105l330 449h147v-409h66v-145zM319 297l2 181l-127 -181h125z" />
    <glyph glyph-name="five" unicode="5" horiz-adv-x="541" 
d="M155 221q25 -31 57 -42t60.5 -6t48 25t21.5 51q3 54 -24.5 79.5t-68.5 25.5q-31 0 -61 -13.5t-54 -45.5h-82v413h420v-157h-277v-80q64 24 122.5 16.5t103 -38t70.5 -81.5t26 -115q0 -49 -15.5 -96.5t-48.5 -84.5t-83.5 -59.5t-119.5 -22.5q-60 0 -119.5 30.5
t-102.5 100.5z" />
    <glyph glyph-name="six" unicode="6" horiz-adv-x="584" 
d="M403 515q-17 26 -43.5 38t-54.5 12q-36 0 -64.5 -18.5t-28.5 -52.5v-73q34 24 73 33.5t78 5.5t74.5 -20t63 -42.5t44 -62.5t16.5 -80v-42q0 -55 -22 -96.5t-58 -69.5t-82.5 -42.5t-95.5 -14.5q-50 0 -97 14t-83.5 42t-59 70t-22.5 97v282q0 53 23 94.5t60 70t84.5 43.5
t96.5 15q35 0 68 -8t62 -24t53 -41t40 -58zM390 260q0 19 -13 31.5t-33 18.5t-43 6t-43 -6.5t-33 -19t-13 -30.5v-53q0 -20 13 -33.5t33 -20t43 -6.5t43 6.5t33 20t13 33.5v53z" />
    <glyph glyph-name="seven" unicode="7" horiz-adv-x="530" 
d="M480 708l48 -96l-273 -612h-192l230 538h-270v170h457z" />
    <glyph glyph-name="eight" unicode="8" horiz-adv-x="600" 
d="M294 -10q-61 0 -109.5 14.5t-83 43t-53 70t-18.5 95.5q0 42 23.5 86t71.5 79q-18 12 -29.5 27t-19 32t-10.5 34.5t-3 33.5q0 62 23.5 103t58.5 65.5t75 34.5t74 10h14q44 0 85.5 -12t74 -38.5t52 -68.5t19.5 -101q0 -12 -4 -28t-11.5 -32.5t-19 -32.5t-26.5 -26
q24 -12 41.5 -31t29 -41t16.5 -44t5 -40q-2 -109 -66 -171t-196 -62h-14zM294 572q-23 0 -38 -11t-22.5 -26.5t-7 -33.5t8.5 -33.5t24.5 -25.5t40.5 -10q41 0 61 21t20 46.5t-18.5 48t-53.5 24.5h-15zM310 157q45 0 65.5 25t19.5 54.5t-22.5 52.5t-59.5 20h-23
q-37 1 -58 -22t-22 -51.5t19 -53t64 -25.5h17z" />
    <glyph glyph-name="nine" unicode="9" 
d="M171 209q20 -32 50.5 -45.5t61.5 -13.5q37 0 65 19t28 49v73q-51 -37 -112 -40.5t-113.5 20.5t-88 72t-35.5 114v42q0 55 21.5 96t57.5 68.5t82.5 41t96.5 13.5q49 0 96 -13.5t83.5 -41t59 -68.5t23.5 -96v-282q0 -54 -22.5 -96.5t-59.5 -71.5t-84 -44t-96 -15
q-37 0 -73 8t-67.5 24.5t-57.5 42t-43 60.5zM198 452q0 -19 13 -31.5t33 -18.5t43 -6t43 6.5t33 18.5t13 31v53q0 18 -13 30.5t-33 19t-43 6.5t-43 -6t-33 -18.5t-13 -31.5v-53z" />
    <glyph glyph-name="colon" unicode=":" horiz-adv-x="277" 
d="M39 393q0 42 29 70t71 28t70.5 -28t28.5 -70q0 -21 -7.5 -39.5t-21 -32t-31.5 -21.5t-39 -8t-39 8t-31.5 21.5t-21.5 32t-8 39.5zM39 106q0 44 29 72t71 28t70.5 -28t28.5 -72q0 -42 -28.5 -71t-70.5 -29t-71 29t-29 71z" />
    <glyph glyph-name="semicolon" unicode=";" horiz-adv-x="292" 
d="M45 382q0 42 27.5 70t72.5 28q43 0 70.5 -28t27.5 -70q0 -43 -27.5 -72t-70.5 -29q-45 0 -72.5 29t-27.5 72zM163 -128h-156l61 255h187z" />
    <glyph glyph-name="less" unicode="&#x3c;" horiz-adv-x="445" 
d="M230 292q40 -21 82 -44t79 -43v-199l-366 232v109l366 235v-199z" />
    <glyph glyph-name="equal" unicode="=" horiz-adv-x="529" 
d="M481 319h-434v155h434v-155zM481 115h-434v156h434v-156z" />
    <glyph glyph-name="greater" unicode="&#x3e;" horiz-adv-x="445" 
d="M420 238l-367 -232v199l169 87l-169 91v199l367 -235v-109z" />
    <glyph glyph-name="question" unicode="?" horiz-adv-x="491" 
d="M21 584q30 58 75 89.5t94.5 40.5t98.5 -2.5t88 -41t63.5 -74.5t24.5 -102q0 -33 -10 -65.5t-31 -59.5t-53.5 -46.5t-77.5 -25.5l-10 -117h-150l-10 228q32 -14 62 -14t53 10.5t37 31t14 47.5t-20 43t-47.5 19t-55.5 -8.5t-43 -39.5zM117 65q0 40 26.5 65t64.5 25t64 -25
t26 -65q0 -19 -7 -35.5t-19 -29t-28.5 -19.5t-35.5 -7q-38 0 -64.5 26.5t-26.5 64.5z" />
    <glyph glyph-name="at" unicode="@" horiz-adv-x="760" 
d="M572 520q-13 18 -33 31t-43 22t-47 13t-45 4q-60 0 -106.5 -24.5t-78 -64t-48 -88.5t-16.5 -98q0 -59 22 -106t61 -75.5t92.5 -36.5t117.5 11l27 -96q-68 -21 -125 -21q-66 0 -125.5 25t-103 71t-67.5 110.5t-20 143.5q5 67 32 133t73.5 118t111 84t144.5 32
q54 0 105 -13q32 -9 63 -25t58 -36t48 -44t35 -50q22 -44 28.5 -95.5t-2.5 -101.5t-32.5 -95.5t-60.5 -77.5q-23 -21 -59 -36t-74 -15q-20 0 -37.5 4t-35.5 17q-31 -19 -71 -19t-72.5 15t-56 41t-36 61t-12.5 76q0 47 15 91t41.5 77.5t61.5 54t76 20.5q27 0 52 -8.5
t53 -31.5l18 21zM542 239q30 13 47.5 42.5t24 65t2.5 71t-18 59.5l-9 18zM375 244q12 0 24.5 4t20.5 12l32 147q-25 26 -47 30.5t-40.5 -5.5t-31 -31t-17.5 -46t-1 -50.5t20 -44.5q15 -16 40 -16z" />
    <glyph glyph-name="A" unicode="A" horiz-adv-x="648" 
d="M657 0h-192l-46 142h-189l-44 -142h-192l247 708h163zM376 301l-49 207h-5l-52 -207h106z" />
    <glyph glyph-name="B" unicode="B" horiz-adv-x="624" 
d="M570 492q0 -12 -4.5 -28t-13.5 -32t-22.5 -30.5t-32.5 -24.5q36 -18 57.5 -43t32 -52t12 -53t-1.5 -46q-14 -86 -74 -134.5t-178 -48.5h-289v708h284q51 0 93.5 -15t73.5 -42.5t47.5 -67.5t15.5 -91zM340 431q33 0 49.5 19.5t17 43.5t-16 43.5t-50.5 19.5h-104v-126h104z
M340 157q40 0 60 22.5t20 50t-20 50t-60 22.5h-104v-145h104z" />
    <glyph glyph-name="C" unicode="C" horiz-adv-x="582" 
d="M573 149q-22 -43 -52 -73.5t-64 -49.5t-70 -27.5t-69 -8.5q-52 0 -102 15t-89.5 45.5t-63.5 76t-24 105.5v244q0 60 24 105.5t63.5 75.5t90.5 45.5t104 15.5q33 0 68 -8t68 -26.5t62.5 -50t50.5 -78.5l-146 -59q-18 33 -52.5 46.5t-68.5 9.5t-59.5 -23.5t-25.5 -52.5
v-244q0 -32 25.5 -51.5t59.5 -22.5t66.5 11.5t47.5 51.5z" />
    <glyph glyph-name="D" unicode="D" horiz-adv-x="636" 
d="M321 708q53 0 102.5 -14t88 -43t61.5 -73.5t23 -106.5v-238q0 -61 -23 -105.5t-61.5 -73t-88 -41.5t-102.5 -13h-265v708h265zM327 168q46 0 67.5 21t21.5 56v221q0 35 -22 55t-67 20h-91v-373h91z" />
    <glyph glyph-name="E" unicode="E" 
d="M237 430h287v-155h-287v-106h312v-169h-493v708h493v-168h-312v-110z" />
    <glyph glyph-name="F" unicode="F" horiz-adv-x="576" 
d="M237 411h273v-167h-273v-244h-181v708h493v-170h-312v-127z" />
    <glyph glyph-name="G" unicode="G" horiz-adv-x="623" 
d="M415 498q-10 24 -28.5 38t-40 19.5t-44.5 3t-41.5 -13t-30.5 -27.5t-12 -40v-243q0 -28 15.5 -46.5t38.5 -27.5t49.5 -9t49.5 9.5t38.5 27.5t15.5 46v26h-113v150h285v-176q0 -61 -23.5 -107t-62.5 -76.5t-89 -46t-103 -15.5t-103 15.5t-89.5 46t-63.5 76.5t-24 107v243
q0 60 24 105t63.5 75t89.5 45t103 15q34 0 70 -7.5t69 -25.5t61 -47t46 -71z" />
    <glyph glyph-name="H" unicode="H" horiz-adv-x="676" 
d="M236 0h-180v708h180v-268h204v268h180v-708h-180v267h-204v-267z" />
    <glyph glyph-name="I" unicode="I" horiz-adv-x="291" 
d="M235 0h-179v708h179v-708z" />
    <glyph glyph-name="J" unicode="J" horiz-adv-x="587" 
d="M172 243q8 -43 38 -61.5t63 -18.5t59.5 18.5t26.5 49.5v315h-161v162h338v-477q0 -58 -23 -103t-61 -75.5t-86.5 -46.5t-99.5 -16q-46 0 -90 13t-80 40t-61 68t-32 97z" />
    <glyph glyph-name="K" unicode="K" horiz-adv-x="640" 
d="M428 708h223l-280 -342l279 -366h-227l-181 253l-6 -8v-245h-180v708h180v-262z" />
    <glyph glyph-name="L" unicode="L" horiz-adv-x="538" 
d="M56 708h180v-531h288v-177h-468v708z" />
    <glyph glyph-name="M" unicode="M" horiz-adv-x="769" 
d="M56 708h179l149 -346l150 346h179v-708h-180l1 204l11 143l-6 1l-93 -243h-123l-95 243l-5 -1l12 -143v-204h-179v708z" />
    <glyph glyph-name="N" unicode="N" horiz-adv-x="676" 
d="M56 708h170l171 -302l60 -142l5 1l-3 19t-7 42t-7 42l-3 19v321h178v-708h-181l-160 279l-62 142l-5 -1l23 -137v-283h-179v708z" />
    <glyph glyph-name="O" unicode="O" horiz-adv-x="665" 
d="M39 475q0 61 25 106.5t66.5 76t94 45.5t107.5 15t108 -15t94 -45.5t66.5 -76t25.5 -106.5v-242q0 -61 -25 -106.5t-66.5 -76t-94 -45.5t-107.5 -15t-108 15t-94 45.5t-66.5 76t-25.5 106.5v242zM218 233q0 -20 10 -34t26 -24t37 -14.5t42 -4.5t41.5 5t36.5 14.5t26 24
t10 33.5v242q0 21 -10 36t-26.5 24.5t-37.5 14.5t-43 5q-21 0 -41 -5t-36 -15.5t-25.5 -25.5t-9.5 -34v-242z" />
    <glyph glyph-name="P" unicode="P" horiz-adv-x="618" 
d="M56 708h283q65 0 113.5 -21.5t81 -56.5t48.5 -80t16 -92t-16.5 -92.5t-48.5 -80.5t-80.5 -56.5t-112.5 -21.5h-105v-207h-179v708zM339 366q27 0 45 13t27 32.5t9 42t-9 42t-27 32.5t-45 13h-104v-175h104z" />
    <glyph glyph-name="Q" unicode="Q" horiz-adv-x="665" 
d="M39 475q0 61 25 106.5t66.5 76t94 45.5t107.5 15t108 -15t94 -45.5t66.5 -76t25.5 -106.5v-242q0 -37 -9.5 -68t-26.5 -57l55 -56l-99 -89l-58 60q-35 -17 -74.5 -25t-80.5 -8q-55 0 -108 15t-94 45.5t-66.5 76t-25.5 106.5v242zM218 233q0 -24 13.5 -42.5t34 -29t45 -12
t46.5 7.5l-58 60l99 86l49 -50v222q0 27 -17 45t-42.5 27t-55 8.5t-55 -9.5t-42.5 -27t-17 -44v-242z" />
    <glyph glyph-name="R" unicode="R" horiz-adv-x="646" 
d="M269 225h-32v-225h-181v708h283q55 0 102 -13t82.5 -41t56 -72.5t22.5 -106.5q0 -99 -37 -155.5t-102 -76.5l193 -243h-223zM342 379q28 0 47 12t28.5 30t9.5 39t-9.5 39t-28.5 30t-47 12h-105v-162h105z" />
    <glyph glyph-name="S" unicode="S" horiz-adv-x="564" 
d="M135 224q27 -32 65.5 -49t75 -18.5t63 11.5t28.5 42q1 15 -10 27t-28 20.5t-39 14.5t-44 9q-43 7 -82.5 24t-69.5 44.5t-48 66.5t-18 90q0 52 21.5 91.5t57.5 66.5t82 40.5t95 13.5q32 0 63.5 -5t62 -18t60 -35t56.5 -55l-117 -90q-28 30 -63 44t-66 13.5t-52.5 -16.5
t-22.5 -47q2 -26 27 -41.5t67 -24.5q47 -9 92.5 -23t80 -41t54.5 -69.5t17 -107.5q-2 -51 -28 -90.5t-65.5 -66.5t-88.5 -41t-98 -14q-64 0 -127.5 32t-113.5 96z" />
    <glyph glyph-name="T" unicode="T" horiz-adv-x="585" 
d="M383 539v-539h-181v539h-188v170h557v-170h-188z" />
    <glyph glyph-name="U" unicode="U" horiz-adv-x="667" 
d="M233 237q0 -29 15 -48t37.5 -28.5t48.5 -9.5t48.5 10t38 28.5t15.5 47.5v471h181v-471q0 -62 -24.5 -109t-64.5 -78t-90.5 -46.5t-103.5 -15.5t-104 15.5t-90.5 46.5t-63.5 78t-24 109v471h181v-471z" />
    <glyph glyph-name="V" unicode="V" horiz-adv-x="656" 
d="M473 709h192l-255 -708h-164l-255 708h192l111 -346l32 -168h3l32 167z" />
    <glyph glyph-name="W" unicode="W" horiz-adv-x="915" 
d="M730 708h185l-204 -708h-166l-63 196l-25 162h-3l-27 -161l-56 -197h-166l-205 708h186l84 -339l18 -150h5l17 149l79 248h136l73 -249l23 -148h3l20 148z" />
    <glyph glyph-name="X" unicode="X" horiz-adv-x="656" 
d="M451 708h208l-198 -355l198 -353h-208l-124 241l-121 -241h-209l199 353l-199 355h209l121 -242z" />
    <glyph glyph-name="Y" unicode="Y" horiz-adv-x="655" 
d="M238 0v279l-247 429h208l128 -260l128 260h210l-248 -429v-279h-179z" />
    <glyph glyph-name="Z" unicode="Z" horiz-adv-x="605" 
d="M551 708l38 -60l-305 -485l288 2v-165h-525l-33 66l306 476h-284v166h515z" />
    <glyph glyph-name="bracketleft" unicode="[" horiz-adv-x="328" 
d="M221 65h69v-165h-240v810h240v-166h-69v-479z" />
    <glyph glyph-name="backslash" unicode="\" horiz-adv-x="503" 
d="M19 711l161 56l304 -771l-159 -54z" />
    <glyph glyph-name="bracketright" unicode="]" horiz-adv-x="328" 
d="M105 547h-67v163h240v-810h-240v163h67v484z" />
    <glyph glyph-name="asciicircum" unicode="^" horiz-adv-x="652" 
d="M625 404h-207l-97 115l-95 -115h-200l247 303h98z" />
    <glyph glyph-name="underscore" unicode="_" horiz-adv-x="593" 
d="M549 -135h-504v169h504v-169z" />
    <glyph glyph-name="grave" unicode="`" horiz-adv-x="406" 
d="M151 756l-131 166h186l100 -166h-155z" />
    <glyph glyph-name="a" unicode="a" horiz-adv-x="483" 
d="M218 323q12 0 29.5 -1t30.5 -3q1 22 -4.5 36.5t-15.5 22.5t-23 11.5t-27 3.5q-27 0 -48.5 -10t-41.5 -27l-78 79q36 49 88 71t108 22q40 0 77 -11t65.5 -34t45.5 -57.5t17 -82.5v-318q-50 -18 -102 -26.5t-98 -8.5q-111 0 -164.5 45.5t-53.5 126.5q0 33 12 62.5
t36.5 51.5t61 34.5t85.5 12.5zM276 209q-17 5 -33.5 4.5t-30.5 -6.5t-22.5 -17t-8.5 -27q0 -20 9.5 -30.5t23.5 -14.5t30.5 -3t31.5 5v89z" />
    <glyph glyph-name="b" unicode="b" horiz-adv-x="507" 
d="M217 516q14 5 30 8.5t31 3.5q37 0 72 -11t62 -34t43.5 -57.5t16.5 -81.5v-165q0 -53 -17 -89.5t-46.5 -58.5t-68 -31.5t-80.5 -9.5q-55 0 -110.5 12.5t-102.5 30.5v675h170v-192zM217 127q15 -6 33 -6q22 0 38.5 10.5t16.5 35.5v174q0 26 -16 37t-37 11q-10 0 -19 -3.5
t-16 -6.5v-252z" />
    <glyph glyph-name="c" unicode="c" horiz-adv-x="462" 
d="M449 142q-14 -44 -37.5 -73t-51 -46.5t-57.5 -25t-56 -7.5q-39 0 -77 10t-68 32t-48.5 57.5t-18.5 85.5v163q0 48 18.5 83.5t48.5 59t68 35.5t77 12q26 0 55 -6.5t55.5 -23t48 -43.5t33.5 -69l-142 -44q-5 23 -20 33.5t-32 10.5t-31 -11.5t-14 -32.5v-166q0 -21 14 -32.5
t33 -11.5q17 0 33 10t23 33z" />
    <glyph glyph-name="d" unicode="d" horiz-adv-x="508" 
d="M461 32q-46 -17 -101.5 -29.5t-111.5 -12.5q-42 0 -80.5 9t-67.5 30t-46.5 56t-17.5 87v173q0 42 16 76t42.5 58t62 36.5t74.5 12.5q31 0 60 -9v189h170v-676zM291 383q-8 3 -17.5 5t-20.5 2q-20 0 -35 -12t-15 -35v-173q0 -26 17.5 -37t38.5 -11q17 0 32 5v256z" />
    <glyph glyph-name="e" unicode="e" horiz-adv-x="479" 
d="M189 180q0 -29 22 -44t51 -15q20 0 41.5 8t37.5 27l94 -76q-20 -28 -43 -45.5t-47 -27.5t-48.5 -13.5t-46.5 -3.5q-40 0 -78.5 11.5t-69 35.5t-49 59.5t-18.5 83.5v162q0 48 18.5 83.5t48.5 58t68 33.5t78 11q39 0 75 -11.5t64.5 -34.5t45.5 -59t17 -84v-140h-261v-19z
M304 347q0 23 -17.5 34t-38.5 11q-22 0 -39.5 -12t-17.5 -36v-34h113v37z" />
    <glyph glyph-name="f" unicode="f" horiz-adv-x="324" 
d="M311 567q-43 10 -68.5 -4.5t-25.5 -39.5v-32h90v-140h-90v-351h-169v524q0 91 55 142.5t148 51.5q14 0 30 -1.5t30 -4.5v-145z" />
    <glyph glyph-name="g" unicode="g" horiz-adv-x="504" 
d="M37 345q0 52 19 87t50.5 56.5t72 30.5t84.5 9q54 0 104.5 -12.5t89.5 -31.5v-470q0 -62 -15.5 -106t-43 -72t-66.5 -41.5t-87 -13.5q-47 0 -92.5 13t-89.5 48l63 110q23 -14 47.5 -21t46.5 -7q79 0 79 78q-32 -12 -78 -12q-35 0 -68 10t-58.5 31t-41.5 54t-16 79v181z
M294 391q-15 10 -36 10q-23 0 -40 -12t-17 -38v-183q0 -25 16.5 -36t36.5 -11q23 0 40 11v259z" />
    <glyph glyph-name="h" unicode="h" horiz-adv-x="514" 
d="M216 518q33 10 68 10q40 0 74 -12.5t59 -36.5t39.5 -60t14.5 -82v-337h-168v338q0 23 -15 32.5t-35 9.5q-22 0 -37 -9v-371h-168v708h168v-190z" />
    <glyph glyph-name="i" unicode="i" horiz-adv-x="264" 
d="M34 639q0 32 14.5 52.5t36 31t46.5 10t46.5 -11t36 -31t14.5 -51.5t-14.5 -51.5t-36 -31t-46.5 -11t-46.5 10t-36 31t-14.5 52.5zM216 518v-518h-168v518h168z" />
    <glyph glyph-name="j" unicode="j" horiz-adv-x="265" 
d="M35 641q0 32 14.5 52.5t36 31t46.5 10t46.5 -11t36 -31t14.5 -51.5t-14.5 -51.5t-36 -31t-46.5 -11t-46.5 10t-36 31t-14.5 52.5zM-28 -44q19 -5 33 -1.5t23.5 11t14.5 18.5t5 23v511h169v-513q0 -50 -18.5 -91.5t-51.5 -69.5t-78 -38.5t-97 3.5v147z" />
    <glyph glyph-name="k" unicode="k" horiz-adv-x="509" 
d="M320 518h190l-188 -251l187 -267h-198l-102 166v-166h-161v708h161v-351z" />
    <glyph glyph-name="l" unicode="l" horiz-adv-x="295" 
d="M288 -2q-15 -4 -29 -6t-28 -2q-41 0 -75.5 13t-59.5 38t-39 62t-14 84v521h169v-519q0 -19 11 -33t40 -14q11 0 25 3v-147z" />
    <glyph glyph-name="m" unicode="m" horiz-adv-x="735" 
d="M47 476q29 23 76 37.5t97 14.5q43 0 83 -12t69 -41q24 26 58.5 39.5t66.5 13.5q40 0 76 -11t62 -34.5t41.5 -58.5t15.5 -83v-341h-168v343q0 16 -11 23.5t-24 7.5q-14 0 -26 -7.5t-12 -22.5v-344h-163v346q0 15 -11.5 22t-26.5 7q-11 0 -20.5 -3t-16.5 -10v-362h-166v476
z" />
    <glyph glyph-name="n" unicode="n" horiz-adv-x="512" 
d="M47 486q41 20 89.5 31t99.5 11q45 0 87 -10t74.5 -33.5t52 -60.5t19.5 -91v-333h-168v332q0 26 -15 37t-35 11t-35 -6v-374h-169v486z" />
    <glyph glyph-name="o" unicode="o" horiz-adv-x="493" 
d="M35 337q0 48 18 83.5t47.5 59.5t67.5 36t78 12q39 0 77 -12t68 -36t48.5 -59.5t18.5 -83.5v-164q0 -46 -18 -80t-48 -57t-68 -34.5t-78 -11.5t-78 12t-67.5 34.5t-47.5 57t-18 79.5v164zM246 378q-15 0 -30.5 -10t-15.5 -28v-169q0 -18 14.5 -28.5t31.5 -10.5t31.5 10.5
t14.5 28.5v169q0 18 -15.5 28t-30.5 10z" />
    <glyph glyph-name="p" unicode="p" horiz-adv-x="508" 
d="M47 484q47 18 103 31t111 13q41 0 79 -8t67.5 -28t47 -54.5t17.5 -87.5v-171q0 -45 -16 -80t-43 -59t-61.5 -37t-71.5 -13q-16 0 -32 2.5t-31 7.5v-186h-170v670zM217 137q17 -9 39 -7q17 1 33 11.5t16 36.5v177q0 21 -16 31t-36 10q-17 0 -36 -7v-252z" />
    <glyph glyph-name="q" unicode="q" horiz-adv-x="508" 
d="M291 -1q-32 -9 -64 -9q-39 0 -73.5 11.5t-60.5 35t-41.5 57.5t-15.5 79v171q0 54 18.5 89.5t49 56.5t69.5 29.5t81 8.5q54 0 108 -13t99 -33v-668h-170v185zM291 385q-17 9 -38 9q-19 0 -34.5 -10t-15.5 -31v-174q0 -29 16 -40t35 -11q11 0 20 2t17 5v250z" />
    <glyph glyph-name="r" unicode="r" horiz-adv-x="353" 
d="M251 528q14 0 34 -2.5t53 -10.5v-147q-20 9 -42.5 10.5t-41 -5t-30.5 -20.5t-12 -35v-318h-169v326q0 53 16 91t44.5 63t66 36.5t81.5 11.5z" />
    <glyph glyph-name="s" unicode="s" horiz-adv-x="426" 
d="M99 174q27 -20 55.5 -30t53.5 -8q13 1 20 8.5t7 16.5t-8.5 17t-24.5 10q-52 7 -85 24t-52 41t-26 52t-7 57q0 28 11.5 57.5t34 53.5t56.5 39.5t79 15.5q35 0 81.5 -12t97.5 -55l-82 -102q-35 17 -56.5 21t-34.5 2q-11 -2 -17.5 -14.5t3.5 -23.5q7 -7 15.5 -11.5
t23.5 -8.5q28 -7 56 -18t50.5 -28.5t36.5 -44t14 -65.5q0 -44 -16 -77.5t-43 -56t-61.5 -33.5t-71.5 -11q-51 0 -97.5 18t-87.5 66z" />
    <glyph glyph-name="t" unicode="t" horiz-adv-x="336" 
d="M313 9q-47 -19 -96 -19q-36 0 -67.5 12t-55 36t-37 61t-13.5 87v449h158l9 -117h89v-143h-89v-179q0 -32 17.5 -46t43.5 -14q10 0 20 2t21 5v-134z" />
    <glyph glyph-name="u" unicode="u" horiz-adv-x="513" 
d="M466 32q-40 -20 -89 -31t-98 -11q-46 0 -88.5 9.5t-75 32.5t-52 60t-19.5 93v333h168v-332q0 -26 16.5 -37t36.5 -11q17 0 32 6v374h169v-486z" />
    <glyph glyph-name="v" unicode="v" horiz-adv-x="511" 
d="M334 518h181l-185 -518h-150l-183 518h179l65 -250l15 -102h2l12 103z" />
    <glyph glyph-name="w" unicode="w" horiz-adv-x="754" 
d="M510 185l16 108l54 225h171l-151 -518h-173l-34 127l-14 87h-3l-16 -87l-34 -127h-173l-150 518h170l54 -225l16 -108h3l58 323h145l58 -323h3z" />
    <glyph glyph-name="x" unicode="x" horiz-adv-x="525" 
d="M184 0h-180l158 259l-159 259h183l53 -91l21 -65h1l19 67l52 89h188l-162 -257q19 -27 41 -61t44 -69t43 -69t38 -62h-192l-57 95l-17 58h-2l-18 -59z" />
    <glyph glyph-name="y" unicode="y" horiz-adv-x="514" 
d="M466 12q0 -58 -15.5 -101.5t-44 -73t-68 -44t-87.5 -14.5q-47 0 -94 15.5t-93 54.5l67 104q23 -14 48 -22.5t47 -8.5q41 0 60 22.5t19 57.5q-32 -12 -78 -12q-35 0 -67.5 10t-58.5 31t-41.5 54t-15.5 79v354h163v-343q0 -25 16.5 -36t36.5 -11q23 0 40 11v379h166v-506z
" />
    <glyph glyph-name="z" unicode="z" horiz-adv-x="457" 
d="M400 518l33 -47l-183 -321h176v-150h-369l-38 52l182 316h-165v150h364z" />
    <glyph glyph-name="braceleft" unicode="{" horiz-adv-x="351" 
d="M254 418q0 -16 -5 -34t-14.5 -34.5t-23 -30t-29.5 -19.5q35 -13 53.5 -47.5t18.5 -71.5v-118h59v-163h-90q-42 0 -69 10.5t-42.5 30.5t-22 48.5t-6.5 64.5v111q0 21 -11 37t-43 16v163q32 0 43 16t11 36v122q0 35 7 63.5t24.5 49t46 31.5t70.5 11h82v-163h-59v-129z" />
    <glyph glyph-name="bar" unicode="|" horiz-adv-x="269" 
d="M50 -135v859h169v-859h-169z" />
    <glyph glyph-name="braceright" unicode="}" horiz-adv-x="344" 
d="M108 708q51 0 81.5 -11t46 -31.5t20 -49t4.5 -63.5v-120q0 -20 11 -36t44 -16v-163q-33 0 -44 -16t-11 -37v-119q0 -36 -6 -64.5t-23 -48.5t-47 -30.5t-78 -10.5h-67v163h51v126q-1 19 5 38t17 35.5t25.5 28.5t29.5 18q-14 7 -28.5 19t-26 28t-18 34t-4.5 36v127h-51v163
h69z" />
    <glyph glyph-name="asciitilde" unicode="~" horiz-adv-x="488" 
d="M464 306q-15 -25 -32 -47.5t-37 -39t-43 -26.5t-49 -10q-29 0 -51 14.5t-41.5 25t-37 8t-37.5 -35.5l-111 93q15 22 32.5 43t36.5 36.5t41 25t46 9.5q22 0 39.5 -8t33 -18.5t28.5 -19t26 -10t26 8t28 36.5z" />
    <glyph glyph-name="uni00A0" unicode="&#xa0;" horiz-adv-x="182" 
 />
    <glyph glyph-name="exclamdown" unicode="&#xa1;" horiz-adv-x="267" 
d="M233 416q0 -44 -28.5 -72t-71.5 -28q-44 0 -71 28t-27 72q0 42 27 70t71 28q43 0 71.5 -28t28.5 -70zM219 -184h-171v475h171v-475z" />
    <glyph glyph-name="cent" unicode="&#xa2;" horiz-adv-x="478" 
d="M318 514q40 -12 74.5 -42.5t51.5 -89.5l-142 -44q-5 24 -20.5 34.5t-32.5 9.5t-30.5 -12t-13.5 -32v-158q0 -21 13.5 -32t31 -12t34.5 9.5t24 33.5l146 -33q-20 -62 -57 -95t-79 -47v-73h-128v70q-31 7 -58 22.5t-47.5 38t-32.5 53t-12 68.5v151q0 38 12 68.5t32.5 53
t47.5 37.5t58 23v71h128v-73z" />
    <glyph glyph-name="sterling" unicode="&#xa3;" horiz-adv-x="530" 
d="M402 532q-15 17 -35 22t-38 -1t-30.5 -21t-12.5 -39v-70h168v-153h-168v-112h206v-158h-455v158h78v112h-78v153h78v75q0 36 10.5 73.5t35 68t66 50.5t103.5 20q38 0 85.5 -19t85.5 -64z" />
    <glyph glyph-name="currency" unicode="&#xa4;" horiz-adv-x="616" 
d="M80 220q-24 49 -24 111q0 29 6.5 57.5t17.5 53.5l-48 47l114 122l53 -53q25 11 51.5 17t56.5 6q29 0 56.5 -7t52.5 -18l54 54l113 -121l-49 -48q25 -52 25 -110q0 -60 -24 -112l48 -46l-113 -121l-53 53q-26 -14 -52 -19t-58 -5q-27 0 -54.5 5.5t-53.5 17.5
q-6 -6 -15.5 -15t-17.5 -17q-11 -10 -21 -19l-111 118zM208 330q0 -21 8 -39t21.5 -31.5t31.5 -21t38 -7.5t37.5 7.5t31 21t21.5 31.5t8 39t-8 39.5t-21.5 32t-31 21.5t-37.5 8t-38 -8t-31.5 -21.5t-21.5 -32t-8 -39.5z" />
    <glyph glyph-name="yen" unicode="&#xa5;" horiz-adv-x="712" 
d="M540 253h-95v-31h118l-23 -108h-95v-114h-179v114h-109l22 108h87v31h-109l22 108h40l-200 347h208l128 -270l128 270h210l-201 -347h71z" />
    <glyph glyph-name="brokenbar" unicode="&#xa6;" horiz-adv-x="274" 
d="M52 313v347h170v-347h-170zM52 -110v377h170v-377h-170z" />
    <glyph glyph-name="section" unicode="&#xa7;" horiz-adv-x="475" 
d="M153 115q14 -21 33.5 -30.5t37.5 -10t30.5 7.5t12.5 23t-17.5 27.5t-43.5 25.5t-56.5 28t-56.5 35t-43.5 47t-17.5 63q0 34 12 61t38 45q-16 19 -24 42.5t-8 44.5q0 44 17 78.5t44.5 58t63 36t73.5 12.5q47 0 88.5 -23.5t80.5 -82.5l-118 -71q-11 17 -24.5 23t-25.5 3.5
t-20 -12t-8 -22.5q0 -17 16.5 -28.5t41.5 -22.5t53.5 -23.5t53.5 -31t41.5 -46t16.5 -67.5q0 -29 -12.5 -55t-35.5 -45q21 -26 29.5 -53t8.5 -53q0 -36 -16 -69t-43.5 -58t-64 -39.5t-77.5 -14.5q-54 0 -107 29.5t-90 89.5zM289 267q25 26 0 50.5t-94 52.5q-13 -7 -17.5 -16
t-2 -18t11.5 -17.5t22 -13.5z" />
    <glyph glyph-name="dieresis" unicode="&#xa8;" horiz-adv-x="510" 
d="M50 834q0 36 24.5 60.5t59.5 24.5t59.5 -24.5t24.5 -60.5q0 -17 -6.5 -32.5t-18 -26.5t-26.5 -17.5t-33 -6.5t-33 6.5t-26.5 17.5t-18 26.5t-6.5 32.5zM291 834q0 36 23.5 60.5t60.5 24.5q36 0 60.5 -24.5t24.5 -60.5q0 -35 -24.5 -59t-60.5 -24q-37 0 -60.5 24t-23.5 59
z" />
    <glyph glyph-name="copyright" unicode="&#xa9;" horiz-adv-x="778" 
d="M30 351q0 74 28.5 139.5t77.5 114t114.5 77t139.5 28.5t139 -28.5t114 -77t77 -114t28 -139.5t-28 -139.5t-77 -114.5t-114 -77t-139 -28t-139.5 28t-114.5 77t-77.5 114.5t-28.5 139.5zM133 351q0 -53 20 -100t55 -82t81.5 -55t100.5 -20q53 0 99.5 20t81 55t54.5 82
t20 100q0 54 -20 100.5t-54.5 81t-81 54.5t-99.5 20q-54 0 -100.5 -20t-81.5 -54.5t-55 -81t-20 -100.5zM198 404q0 42 16.5 73.5t43.5 52t61.5 30.5t70.5 10q28 0 57.5 -7t55.5 -22t46 -39t30 -59l-94 -36q-7 23 -22 37t-34.5 20.5t-41 5.5t-39.5 -9t-31 -22t-15 -34v-113
q2 -20 15 -34t31 -22t39.5 -9t41 5.5t34.5 20.5t22 37l96 -36q-10 -35 -30.5 -59t-46.5 -39t-56 -22t-58 -7q-36 0 -70.5 10t-61.5 30.5t-43.5 52t-16.5 73.5v111z" />
    <glyph glyph-name="ordfeminine" unicode="&#xaa;" horiz-adv-x="372" 
d="M37 626q30 45 79 63.5t96.5 10.5t82 -41.5t34.5 -91.5v-233q-48 -13 -101 -19t-97 3.5t-72.5 39.5t-28.5 88q0 44 20 70.5t49.5 38.5t62.5 12t59 -8q-1 20 -15.5 30t-34.5 11.5t-41.5 -5.5t-36.5 -21zM214 471q-11 4 -23.5 5t-24 -2t-19.5 -11t-9 -20q0 -16 8 -25
t19.5 -13t24.5 -3.5t24 3.5v66z" />
    <glyph glyph-name="guillemotleft" unicode="&#xab;" horiz-adv-x="612" 
d="M324 438l-103 -151l104 -153l-147 -86l-159 239l160 237zM582 438l-104 -153l106 -150l-147 -87l-160 239l160 237z" />
    <glyph glyph-name="logicalnot" unicode="&#xac;" horiz-adv-x="577" 
d="M40 429h487v-301h-168v132h-319v169z" />
    <glyph glyph-name="uni00AD" unicode="&#xad;" horiz-adv-x="408" 
d="M361 161h-313v171h313v-171z" />
    <glyph glyph-name="registered" unicode="&#xae;" horiz-adv-x="778" 
d="M30 351q0 74 28.5 139.5t77.5 114t114.5 77t139.5 28.5t139 -28.5t114 -77t77 -114t28 -139.5t-28 -139.5t-77 -114.5t-114 -77t-139 -28t-139.5 28t-114.5 77t-77.5 114.5t-28.5 139.5zM137 351q0 -53 20 -99t54.5 -81t81 -55t99.5 -20q52 0 98 20t80.5 55t54.5 81
t20 99t-20 99t-54.5 80.5t-80.5 54.5t-98 20q-53 0 -99.5 -20t-81 -54.5t-54.5 -80.5t-20 -99zM244 527h162q40 0 68.5 -14t45 -36.5t21.5 -49.5t-1 -53t-23.5 -48t-45.5 -33l86 -124h-116l-78 117h-21v-117h-98v358zM403 366q20 0 29.5 12t9.5 26t-10.5 26t-29.5 12h-60
v-76h61z" />
    <glyph glyph-name="macron" unicode="&#xaf;" horiz-adv-x="397" 
d="M50 892h297v-134h-297v134z" />
    <glyph glyph-name="degree" unicode="&#xb0;" horiz-adv-x="377" 
d="M189 392q-34 0 -64 13t-52.5 35.5t-35.5 52.5t-13 64t13 64t35.5 52.5t52.5 35t64 12.5t63.5 -12.5t52 -35t35.5 -52.5t13 -64t-13 -64t-35.5 -52.5t-52.5 -35.5t-63 -13zM189 507q22 0 36 14t14 34t-14 36t-36 16t-36 -16t-14 -36t14 -34t36 -14z" />
    <glyph glyph-name="plusminus" unicode="&#xb1;" horiz-adv-x="539" 
d="M183 652h170v-132h141v-170h-141v-131h-170v131h-138v170h138v132zM495 13h-451v168h451v-168z" />
    <glyph glyph-name="twosuperior" unicode="&#xb2;" horiz-adv-x="398" 
d="M34 611q30 48 69 67.5t85 19.5q37 0 67 -12.5t51 -33.5t32.5 -48.5t11.5 -57.5q0 -31 -11 -59t-41 -54l-59 -56h119v-131h-301l-28 76l155 176q22 25 21.5 43.5t-13.5 24.5t-32 -1.5t-34 -32.5z" />
    <glyph glyph-name="threesuperior" unicode="&#xb3;" horiz-adv-x="374" 
d="M182 532q11 0 17 9t5 19.5t-9.5 19.5t-24.5 8t-29.5 -8t-21.5 -17l-76 64q30 32 57 50t67 20q43 2 79 -17t55 -49.5t16 -68t-39 -71.5q31 -14 46 -37t17.5 -48.5t-7.5 -51.5t-28 -47q-29 -33 -70 -46t-82.5 -8t-78 28t-55.5 63l91 57q9 -16 25 -23t32.5 -6t28.5 10t12 25
q0 8 -7 17.5t-19 7.5h-51v100h50z" />
    <glyph glyph-name="acute" unicode="&#xb4;" horiz-adv-x="386" 
d="M255 756h-155l100 166h186z" />
    <glyph glyph-name="mu" unicode="&#xb5;" horiz-adv-x="528" 
d="M330 37q-13 -20 -28 -29t-30.5 -9t-29.5 9t-24 26v-206h-171v688h171v-310q0 -25 14 -37.5t31 -13t31 12t14 37.5v311h172l2 -518l-146 1z" />
    <glyph glyph-name="paragraph" unicode="&#xb6;" horiz-adv-x="661" 
d="M228 218q-51 7 -89 29.5t-64 54.5t-39 71.5t-13 80.5q0 45 15 88t46 76.5t76.5 54t107.5 20.5h336v-776h-168v614h-40v-614h-168v301z" />
    <glyph glyph-name="periodcentered" unicode="&#xb7;" horiz-adv-x="264" 
d="M33 303q0 42 27.5 71.5t72.5 29.5q43 0 70.5 -29.5t27.5 -71.5t-27.5 -70t-70.5 -28q-45 0 -72.5 28t-27.5 70z" />
    <glyph glyph-name="cedilla" unicode="&#xb8;" horiz-adv-x="385" 
d="M261 -31q33 -9 51.5 -29t23.5 -44.5t-3 -51t-26 -48.5t-46.5 -36t-64.5 -14q-33 0 -70.5 10t-75.5 41l32 86q16 -11 34 -19t34 -10.5t27.5 2t15.5 18.5q5 17 -16 33t-60 19l51 114h125z" />
    <glyph glyph-name="onesuperior" unicode="&#xb9;" horiz-adv-x="291" 
d="M8 570l126 137h107v-441h-134v262l-49 -28z" />
    <glyph glyph-name="ordmasculine" unicode="&#xba;" horiz-adv-x="410" 
d="M205 298q-32 0 -62.5 9.5t-55 28t-39.5 46.5t-15 65v120q0 37 15 65t39.5 47t55 28t62.5 9q31 0 62 -9t55.5 -28t39.5 -47t15 -65v-120q0 -37 -15 -65t-39.5 -46.5t-55.5 -28t-62 -9.5zM168 447q0 -17 11.5 -25.5t25.5 -8.5t25.5 8t11.5 26v119q0 18 -12 26.5t-25.5 8.5
t-25 -8.5t-11.5 -25.5v-120z" />
    <glyph glyph-name="guillemotright" unicode="&#xbb;" horiz-adv-x="602" 
d="M28 134l105 153l-103 151l144 87l161 -238l-159 -238zM279 135l103 152l-104 152l147 85l159 -237l-160 -239z" />
    <glyph glyph-name="onequarter" unicode="&#xbc;" horiz-adv-x="830" 
d="M237 -45l-117 70l422 694l117 -70zM254 272h-134v262l-49 -28l-50 70l126 137h107v-441zM761 468v-264h36v-117h-36v-87h-134v87h-161l-58 90l240 291h113zM639 200l2 93l-4 1l-82 -94h84z" />
    <glyph glyph-name="onehalf" unicode="&#xbd;" horiz-adv-x="857" 
d="M243 -45l-115 71l422 693l116 -70zM254 272h-134v262l-49 -28l-50 70l126 137h107v-441zM507 356q29 46 68 65t84 19q37 0 66.5 -12t50.5 -32.5t32 -47t11 -55.5q0 -30 -11 -57t-40 -52l-59 -54h112v-127h-291l-28 74l153 170q22 24 21.5 41.5t-13.5 23.5t-32 -1t-33 -31
z" />
    <glyph glyph-name="threequarters" unicode="&#xbe;" horiz-adv-x="860" 
d="M295 -45l-113 71l422 693l113 -70zM140 438v103h53q12 0 17.5 9.5t4.5 20.5t-9.5 20t-25.5 8t-31 -8.5t-22 -17.5l-80 66q31 33 60 51.5t70 20.5q45 2 83 -17.5t58 -51t16.5 -70t-41.5 -73.5q33 -15 48.5 -38.5t18 -50t-7.5 -53t-29 -47.5q-31 -34 -74 -48t-86.5 -8.5
t-81.5 29t-58 65.5l95 58q9 -17 26 -24t34.5 -5.5t30 10.5t12.5 25q0 9 -7 18.5t-20 7.5h-54zM690 452h105v-255h35v-113h-35v-84h-118v84h-163l-56 87zM600 193h81l2 90l-4 1z" />
    <glyph glyph-name="questiondown" unicode="&#xbf;" horiz-adv-x="487" 
d="M372 435q0 -40 -26.5 -65t-64.5 -25t-64 25t-26 65q0 19 7 35.5t19 29t28.5 19.5t35.5 7q38 0 64.5 -26.5t26.5 -64.5zM468 -84q-31 -58 -75.5 -89.5t-94 -40.5t-98.5 2.5t-88 41t-63.5 74.5t-24.5 102q0 33 10 65.5t31 59.5t53.5 46.5t77.5 25.5l10 113h150l10 -224
q-32 13 -62 13.5t-53 -10t-37 -31t-14 -47.5t20 -43.5t47.5 -19.5t55.5 8.5t43 40.5z" />
    <glyph glyph-name="Agrave" unicode="&#xc0;" horiz-adv-x="648" 
d="M271 756l-131 166h186l100 -166h-155zM657 0h-192l-46 142h-189l-44 -142h-192l247 708h163zM376 301l-49 207h-5l-52 -207h106z" />
    <glyph glyph-name="Aacute" unicode="&#xc1;" horiz-adv-x="648" 
d="M376 756h-155l100 166h186zM657 0h-192l-46 142h-189l-44 -142h-192l247 708h163zM376 301l-49 207h-5l-52 -207h106z" />
    <glyph glyph-name="Acircumflex" unicode="&#xc2;" horiz-adv-x="648" 
d="M532 756h-162l-46 52l-44 -52h-169l154 168h117zM657 0h-192l-46 142h-189l-44 -142h-192l247 708h163zM376 301l-49 207h-5l-52 -207h106z" />
    <glyph glyph-name="Atilde" unicode="&#xc3;" horiz-adv-x="648" 
d="M132 798q23 121 127 118q22 0 43.5 -11.5t40.5 -19t35 -4.5t28 31l91 -52q-14 -56 -40.5 -85t-63.5 -28q-30 0 -55.5 11.5t-46.5 19t-39 4t-33 -32.5zM657 0h-192l-46 142h-189l-44 -142h-192l247 708h163zM376 301l-49 207h-5l-52 -207h106z" />
    <glyph glyph-name="Adieresis" unicode="&#xc4;" horiz-adv-x="648" 
d="M119 834q0 36 24.5 60.5t59.5 24.5t59.5 -24.5t24.5 -60.5q0 -17 -6.5 -32.5t-18 -26.5t-26.5 -17.5t-33 -6.5t-33 6.5t-26.5 17.5t-18 26.5t-6.5 32.5zM360 834q0 36 23.5 60.5t60.5 24.5q36 0 60.5 -24.5t24.5 -60.5q0 -35 -24.5 -59t-60.5 -24q-37 0 -60.5 24
t-23.5 59zM404 708h-163l-247 -708h192l44 142h189l46 -142h192zM270 301l52 207h5l49 -207h-106z" />
    <glyph glyph-name="Aring" unicode="&#xc5;" horiz-adv-x="648" 
d="M419 142h-189l-44 -142h-192l240 688q-19 17 -29.5 41t-10.5 52q0 27 10 50.5t28 41t42 28t51 10.5t50.5 -11t41 -29.5t27 -42t9.5 -48.5q0 -27 -11 -51.5t-30 -41.5l245 -687h-192zM325 819q-18 0 -28 -12t-10 -28q0 -11 10 -23t28 -12q15 0 25.5 9t10.5 26
q0 16 -10.5 28t-25.5 12zM322 508l-52 -207h106l-49 207h-5z" />
    <glyph glyph-name="AE" unicode="&#xc6;" horiz-adv-x="834" 
d="M549 532v-93h220v-173h-220v-95h245v-171h-415v192h-108l-69 -192h-215l302 708h505v-176h-245zM388 345l4 180h-8l-68 -180h72z" />
    <glyph glyph-name="Ccedilla" unicode="&#xc7;" horiz-adv-x="582" 
d="M573 149q-33 -66 -83 -101.5t-104 -49.5l-13 -29q33 -9 51.5 -29t23.5 -44.5t-3 -51t-26 -48.5t-46.5 -36t-64.5 -14q-33 0 -70.5 10t-75.5 41l32 86q16 -11 34 -19t34 -10.5t27.5 2t15.5 18.5q5 17 -16 33t-60 19l31 69q-44 7 -84 25.5t-70.5 48.5t-48.5 70.5t-18 92.5
v244q0 60 24 105.5t63.5 75.5t90.5 45.5t104 15.5q33 0 68 -8t68 -26.5t62.5 -50t50.5 -78.5l-146 -59q-18 33 -52.5 46.5t-68.5 9.5t-59.5 -23.5t-25.5 -52.5v-244q0 -32 25.5 -51.5t59.5 -22.5t66.5 11.5t47.5 51.5z" />
    <glyph glyph-name="Egrave" unicode="&#xc8;" 
d="M256 756l-131 166h186l100 -166h-155zM237 430h287v-155h-287v-106h312v-169h-493v708h493v-168h-312v-110z" />
    <glyph glyph-name="Eacute" unicode="&#xc9;" 
d="M361 756h-155l100 166h186zM237 430h287v-155h-287v-106h312v-169h-493v708h493v-168h-312v-110z" />
    <glyph glyph-name="Ecircumflex" unicode="&#xca;" 
d="M517 756h-162l-46 52l-44 -52h-169l154 168h117zM237 430h287v-155h-287v-106h312v-169h-493v708h493v-168h-312v-110z" />
    <glyph glyph-name="Edieresis" unicode="&#xcb;" 
d="M104 834q0 36 24.5 60.5t59.5 24.5t59.5 -24.5t24.5 -60.5q0 -17 -6.5 -32.5t-18 -26.5t-26.5 -17.5t-33 -6.5t-33 6.5t-26.5 17.5t-18 26.5t-6.5 32.5zM345 834q0 36 23.5 60.5t60.5 24.5q36 0 60.5 -24.5t24.5 -60.5q0 -35 -24.5 -59t-60.5 -24q-37 0 -60.5 24
t-23.5 59zM237 540h312v168h-493v-708h493v169h-312v106h287v155h-287v110z" />
    <glyph glyph-name="Igrave" unicode="&#xcc;" horiz-adv-x="291" 
d="M93 756l-131 166h186l100 -166h-155zM235 0h-179v708h179v-708z" />
    <glyph glyph-name="Iacute" unicode="&#xcd;" horiz-adv-x="291" 
d="M198 756h-155l100 166h186zM235 0h-179v708h179v-708z" />
    <glyph glyph-name="Icircumflex" unicode="&#xce;" horiz-adv-x="291" 
d="M344 756h-162l-36 50l-34 -50h-169l144 168h117zM235 0h-179v708h179v-708z" />
    <glyph glyph-name="Idieresis" unicode="&#xcf;" horiz-adv-x="291" 
d="M-43 834q0 36 24.5 60.5t59.5 24.5t59.5 -24.5t24.5 -60.5q0 -17 -6.5 -32.5t-18 -26.5t-26.5 -17.5t-33 -6.5t-33 6.5t-26.5 17.5t-18 26.5t-6.5 32.5zM168 834q0 36 23.5 60.5t60.5 24.5q36 0 60.5 -24.5t24.5 -60.5q0 -35 -24.5 -59t-60.5 -24q-37 0 -60.5 24
t-23.5 59zM235 0h-179v708h179v-708z" />
    <glyph glyph-name="Eth" unicode="&#xd0;" horiz-adv-x="642" 
d="M62 708h286q54 0 100 -13.5t80.5 -42t54 -72.5t19.5 -106v-241q0 -61 -19.5 -105t-54 -72.5t-80.5 -42t-100 -13.5h-286v285h-48v143h48v280zM348 176q35 0 54.5 14t19.5 43v241q0 29 -19.5 43.5t-54.5 14.5h-105v-104h83v-143h-83v-109h105z" />
    <glyph glyph-name="Ntilde" unicode="&#xd1;" horiz-adv-x="676" 
d="M151 794q23 121 127 118q22 0 43.5 -11.5t40.5 -19t35 -4.5t28 31l91 -52q-14 -56 -40.5 -85t-63.5 -28q-30 0 -55.5 11.5t-46.5 19t-39 4t-33 -32.5zM56 708h170l171 -302l60 -142l5 1l-3 19t-7 42t-7 42l-3 19v321h178v-708h-181l-160 279l-62 142l-5 -1l23 -137v-283
h-179v708z" />
    <glyph glyph-name="Ograve" unicode="&#xd2;" horiz-adv-x="665" 
d="M279 758l-131 166h186l100 -166h-155zM39 475q0 61 25 106.5t66.5 76t94 45.5t107.5 15t108 -15t94 -45.5t66.5 -76t25.5 -106.5v-242q0 -61 -25 -106.5t-66.5 -76t-94 -45.5t-107.5 -15t-108 15t-94 45.5t-66.5 76t-25.5 106.5v242zM218 233q0 -20 10 -34t26 -24
t37 -14.5t42 -4.5t41.5 5t36.5 14.5t26 24t10 33.5v242q0 21 -10 36t-26.5 24.5t-37.5 14.5t-43 5q-21 0 -41 -5t-36 -15.5t-25.5 -25.5t-9.5 -34v-242z" />
    <glyph glyph-name="Oacute" unicode="&#xd3;" horiz-adv-x="665" 
d="M384 758h-155l100 166h186zM39 475q0 61 25 106.5t66.5 76t94 45.5t107.5 15t108 -15t94 -45.5t66.5 -76t25.5 -106.5v-242q0 -61 -25 -106.5t-66.5 -76t-94 -45.5t-107.5 -15t-108 15t-94 45.5t-66.5 76t-25.5 106.5v242zM218 233q0 -20 10 -34t26 -24t37 -14.5t42 -4.5
t41.5 5t36.5 14.5t26 24t10 33.5v242q0 21 -10 36t-26.5 24.5t-37.5 14.5t-43 5q-21 0 -41 -5t-36 -15.5t-25.5 -25.5t-9.5 -34v-242z" />
    <glyph glyph-name="Ocircumflex" unicode="&#xd4;" horiz-adv-x="665" 
d="M540 758h-162l-46 52l-44 -52h-169l154 168h117zM39 475q0 61 25 106.5t66.5 76t94 45.5t107.5 15t108 -15t94 -45.5t66.5 -76t25.5 -106.5v-242q0 -61 -25 -106.5t-66.5 -76t-94 -45.5t-107.5 -15t-108 15t-94 45.5t-66.5 76t-25.5 106.5v242zM218 233q0 -20 10 -34
t26 -24t37 -14.5t42 -4.5t41.5 5t36.5 14.5t26 24t10 33.5v242q0 21 -10 36t-26.5 24.5t-37.5 14.5t-43 5q-21 0 -41 -5t-36 -15.5t-25.5 -25.5t-9.5 -34v-242z" />
    <glyph glyph-name="Otilde" unicode="&#xd5;" horiz-adv-x="665" 
d="M143 796q23 121 127 118q22 0 43.5 -11.5t40.5 -19t35 -4.5t28 31l91 -52q-14 -56 -40.5 -85t-63.5 -28q-30 0 -55.5 11.5t-46.5 19t-39 4t-33 -32.5zM39 475q0 61 25 106.5t66.5 76t94 45.5t107.5 15t108 -15t94 -45.5t66.5 -76t25.5 -106.5v-242q0 -61 -25 -106.5
t-66.5 -76t-94 -45.5t-107.5 -15t-108 15t-94 45.5t-66.5 76t-25.5 106.5v242zM218 233q0 -20 10 -34t26 -24t37 -14.5t42 -4.5t41.5 5t36.5 14.5t26 24t10 33.5v242q0 21 -10 36t-26.5 24.5t-37.5 14.5t-43 5q-21 0 -41 -5t-36 -15.5t-25.5 -25.5t-9.5 -34v-242z" />
    <glyph glyph-name="Odieresis" unicode="&#xd6;" horiz-adv-x="665" 
d="M127 836q0 36 24.5 60.5t59.5 24.5t59.5 -24.5t24.5 -60.5q0 -17 -6.5 -32.5t-18 -26.5t-26.5 -17.5t-33 -6.5t-33 6.5t-26.5 17.5t-18 26.5t-6.5 32.5zM368 836q0 36 23.5 60.5t60.5 24.5q36 0 60.5 -24.5t24.5 -60.5q0 -35 -24.5 -59t-60.5 -24q-37 0 -60.5 24
t-23.5 59zM39 233q0 -61 25.5 -106.5t66.5 -76t94 -45.5t108 -15t107.5 15t94 45.5t66.5 76t25 106.5v242q0 61 -25.5 106.5t-66.5 76t-94 45.5t-108 15t-107.5 -15t-94 -45.5t-66.5 -76t-25 -106.5v-242zM218 475q0 19 9.5 34t25.5 25.5t36 15.5t41 5q22 0 43 -5
t37.5 -14.5t26.5 -24.5t10 -36v-242q0 -19 -10 -33.5t-26 -24t-36.5 -14.5t-41.5 -5t-42 4.5t-37 14.5t-26 24t-10 34v242z" />
    <glyph glyph-name="multiply" unicode="&#xd7;" horiz-adv-x="536" 
d="M390 534l119 -122l-119 -119l119 -120l-120 -120l-120 120q-29 -30 -62 -62t-61 -61l-117 121l120 120l-124 125l120 119l123 -123z" />
    <glyph glyph-name="Oslash" unicode="&#xd8;" horiz-adv-x="665" 
d="M535 657q42 -31 66.5 -76t24.5 -106v-242q0 -61 -25 -106.5t-66.5 -76t-94 -45.5t-107.5 -15q-25 0 -47 3l-39 -96l-158 56l42 98q-42 30 -67 75.5t-25 106.5v242q0 61 25 106.5t66.5 76t94 45.5t107.5 15q25 0 49 -3l36 93l157 -52zM447 475q0 21 -10 36t-26.5 24.5
t-37.5 14.5t-43 5q-21 0 -41 -5t-36 -15.5t-25.5 -25.5t-9.5 -34v-242q0 -20 10 -34t26 -24t37 -14.5t42 -4.5t41.5 5t36.5 14.5t26 24t10 33.5v242z" />
    <glyph glyph-name="Ugrave" unicode="&#xd9;" horiz-adv-x="667" 
d="M282 756l-131 166h186l100 -166h-155zM233 237q0 -29 15 -48t37.5 -28.5t48.5 -9.5t48.5 10t38 28.5t15.5 47.5v471h181v-471q0 -62 -24.5 -109t-64.5 -78t-90.5 -46.5t-103.5 -15.5t-104 15.5t-90.5 46.5t-63.5 78t-24 109v471h181v-471z" />
    <glyph glyph-name="Uacute" unicode="&#xda;" horiz-adv-x="667" 
d="M387 756h-155l100 166h186zM233 237q0 -29 15 -48t37.5 -28.5t48.5 -9.5t48.5 10t38 28.5t15.5 47.5v471h181v-471q0 -62 -24.5 -109t-64.5 -78t-90.5 -46.5t-103.5 -15.5t-104 15.5t-90.5 46.5t-63.5 78t-24 109v471h181v-471z" />
    <glyph glyph-name="Ucircumflex" unicode="&#xdb;" horiz-adv-x="667" 
d="M543 756h-162l-46 52l-44 -52h-169l154 168h117zM233 237q0 -29 15 -48t37.5 -28.5t48.5 -9.5t48.5 10t38 28.5t15.5 47.5v471h181v-471q0 -62 -24.5 -109t-64.5 -78t-90.5 -46.5t-103.5 -15.5t-104 15.5t-90.5 46.5t-63.5 78t-24 109v471h181v-471z" />
    <glyph glyph-name="Udieresis" unicode="&#xdc;" horiz-adv-x="667" 
d="M130 834q0 36 24.5 60.5t59.5 24.5t59.5 -24.5t24.5 -60.5q0 -17 -6.5 -32.5t-18 -26.5t-26.5 -17.5t-33 -6.5t-33 6.5t-26.5 17.5t-18 26.5t-6.5 32.5zM371 834q0 36 23.5 60.5t60.5 24.5q36 0 60.5 -24.5t24.5 -60.5q0 -35 -24.5 -59t-60.5 -24q-37 0 -60.5 24
t-23.5 59zM233 708h-181v-471q0 -62 24 -109t63.5 -78t90.5 -46.5t104 -15.5t103.5 15.5t90.5 46.5t64.5 78t24.5 109v471h-181v-471q0 -29 -15.5 -47.5t-38 -28.5t-48.5 -10t-48.5 9.5t-37.5 28.5t-15 48v471z" />
    <glyph glyph-name="Yacute" unicode="&#xdd;" horiz-adv-x="655" 
d="M376 756h-155l100 166h186zM238 0v279l-247 429h208l128 -260l128 260h210l-248 -429v-279h-179z" />
    <glyph glyph-name="Thorn" unicode="&#xde;" horiz-adv-x="556" 
d="M247 602q143 0 217.5 -60t74.5 -180q0 -69 -26 -114.5t-68.5 -72t-97 -37.5t-110.5 -11v-126h-181v714h181v-113h10zM237 285q43 -5 71 6t42.5 29.5t14 41t-14.5 41.5t-42.5 30t-70.5 6v-154z" />
    <glyph glyph-name="germandbls" unicode="&#xdf;" horiz-adv-x="576" 
d="M48 507q-1 52 19.5 92t53.5 66t76 39.5t87 13.5q43 0 84 -12.5t73.5 -38t52 -64.5t19.5 -91q0 -15 -3 -34.5t-11 -39.5t-22.5 -40t-37.5 -35q45 -17 71 -49.5t35 -72.5t1.5 -81t-28.5 -74q-15 -24 -36.5 -42t-47.5 -30t-55 -18t-58 -6q-35 0 -72 9v158q22 -11 43.5 -9.5
t37.5 11.5t26 27t10 36q0 29 -21 44.5t-51 15.5h-45v152q43 -9 66 9.5t27 44.5t-11.5 49t-48.5 23q-25 0 -45 -15t-20 -45v-500h-169v507z" />
    <glyph glyph-name="agrave" unicode="&#xe0;" horiz-adv-x="483" 
d="M193 565l-126 159h179l96 -159h-149zM218 323q12 0 29.5 -1t30.5 -3q1 22 -4.5 36.5t-15.5 22.5t-23 11.5t-27 3.5q-27 0 -48.5 -10t-41.5 -27l-78 79q36 49 88 71t108 22q40 0 77 -11t65.5 -34t45.5 -57.5t17 -82.5v-318q-50 -18 -102 -26.5t-98 -8.5
q-111 0 -164.5 45.5t-53.5 126.5q0 33 12 62.5t36.5 51.5t61 34.5t85.5 12.5zM276 209q-17 5 -33.5 4.5t-30.5 -6.5t-22.5 -17t-8.5 -27q0 -20 9.5 -30.5t23.5 -14.5t30.5 -3t31.5 5v89z" />
    <glyph glyph-name="aacute" unicode="&#xe1;" horiz-adv-x="483" 
d="M284 565h-149l96 159h179zM218 323q12 0 29.5 -1t30.5 -3q1 22 -4.5 36.5t-15.5 22.5t-23 11.5t-27 3.5q-27 0 -48.5 -10t-41.5 -27l-78 79q36 49 88 71t108 22q40 0 77 -11t65.5 -34t45.5 -57.5t17 -82.5v-318q-50 -18 -102 -26.5t-98 -8.5q-111 0 -164.5 45.5
t-53.5 126.5q0 33 12 62.5t36.5 51.5t61 34.5t85.5 12.5zM276 209q-17 5 -33.5 4.5t-30.5 -6.5t-22.5 -17t-8.5 -27q0 -20 9.5 -30.5t23.5 -14.5t30.5 -3t31.5 5v89z" />
    <glyph glyph-name="acircumflex" unicode="&#xe2;" horiz-adv-x="483" 
d="M444 565h-156l-44 49l-42 -49h-163l148 161h113zM218 323q12 0 29.5 -1t30.5 -3q1 22 -4.5 36.5t-15.5 22.5t-23 11.5t-27 3.5q-27 0 -48.5 -10t-41.5 -27l-78 79q36 49 88 71t108 22q40 0 77 -11t65.5 -34t45.5 -57.5t17 -82.5v-318q-50 -18 -102 -26.5t-98 -8.5
q-111 0 -164.5 45.5t-53.5 126.5q0 33 12 62.5t36.5 51.5t61 34.5t85.5 12.5zM276 209q-17 5 -33.5 4.5t-30.5 -6.5t-22.5 -17t-8.5 -27q0 -20 9.5 -30.5t23.5 -14.5t30.5 -3t31.5 5v89z" />
    <glyph glyph-name="atilde" unicode="&#xe3;" horiz-adv-x="483" 
d="M67 605q11 58 42 86.5t80 26.5q21 0 41.5 -11t39 -18t34 -4t26.5 30l88 -50q-14 -54 -39.5 -82t-60.5 -27q-29 0 -53.5 11t-45 18.5t-37.5 4t-31 -31.5zM218 323q12 0 29.5 -1t30.5 -3q1 22 -4.5 36.5t-15.5 22.5t-23 11.5t-27 3.5q-27 0 -48.5 -10t-41.5 -27l-78 79
q36 49 88 71t108 22q40 0 77 -11t65.5 -34t45.5 -57.5t17 -82.5v-318q-50 -18 -102 -26.5t-98 -8.5q-111 0 -164.5 45.5t-53.5 126.5q0 33 12 62.5t36.5 51.5t61 34.5t85.5 12.5zM276 209q-17 5 -33.5 4.5t-30.5 -6.5t-22.5 -17t-8.5 -27q0 -20 9.5 -30.5t23.5 -14.5
t30.5 -3t31.5 5v89z" />
    <glyph glyph-name="adieresis" unicode="&#xe4;" horiz-adv-x="483" 
d="M50 644q0 35 23.5 59t58.5 24t59 -24t24 -59q0 -34 -24 -57.5t-59 -23.5t-58.5 23.5t-23.5 57.5zM266 644q0 35 23.5 59t59.5 24q35 0 59 -24t24 -59q0 -34 -24 -57.5t-59 -23.5q-36 0 -59.5 23.5t-23.5 57.5zM218 323q-49 0 -85.5 -12.5t-61 -34.5t-36.5 -51.5
t-12 -62.5q0 -81 53.5 -126.5t164.5 -45.5q46 0 98 8.5t102 26.5v318q0 48 -17 82.5t-45.5 57.5t-65.5 34t-77 11q-56 0 -108 -22t-88 -71l78 -79q20 17 41.5 27t48.5 10q14 0 27 -3.5t23 -11.5t15.5 -22.5t4.5 -36.5q-13 2 -30.5 3t-29.5 1zM276 120q-15 -4 -31.5 -5
t-30.5 3t-23.5 14.5t-9.5 30.5q0 16 8.5 27t22.5 17t30.5 6.5t33.5 -4.5v-89z" />
    <glyph glyph-name="aring" unicode="&#xe5;" horiz-adv-x="483" 
d="M114 681q0 27 10.5 50t28.5 40t42.5 26.5t51.5 9.5t51 -10.5t41.5 -28t27.5 -40.5t10 -48q0 -26 -10.5 -48.5t-28 -39t-41 -26.5t-50.5 -10t-51.5 9.5t-42.5 26t-28.5 39.5t-10.5 50zM283 679q0 16 -10.5 28t-25.5 12q-18 0 -28 -12t-10 -28q0 -11 10 -23t28 -12
q15 0 25.5 9t10.5 26zM218 323q12 0 29.5 -1t30.5 -3q1 22 -4.5 36.5t-15.5 22.5t-23 11.5t-27 3.5q-27 0 -48.5 -10t-41.5 -27l-78 79q36 49 88 71t108 22q40 0 77 -11t65.5 -34t45.5 -57.5t17 -82.5v-318q-50 -18 -102 -26.5t-98 -8.5q-111 0 -164.5 45.5t-53.5 126.5
q0 33 12 62.5t36.5 51.5t61 34.5t85.5 12.5zM276 209q-17 5 -33.5 4.5t-30.5 -6.5t-22.5 -17t-8.5 -27q0 -20 9.5 -30.5t23.5 -14.5t30.5 -3t31.5 5v89z" />
    <glyph glyph-name="ae" unicode="&#xe6;" horiz-adv-x="707" 
d="M429 181q0 -17 11.5 -32t29 -20.5t39 0.5t41.5 31l99 -79q-73 -91 -167 -91q-35 0 -68 11.5t-62 39.5q-23 -29 -60.5 -40t-74.5 -11t-72 9.5t-62 31t-43.5 55.5t-16.5 82q0 33 11.5 62.5t35.5 51t60 34t85 12.5q12 0 27.5 -1t28.5 -3q0 27 -15.5 43.5t-38.5 21t-49.5 -3
t-47.5 -28.5l-79 75q33 49 80.5 72.5t102.5 23.5q17 0 35.5 -3.5t36.5 -10t33.5 -17t25.5 -24.5q29 29 61 42t70 13q37 0 72 -12.5t61.5 -37t42.5 -60.5t16 -82v-147h-249v-8zM531 342q0 21 -16.5 31.5t-36 10.5t-36 -10.5t-16.5 -32.5v-44h105v45zM285 217q-17 6 -36 5
t-35 -7.5t-26 -18.5t-10 -29q0 -31 26.5 -46.5t91.5 2.5q-5 14 -8 27t-3 32v35z" />
    <glyph glyph-name="ccedilla" unicode="&#xe7;" horiz-adv-x="462" 
d="M449 142q-20 -62 -58.5 -96t-80.5 -47l-18 -39q32 -8 50.5 -27.5t24.5 -43t-0.5 -49t-23 -46.5t-42.5 -34.5t-61 -13.5q-32 0 -68 9.5t-72 39.5l30 82q16 -11 33.5 -18.5t32.5 -9.5t26 2t15 18q5 17 -13.5 34t-66.5 17l32 75q-31 6 -59 20t-49 35.5t-33.5 52.5t-12.5 72
v163q0 48 18.5 83.5t48.5 59t68 35.5t77 12q26 0 55 -6.5t55.5 -23t48 -43.5t33.5 -69l-142 -44q-5 23 -20 33.5t-32 10.5t-31 -11.5t-14 -32.5v-166q0 -21 14 -32.5t33 -11.5q17 0 33 10t23 33z" />
    <glyph glyph-name="egrave" unicode="&#xe8;" horiz-adv-x="479" 
d="M197 565l-126 159h179l96 -159h-149zM189 180q0 -29 22 -44t51 -15q20 0 41.5 8t37.5 27l94 -76q-20 -28 -43 -45.5t-47 -27.5t-48.5 -13.5t-46.5 -3.5q-40 0 -78.5 11.5t-69 35.5t-49 59.5t-18.5 83.5v162q0 48 18.5 83.5t48.5 58t68 33.5t78 11q39 0 75 -11.5
t64.5 -34.5t45.5 -59t17 -84v-140h-261v-19zM304 347q0 23 -17.5 34t-38.5 11q-22 0 -39.5 -12t-17.5 -36v-34h113v37z" />
    <glyph glyph-name="eacute" unicode="&#xe9;" horiz-adv-x="479" 
d="M298 565h-149l96 159h179zM189 180q0 -29 22 -44t51 -15q20 0 41.5 8t37.5 27l94 -76q-20 -28 -43 -45.5t-47 -27.5t-48.5 -13.5t-46.5 -3.5q-40 0 -78.5 11.5t-69 35.5t-49 59.5t-18.5 83.5v162q0 48 18.5 83.5t48.5 58t68 33.5t78 11q39 0 75 -11.5t64.5 -34.5
t45.5 -59t17 -84v-140h-261v-19zM304 347q0 23 -17.5 34t-38.5 11q-22 0 -39.5 -12t-17.5 -36v-34h113v37z" />
    <glyph glyph-name="ecircumflex" unicode="&#xea;" horiz-adv-x="479" 
d="M448 565h-156l-44 49l-42 -49h-163l148 161h113zM189 180q0 -29 22 -44t51 -15q20 0 41.5 8t37.5 27l94 -76q-20 -28 -43 -45.5t-47 -27.5t-48.5 -13.5t-46.5 -3.5q-40 0 -78.5 11.5t-69 35.5t-49 59.5t-18.5 83.5v162q0 48 18.5 83.5t48.5 58t68 33.5t78 11
q39 0 75 -11.5t64.5 -34.5t45.5 -59t17 -84v-140h-261v-19zM304 347q0 23 -17.5 34t-38.5 11q-22 0 -39.5 -12t-17.5 -36v-34h113v37z" />
    <glyph glyph-name="edieresis" unicode="&#xeb;" horiz-adv-x="479" 
d="M49 644q0 36 24.5 60.5t59.5 24.5t59.5 -24.5t24.5 -60.5q0 -17 -6.5 -32.5t-18 -26.5t-26.5 -17.5t-33 -6.5t-33 6.5t-26.5 17.5t-18 26.5t-6.5 32.5zM271 644q0 36 23.5 60.5t60.5 24.5q36 0 60.5 -24.5t24.5 -60.5q0 -35 -24.5 -59t-60.5 -24q-37 0 -60.5 24t-23.5 59
zM189 199h261v140q0 48 -17 84t-45.5 59t-64.5 34.5t-75 11.5q-40 0 -78 -11t-68 -33.5t-48.5 -58t-18.5 -83.5v-162q0 -48 18.5 -83.5t49 -59.5t69 -35.5t78.5 -11.5q22 0 46.5 3.5t48.5 13.5t47 27.5t43 45.5l-94 76q-16 -19 -37.5 -27t-41.5 -8q-29 0 -51 15t-22 44v19z
M304 310h-113v34q0 24 17.5 36t39.5 12q21 0 38.5 -11t17.5 -34v-37z" />
    <glyph glyph-name="igrave" unicode="&#xec;" horiz-adv-x="268" 
d="M93 566l-121 166h166l100 -166h-145zM220 0h-172v518h172v-518z" />
    <glyph glyph-name="iacute" unicode="&#xed;" horiz-adv-x="268" 
d="M178 566h-145l100 166h166zM220 0h-172v518h172v-518z" />
    <glyph glyph-name="icircumflex" unicode="&#xee;" horiz-adv-x="268" 
d="M318 566h-152l-30 39l-28 -39h-159l128 168h117zM220 0h-172v518h172v-518z" />
    <glyph glyph-name="idieresis" unicode="&#xef;" horiz-adv-x="268" 
d="M-48 629q0 32 23.5 54.5t57.5 22.5q35 0 58.5 -22.5t23.5 -54.5t-23.5 -53.5t-58.5 -21.5q-34 0 -57.5 21.5t-23.5 53.5zM146 629q0 32 23 54.5t59 22.5q35 0 58.5 -22.5t23.5 -54.5t-23.5 -53.5t-58.5 -21.5q-36 0 -59 21.5t-23 53.5zM220 0h-172v518h172v-518z" />
    <glyph glyph-name="eth" unicode="&#xf0;" horiz-adv-x="504" 
d="M318 696q29 -10 54.5 -28.5t44 -45.5t29.5 -62.5t11 -79.5v-446q-40 -19 -92 -31.5t-106 -12.5q-43 0 -83 9.5t-71 31t-49.5 56.5t-18.5 86v176q0 64 30 103t78 59q15 6 33.5 9t38 3t38 -3t34.5 -9q2 20 -5.5 35.5t-18.5 24.5l-12 -30l-68 22l11 26q-37 -3 -64 -21
l-59 80q35 30 77.5 45.5t87.5 15.5l20 53l75 -28zM288 381q-12 7 -27 10t-28.5 -0.5t-22.5 -13.5t-9 -29v-179q0 -19 9.5 -30t23.5 -15.5t28.5 -2.5t25.5 9v251z" />
    <glyph glyph-name="ntilde" unicode="&#xf1;" horiz-adv-x="512" 
d="M79 601q11 58 42 86.5t80 26.5q21 0 41.5 -11t39 -18t34 -4t26.5 30l88 -50q-14 -54 -39.5 -82t-60.5 -27q-29 0 -53.5 11t-45 18.5t-37.5 4t-31 -31.5zM47 486q41 20 89.5 31t99.5 11q45 0 87 -10t74.5 -33.5t52 -60.5t19.5 -91v-333h-168v332q0 26 -15 37t-35 11
t-35 -6v-374h-169v486z" />
    <glyph glyph-name="ograve" unicode="&#xf2;" horiz-adv-x="493" 
d="M195 565l-126 159h179l96 -159h-149zM35 337q0 48 18 83.5t47.5 59.5t67.5 36t78 12q39 0 77 -12t68 -36t48.5 -59.5t18.5 -83.5v-164q0 -46 -18 -80t-48 -57t-68 -34.5t-78 -11.5t-78 12t-67.5 34.5t-47.5 57t-18 79.5v164zM246 378q-15 0 -30.5 -10t-15.5 -28v-169
q0 -18 14.5 -28.5t31.5 -10.5t31.5 10.5t14.5 28.5v169q0 18 -15.5 28t-30.5 10z" />
    <glyph glyph-name="oacute" unicode="&#xf3;" horiz-adv-x="493" 
d="M296 565h-149l96 159h179zM35 337q0 48 18 83.5t47.5 59.5t67.5 36t78 12q39 0 77 -12t68 -36t48.5 -59.5t18.5 -83.5v-164q0 -46 -18 -80t-48 -57t-68 -34.5t-78 -11.5t-78 12t-67.5 34.5t-47.5 57t-18 79.5v164zM246 378q-15 0 -30.5 -10t-15.5 -28v-169
q0 -18 14.5 -28.5t31.5 -10.5t31.5 10.5t14.5 28.5v169q0 18 -15.5 28t-30.5 10z" />
    <glyph glyph-name="ocircumflex" unicode="&#xf4;" horiz-adv-x="493" 
d="M446 565h-156l-44 49l-42 -49h-163l148 161h113zM35 337q0 48 18 83.5t47.5 59.5t67.5 36t78 12q39 0 77 -12t68 -36t48.5 -59.5t18.5 -83.5v-164q0 -46 -18 -80t-48 -57t-68 -34.5t-78 -11.5t-78 12t-67.5 34.5t-47.5 57t-18 79.5v164zM246 378q-15 0 -30.5 -10
t-15.5 -28v-169q0 -18 14.5 -28.5t31.5 -10.5t31.5 10.5t14.5 28.5v169q0 18 -15.5 28t-30.5 10z" />
    <glyph glyph-name="otilde" unicode="&#xf5;" horiz-adv-x="493" 
d="M61 602q23 119 124 116q22 0 42.5 -11.5t39.5 -19t35 -4.5t28 31l89 -51q-14 -55 -40 -83.5t-62 -27.5q-30 0 -55 11t-46 18.5t-38 4.5t-32 -32zM35 337q0 48 18 83.5t47.5 59.5t67.5 36t78 12q39 0 77 -12t68 -36t48.5 -59.5t18.5 -83.5v-164q0 -46 -18 -80t-48 -57
t-68 -34.5t-78 -11.5t-78 12t-67.5 34.5t-47.5 57t-18 79.5v164zM246 378q-15 0 -30.5 -10t-15.5 -28v-169q0 -18 14.5 -28.5t31.5 -10.5t31.5 10.5t14.5 28.5v169q0 18 -15.5 28t-30.5 10z" />
    <glyph glyph-name="odieresis" unicode="&#xf6;" horiz-adv-x="493" 
d="M51 644q0 36 24.5 60.5t59.5 24.5t59.5 -24.5t24.5 -60.5q0 -17 -6.5 -32.5t-18 -26.5t-26.5 -17.5t-33 -6.5t-33 6.5t-26.5 17.5t-18 26.5t-6.5 32.5zM272 644q0 36 23.5 60.5t60.5 24.5q36 0 60.5 -24.5t24.5 -60.5q0 -35 -24.5 -59t-60.5 -24q-37 0 -60.5 24t-23.5 59
zM35 173q0 -45 18 -79.5t47.5 -57t67.5 -34.5t78 -12t78 11.5t68 34.5t48 57t18 80v164q0 48 -18.5 83.5t-48.5 59.5t-68 36t-77 12q-40 0 -78 -12t-67.5 -36t-47.5 -59.5t-18 -83.5v-164zM246 378q15 0 30.5 -10t15.5 -28v-169q0 -18 -14.5 -28.5t-31.5 -10.5t-31.5 10.5
t-14.5 28.5v169q0 18 15.5 28t30.5 10z" />
    <glyph glyph-name="divide" unicode="&#xf7;" horiz-adv-x="509" 
d="M481 374v-152h-454v152h454zM162 98q0 40 27 65t67 25t67.5 -25t27.5 -65t-27.5 -65.5t-67.5 -25.5t-67 25.5t-27 65.5zM162 499q0 40 27 65t67 25t67.5 -25t27.5 -65t-27.5 -65.5t-67.5 -25.5t-67 25.5t-27 65.5z" />
    <glyph glyph-name="oslash" unicode="&#xf8;" horiz-adv-x="493" 
d="M390 481q30 -23 49 -59t19 -85v-164q0 -46 -18 -80t-48 -57t-68 -34.5t-78 -11.5q-8 0 -15.5 0.5t-15.5 1.5l-24 -59l-105 32l25 64q-34 23 -55 59t-21 85v164q0 48 18 83.5t47.5 59.5t67.5 36t78 12q19 0 39 -3l21 59l109 -33zM292 340q0 18 -15.5 28t-30.5 10
t-30.5 -10t-15.5 -28v-169q0 -18 14.5 -28.5t31.5 -10.5t31.5 10.5t14.5 28.5v169z" />
    <glyph glyph-name="ugrave" unicode="&#xf9;" horiz-adv-x="513" 
d="M203 566l-131 166h186l100 -166h-155zM466 32q-40 -20 -89 -31t-98 -11q-46 0 -88.5 9.5t-75 32.5t-52 60t-19.5 93v333h168v-332q0 -26 16.5 -37t36.5 -11q17 0 32 6v374h169v-486z" />
    <glyph glyph-name="uacute" unicode="&#xfa;" horiz-adv-x="513" 
d="M308 566h-155l100 166h186zM466 32q-40 -20 -89 -31t-98 -11q-46 0 -88.5 9.5t-75 32.5t-52 60t-19.5 93v333h168v-332q0 -26 16.5 -37t36.5 -11q17 0 32 6v374h169v-486z" />
    <glyph glyph-name="ucircumflex" unicode="&#xfb;" horiz-adv-x="513" 
d="M464 566h-162l-46 52l-44 -52h-169l154 168h117zM466 32q-40 -20 -89 -31t-98 -11q-46 0 -88.5 9.5t-75 32.5t-52 60t-19.5 93v333h168v-332q0 -26 16.5 -37t36.5 -11q17 0 32 6v374h169v-486z" />
    <glyph glyph-name="udieresis" unicode="&#xfc;" horiz-adv-x="513" 
d="M51 644q0 36 24.5 60.5t59.5 24.5t59.5 -24.5t24.5 -60.5q0 -17 -6.5 -32.5t-18 -26.5t-26.5 -17.5t-33 -6.5t-33 6.5t-26.5 17.5t-18 26.5t-6.5 32.5zM292 644q0 36 23.5 60.5t60.5 24.5q36 0 60.5 -24.5t24.5 -60.5q0 -35 -24.5 -59t-60.5 -24q-37 0 -60.5 24t-23.5 59
zM466 518h-169v-374q-15 -6 -32 -6q-20 0 -36.5 11t-16.5 37v332h-168v-333q0 -56 19.5 -93t52 -60t75 -32.5t88.5 -9.5q49 0 98 11t89 31v486z" />
    <glyph glyph-name="yacute" unicode="&#xfd;" horiz-adv-x="514" 
d="M306 566h-155l100 166h186zM466 12q0 -58 -15.5 -101.5t-44 -73t-68 -44t-87.5 -14.5q-47 0 -94 15.5t-93 54.5l67 104q23 -14 48 -22.5t47 -8.5q41 0 60 22.5t19 57.5q-32 -12 -78 -12q-35 0 -67.5 10t-58.5 31t-41.5 54t-15.5 79v354h163v-343q0 -25 16.5 -36t36.5 -11
q23 0 40 11v379h166v-506z" />
    <glyph glyph-name="thorn" unicode="&#xfe;" horiz-adv-x="507" 
d="M216 520q12 3 25 5.5t25 2.5q39 0 76.5 -8.5t66 -29.5t46 -55t17.5 -85v-169q0 -47 -18 -82.5t-48 -59.5t-67.5 -36.5t-76.5 -12.5q-11 0 -22.5 2t-23.5 5v-155h-168v866h168v-188zM216 136q12 -6 27 -8.5t28.5 1t22.5 14t9 31.5v169q0 21 -9 32t-22.5 14.5t-28.5 1.5
t-27 -7v-248z" />
    <glyph glyph-name="ydieresis" unicode="&#xff;" horiz-adv-x="514" 
d="M49 644q0 36 24.5 60.5t59.5 24.5t59.5 -24.5t24.5 -60.5q0 -17 -6.5 -32.5t-18 -26.5t-26.5 -17.5t-33 -6.5t-33 6.5t-26.5 17.5t-18 26.5t-6.5 32.5zM290 644q0 36 23.5 60.5t60.5 24.5q36 0 60.5 -24.5t24.5 -60.5q0 -35 -24.5 -59t-60.5 -24q-37 0 -60.5 24t-23.5 59
zM466 518h-166v-379q-17 -11 -40 -11q-20 0 -36.5 11t-16.5 36v343h-163v-354q0 -46 15.5 -79t41.5 -54t58.5 -31t67.5 -10q46 0 78 12q0 -35 -19 -57.5t-60 -22.5q-22 0 -47 8.5t-48 22.5l-67 -104q46 -39 93 -54.5t94 -15.5q48 0 87.5 14.5t68 44t44 73t15.5 101.5v506z
" />
    <glyph glyph-name="Amacron" unicode="&#x100;" horiz-adv-x="648" 
d="M174 892h297v-134h-297v134zM657 0h-192l-46 142h-189l-44 -142h-192l247 708h163zM376 301l-49 207h-5l-52 -207h106z" />
    <glyph glyph-name="amacron" unicode="&#x101;" horiz-adv-x="483" 
d="M102 703h285v-126h-285v126zM218 323q12 0 29.5 -1t30.5 -3q1 22 -4.5 36.5t-15.5 22.5t-23 11.5t-27 3.5q-27 0 -48.5 -10t-41.5 -27l-78 79q36 49 88 71t108 22q40 0 77 -11t65.5 -34t45.5 -57.5t17 -82.5v-318q-50 -18 -102 -26.5t-98 -8.5q-111 0 -164.5 45.5
t-53.5 126.5q0 33 12 62.5t36.5 51.5t61 34.5t85.5 12.5zM276 209q-17 5 -33.5 4.5t-30.5 -6.5t-22.5 -17t-8.5 -27q0 -20 9.5 -30.5t23.5 -14.5t30.5 -3t31.5 5v89z" />
    <glyph glyph-name="Abreve" unicode="&#x102;" horiz-adv-x="648" 
d="M497 922q0 -58 -26 -96.5t-65 -58t-84 -19.5t-84 19.5t-65 58t-26 96.5h137q0 -19 12 -28.5t27 -9.5t27 9.5t12 28.5h135zM404 708h-163l-247 -708h192l44 142h189l46 -142h192zM270 301l52 207h5l49 -207h-106z" />
    <glyph glyph-name="abreve" unicode="&#x103;" horiz-adv-x="483" 
d="M410 723q0 -56 -25 -93t-62 -55.5t-81 -18.5t-81 18.5t-62 55.5t-25 93h132q0 -18 11.5 -27.5t26 -9.5t26 9.5t11.5 27.5h129zM218 323q-49 0 -85.5 -12.5t-61 -34.5t-36.5 -51.5t-12 -62.5q0 -81 53.5 -126.5t164.5 -45.5q46 0 98 8.5t102 26.5v318q0 48 -17 82.5
t-45.5 57.5t-65.5 34t-77 11q-56 0 -108 -22t-88 -71l78 -79q20 17 41.5 27t48.5 10q14 0 27 -3.5t23 -11.5t15.5 -22.5t4.5 -36.5q-13 2 -30.5 3t-29.5 1zM276 120q-15 -4 -31.5 -5t-30.5 3t-23.5 14.5t-9.5 30.5q0 16 8.5 27t22.5 17t30.5 6.5t33.5 -4.5v-89z" />
    <glyph glyph-name="Aogonek" unicode="&#x104;" horiz-adv-x="648" 
d="M703 -204q-26 -21 -57.5 -30.5t-57.5 -9.5q-51 0 -83 20t-42 54t3 78t53 92h-54l-46 142h-189l-44 -142h-192l247 708h163l253 -708q-24 -22 -36.5 -42.5t-14.5 -35.5t6 -24t23 -9q18 0 40 14zM376 301l-49 207h-5l-52 -207h106z" />
    <glyph glyph-name="aogonek" unicode="&#x105;" horiz-adv-x="484" 
d="M472 -204q-26 -21 -57.5 -30.5t-57.5 -9.5q-51 0 -81.5 21.5t-39 55.5t7.5 76.5t59 84.5q-16 -2 -31.5 -3t-30.5 -1q-111 0 -164.5 48t-53.5 129q0 50 23 83t59.5 51t81 22t87.5 -2q1 41 -19 56t-52 15q-22 0 -44.5 -9t-40.5 -26l-79 75q34 49 86.5 72.5t108.5 23.5
q40 0 77 -11t66 -33.5t46.5 -57.5t17.5 -83v-318q-24 -22 -39 -46t-20 -44t0.5 -33t21.5 -13q18 0 40 14zM276 216q-17 5 -33.5 4.5t-30.5 -6.5t-22.5 -17.5t-8.5 -27.5q0 -20 9.5 -31.5t23.5 -16.5t30.5 -5t31.5 4v96z" />
    <glyph glyph-name="Cacute" unicode="&#x106;" horiz-adv-x="582" 
d="M373 756h-155l100 166h186zM573 149q-22 -43 -52 -73.5t-64 -49.5t-70 -27.5t-69 -8.5q-52 0 -102 15t-89.5 45.5t-63.5 76t-24 105.5v244q0 60 24 105.5t63.5 75.5t90.5 45.5t104 15.5q33 0 68 -8t68 -26.5t62.5 -50t50.5 -78.5l-146 -59q-18 33 -52.5 46.5t-68.5 9.5
t-59.5 -23.5t-25.5 -52.5v-244q0 -32 25.5 -51.5t59.5 -22.5t66.5 11.5t47.5 51.5z" />
    <glyph glyph-name="cacute" unicode="&#x107;" horiz-adv-x="462" 
d="M299 566h-155l100 166h186zM449 142q-14 -44 -37.5 -73t-51 -46.5t-57.5 -25t-56 -7.5q-39 0 -77 10t-68 32t-48.5 57.5t-18.5 85.5v163q0 48 18.5 83.5t48.5 59t68 35.5t77 12q26 0 55 -6.5t55.5 -23t48 -43.5t33.5 -69l-142 -44q-5 23 -20 33.5t-32 10.5t-31 -11.5
t-14 -32.5v-166q0 -21 14 -32.5t33 -11.5q17 0 33 10t23 33z" />
    <glyph glyph-name="Cdotaccent" unicode="&#x10a;" horiz-adv-x="582" 
d="M222 851q0 20 7.5 38t21 31t31.5 20.5t39 7.5q42 0 69.5 -28t27.5 -69q0 -42 -27.5 -70t-69.5 -28q-21 0 -39 7.5t-31.5 21t-21 31t-7.5 38.5zM573 149q-22 -43 -52 -73.5t-64 -49.5t-70 -27.5t-69 -8.5q-52 0 -102 15t-89.5 45.5t-63.5 76t-24 105.5v244q0 60 24 105.5
t63.5 75.5t90.5 45.5t104 15.5q33 0 68 -8t68 -26.5t62.5 -50t50.5 -78.5l-146 -59q-18 33 -52.5 46.5t-68.5 9.5t-59.5 -23.5t-25.5 -52.5v-244q0 -32 25.5 -51.5t59.5 -22.5t66.5 11.5t47.5 51.5z" />
    <glyph glyph-name="cdotaccent" unicode="&#x10b;" horiz-adv-x="462" 
d="M148 661q0 20 7.5 38t21 31t31.5 20.5t39 7.5q42 0 69.5 -28t27.5 -69q0 -42 -27.5 -70t-69.5 -28q-21 0 -39 7.5t-31.5 21t-21 31t-7.5 38.5zM449 142q-14 -44 -37.5 -73t-51 -46.5t-57.5 -25t-56 -7.5q-39 0 -77 10t-68 32t-48.5 57.5t-18.5 85.5v163q0 48 18.5 83.5
t48.5 59t68 35.5t77 12q26 0 55 -6.5t55.5 -23t48 -43.5t33.5 -69l-142 -44q-5 23 -20 33.5t-32 10.5t-31 -11.5t-14 -32.5v-166q0 -21 14 -32.5t33 -11.5q17 0 33 10t23 33z" />
    <glyph glyph-name="Ccaron" unicode="&#x10c;" horiz-adv-x="582" 
d="M280 924l41 -52l46 52h167l-150 -168h-122l-150 168h168zM573 149q-22 -43 -52 -73.5t-64 -49.5t-70 -27.5t-69 -8.5q-52 0 -102 15t-89.5 45.5t-63.5 76t-24 105.5v244q0 60 24 105.5t63.5 75.5t90.5 45.5t104 15.5q33 0 68 -8t68 -26.5t62.5 -50t50.5 -78.5l-146 -59
q-18 33 -52.5 46.5t-68.5 9.5t-59.5 -23.5t-25.5 -52.5v-244q0 -32 25.5 -51.5t59.5 -22.5t66.5 11.5t47.5 51.5z" />
    <glyph glyph-name="ccaron" unicode="&#x10d;" horiz-adv-x="462" 
d="M206 734l41 -52l46 52h167l-150 -168h-122l-150 168h168zM449 142q-14 -44 -37.5 -73t-51 -46.5t-57.5 -25t-56 -7.5q-39 0 -77 10t-68 32t-48.5 57.5t-18.5 85.5v163q0 48 18.5 83.5t48.5 59t68 35.5t77 12q26 0 55 -6.5t55.5 -23t48 -43.5t33.5 -69l-142 -44
q-5 23 -20 33.5t-32 10.5t-31 -11.5t-14 -32.5v-166q0 -21 14 -32.5t33 -11.5q17 0 33 10t23 33z" />
    <glyph glyph-name="Dcaron" unicode="&#x10e;" horiz-adv-x="636" 
d="M248 924l41 -52l46 52h167l-150 -168h-122l-150 168h168zM321 708q53 0 102.5 -14t88 -43t61.5 -73.5t23 -106.5v-238q0 -61 -23 -105.5t-61.5 -73t-88 -41.5t-102.5 -13h-265v708h265zM327 168q46 0 67.5 21t21.5 56v221q0 35 -22 55t-67 20h-91v-373h91z" />
    <glyph glyph-name="dcaron" unicode="&#x10f;" horiz-adv-x="613" 
d="M461 32q-46 -17 -101.5 -29.5t-111.5 -12.5q-42 0 -80.5 9t-67.5 30t-46.5 56t-17.5 87v173q0 42 16 76t42.5 58t62 36.5t74.5 12.5q31 0 60 -9v189h170v-676zM622 502h-137l39 204h151zM291 383q-8 3 -17.5 5t-20.5 2q-20 0 -35 -12t-15 -35v-173q0 -26 17.5 -37
t38.5 -11q17 0 32 5v256z" />
    <glyph glyph-name="Dcroat" unicode="&#x110;" horiz-adv-x="642" 
d="M62 708h286q54 0 100 -13.5t80.5 -42t54 -72.5t19.5 -106v-241q0 -61 -19.5 -105t-54 -72.5t-80.5 -42t-100 -13.5h-286v285h-48v143h48v280zM348 176q35 0 54.5 14t19.5 43v241q0 29 -19.5 43.5t-54.5 14.5h-105v-104h83v-143h-83v-109h105z" />
    <glyph glyph-name="dcroat" unicode="&#x111;" horiz-adv-x="508" 
d="M461 32q-46 -17 -101.5 -29.5t-111.5 -12.5q-42 0 -80.5 9t-67.5 30t-46.5 56t-17.5 87v173q0 42 16 76t42.5 58t62 36.5t74.5 12.5q31 0 60 -9v54h-80v86h80v49h170v-49h47v-86h-47v-541zM291 383q-8 3 -17.5 5t-20.5 2q-20 0 -35 -12t-15 -35v-173q0 -26 17.5 -37
t38.5 -11q17 0 32 5v256z" />
    <glyph glyph-name="Emacron" unicode="&#x112;" 
d="M159 892h297v-134h-297v134zM237 430h287v-155h-287v-106h312v-169h-493v708h493v-168h-312v-110z" />
    <glyph glyph-name="emacron" unicode="&#x113;" horiz-adv-x="479" 
d="M104 695h285v-123h-285v123zM189 180q0 -29 22 -44t51 -15q20 0 41.5 8t37.5 27l94 -76q-20 -28 -43 -45.5t-47 -27.5t-48.5 -13.5t-46.5 -3.5q-40 0 -78.5 11.5t-69 35.5t-49 59.5t-18.5 83.5v162q0 48 18.5 83.5t48.5 58t68 33.5t78 11q39 0 75 -11.5t64.5 -34.5
t45.5 -59t17 -84v-140h-261v-19zM304 347q0 23 -17.5 34t-38.5 11q-22 0 -39.5 -12t-17.5 -36v-34h113v37z" />
    <glyph glyph-name="Edotaccent" unicode="&#x116;" 
d="M210 851q0 20 7.5 38t21 31t31.5 20.5t39 7.5q42 0 69.5 -28t27.5 -69q0 -42 -27.5 -70t-69.5 -28q-21 0 -39 7.5t-31.5 21t-21 31t-7.5 38.5zM237 430h287v-155h-287v-106h312v-169h-493v708h493v-168h-312v-110z" />
    <glyph glyph-name="edotaccent" unicode="&#x117;" horiz-adv-x="479" 
d="M153 656q0 39 27 66t68 27t67 -27t26 -66q0 -40 -26 -67t-67 -27t-68 27t-27 67zM189 180q0 -29 22 -44t51 -15q20 0 41.5 8t37.5 27l94 -76q-20 -28 -43 -45.5t-47 -27.5t-48.5 -13.5t-46.5 -3.5q-40 0 -78.5 11.5t-69 35.5t-49 59.5t-18.5 83.5v162q0 48 18.5 83.5
t48.5 58t68 33.5t78 11q39 0 75 -11.5t64.5 -34.5t45.5 -59t17 -84v-140h-261v-19zM304 347q0 23 -17.5 34t-38.5 11q-22 0 -39.5 -12t-17.5 -36v-34h113v37z" />
    <glyph glyph-name="Eogonek" unicode="&#x118;" 
d="M596 -204q-26 -21 -57.5 -30.5t-57.5 -9.5q-51 0 -83 20t-42 54t3 78t53 92h-356v708h493v-168h-312v-110h287v-155h-287v-106h312v-169q-24 -23 -36 -43.5t-14 -35.5t6 -23.5t23 -8.5q18 0 40 14z" />
    <glyph glyph-name="eogonek" unicode="&#x119;" horiz-adv-x="480" 
d="M189 180q0 -29 21 -44t50 -15q20 0 41 8t37 27l94 -76q-24 -34 -56 -55q-25 -20 -39 -43.5t-18.5 -44.5t1.5 -34.5t22 -13.5q18 0 40 14l28 -107q-26 -21 -57.5 -30.5t-57.5 -9.5q-50 0 -80 21t-39 55t4 75.5t49 83.5q-37 3 -72 16t-62 36.5t-43.5 57.5t-16.5 79v162
q0 48 18.5 83.5t48.5 58t68 33.5t78 11q39 0 75.5 -11.5t65 -34.5t46 -59t17.5 -84v-140h-263v-19zM304 347q0 23 -17.5 34t-38.5 11q-22 0 -39.5 -12t-17.5 -36v-34h113v37z" />
    <glyph glyph-name="Ecaron" unicode="&#x11a;" 
d="M268 924l41 -52l46 52h167l-150 -168h-122l-150 168h168zM237 430h287v-155h-287v-106h312v-169h-493v708h493v-168h-312v-110z" />
    <glyph glyph-name="ecaron" unicode="&#x11b;" horiz-adv-x="479" 
d="M209 726l39 -50l45 50h160l-144 -161h-117l-145 161h162zM189 180q0 -29 22 -44t51 -15q20 0 41.5 8t37.5 27l94 -76q-20 -28 -43 -45.5t-47 -27.5t-48.5 -13.5t-46.5 -3.5q-40 0 -78.5 11.5t-69 35.5t-49 59.5t-18.5 83.5v162q0 48 18.5 83.5t48.5 58t68 33.5t78 11
q39 0 75 -11.5t64.5 -34.5t45.5 -59t17 -84v-140h-261v-19zM304 347q0 23 -17.5 34t-38.5 11q-22 0 -39.5 -12t-17.5 -36v-34h113v37z" />
    <glyph glyph-name="Gbreve" unicode="&#x11e;" horiz-adv-x="623" 
d="M492 922q0 -58 -26 -96.5t-65 -58t-84 -19.5t-84 19.5t-65 58t-26 96.5h137q0 -19 12 -28.5t27 -9.5t27 9.5t12 28.5h135zM565 567q-18 42 -46 71t-61 47t-69 25.5t-70 7.5q-53 0 -103 -15t-89.5 -45t-63.5 -75t-24 -105v-243q0 -61 24 -107t63.5 -76.5t89.5 -46
t103 -15.5t103 15.5t89 46t62.5 76.5t23.5 107v176h-285v-150h113v-26q0 -28 -15.5 -46t-38.5 -27.5t-49.5 -9.5t-49.5 9t-38.5 27.5t-15.5 46.5v243q0 23 12 40t30.5 27.5t41.5 13t44.5 -3t40 -19.5t28.5 -38z" />
    <glyph glyph-name="gbreve" unicode="&#x11f;" horiz-adv-x="504" 
d="M435 732q0 -58 -26 -96.5t-65 -58t-84 -19.5t-84 19.5t-65 58t-26 96.5h137q0 -19 12 -28.5t27 -9.5t27 9.5t12 28.5h135zM37 164q0 -46 16 -79t41.5 -54t58.5 -31t68 -10q46 0 78 12q0 -78 -79 -78q-22 0 -46.5 7t-47.5 21l-63 -110q44 -35 89.5 -48t92.5 -13
q48 0 87 13.5t66.5 41.5t43 72t15.5 106v470q-39 19 -89.5 31.5t-104.5 12.5q-44 0 -84.5 -9t-72 -30.5t-50.5 -56.5t-19 -87v-181zM294 132q-17 -11 -40 -11q-20 0 -36.5 11t-16.5 36v183q0 26 17 38t40 12q21 0 36 -10v-259z" />
    <glyph glyph-name="Gdotaccent" unicode="&#x120;" horiz-adv-x="623" 
d="M220 851q0 20 7.5 38t21 31t31.5 20.5t39 7.5q42 0 69.5 -28t27.5 -69q0 -42 -27.5 -70t-69.5 -28q-21 0 -39 7.5t-31.5 21t-21 31t-7.5 38.5zM415 498q-10 24 -28.5 38t-40 19.5t-44.5 3t-41.5 -13t-30.5 -27.5t-12 -40v-243q0 -28 15.5 -46.5t38.5 -27.5t49.5 -9
t49.5 9.5t38.5 27.5t15.5 46v26h-113v150h285v-176q0 -61 -23.5 -107t-62.5 -76.5t-89 -46t-103 -15.5t-103 15.5t-89.5 46t-63.5 76.5t-24 107v243q0 60 24 105t63.5 75t89.5 45t103 15q34 0 70 -7.5t69 -25.5t61 -47t46 -71z" />
    <glyph glyph-name="gdotaccent" unicode="&#x121;" horiz-adv-x="504" 
d="M169 664q0 38 27 64t69 26t68 -26t26 -64t-26.5 -64.5t-67.5 -26.5t-68.5 26.5t-27.5 64.5zM37 345q0 52 19 87t50.5 56.5t72 30.5t84.5 9q54 0 104.5 -12.5t89.5 -31.5v-470q0 -62 -15.5 -106t-43 -72t-66.5 -41.5t-87 -13.5q-47 0 -92.5 13t-89.5 48l63 110
q23 -14 47.5 -21t46.5 -7q79 0 79 78q-32 -12 -78 -12q-35 0 -68 10t-58.5 31t-41.5 54t-16 79v181zM294 391q-15 10 -36 10q-23 0 -40 -12t-17 -38v-183q0 -25 16.5 -36t36.5 -11q23 0 40 11v259z" />
    <glyph glyph-name="Gcommaaccent" unicode="&#x122;" horiz-adv-x="623" 
d="M415 498q-10 24 -28.5 38t-40 19.5t-44.5 3t-41.5 -13t-30.5 -27.5t-12 -40v-243q0 -28 15.5 -46.5t38.5 -27.5t49.5 -9t49.5 9.5t38.5 27.5t15.5 46v26h-113v150h285v-176q0 -61 -23.5 -107t-62.5 -76.5t-89 -46t-103 -15.5t-103 15.5t-89.5 46t-63.5 76.5t-24 107v243
q0 60 24 105t63.5 75t89.5 45t103 15q34 0 70 -7.5t69 -25.5t61 -47t46 -71zM353 -250h-163l61 204h177z" />
    <glyph glyph-name="gcommaaccent" unicode="&#x123;" horiz-adv-x="504" 
d="M243 762h153l-57 -190h-167zM37 345q0 52 19 87t50.5 56.5t72 30.5t84.5 9q54 0 104.5 -12.5t89.5 -31.5v-470q0 -62 -15.5 -106t-43 -72t-66.5 -41.5t-87 -13.5q-47 0 -92.5 13t-89.5 48l63 110q23 -14 47.5 -21t46.5 -7q79 0 79 78q-32 -12 -78 -12q-35 0 -68 10
t-58.5 31t-41.5 54t-16 79v181zM294 391q-15 10 -36 10q-23 0 -40 -12t-17 -38v-183q0 -25 16.5 -36t36.5 -11q23 0 40 11v259z" />
    <glyph glyph-name="Hbar" unicode="&#x126;" horiz-adv-x="697" 
d="M631 0h-180v267h-204v-267h-180v518h-59v104h59v86h180v-86h204v86h180v-86h58v-104h-58v-518zM247 440h204v78h-204v-78z" />
    <glyph glyph-name="hbar" unicode="&#x127;" horiz-adv-x="514" 
d="M284 528q40 0 74 -12.5t59 -36.5t39.5 -60t14.5 -82v-337h-168v338q0 23 -15 32.5t-35 9.5q-22 0 -37 -9v-371h-168v565h-46v89h46v54h168v-54h94v-89h-94v-47q33 10 68 10z" />
    <glyph glyph-name="Imacron" unicode="&#x12a;" horiz-adv-x="291" 
d="M-4 892h297v-134h-297v134zM235 0h-179v708h179v-708z" />
    <glyph glyph-name="imacron" unicode="&#x12b;" horiz-adv-x="268" 
d="M-14 702h297v-134h-297v134zM220 0h-172v518h172v-518z" />
    <glyph glyph-name="Iogonek" unicode="&#x12e;" horiz-adv-x="291" 
d="M280 -204q-26 -21 -57.5 -30.5t-57.5 -9.5q-51 0 -83 20t-42 54t3 78t53 92h-40v708h179v-708q-22 -19 -34.5 -39t-15.5 -36t4 -26t23 -10q18 0 40 14z" />
    <glyph glyph-name="iogonek" unicode="&#x12f;" horiz-adv-x="268" 
d="M41 644q0 39 27 66t68 27t67 -27t26 -66q0 -40 -26 -67t-67 -27t-68 27t-27 67zM262 -204q-26 -21 -57.5 -30.5t-57.5 -9.5q-51 0 -84 19t-43.5 52t3 77.5t55.5 95.5h-30v518h172v-518q-25 -19 -38.5 -38.5t-16.5 -36t4.5 -26.5t24.5 -10q18 0 40 14z" />
    <glyph glyph-name="Idotaccent" unicode="&#x130;" horiz-adv-x="291" 
d="M47 851q0 20 7.5 38t21 31t31.5 20.5t39 7.5q42 0 69.5 -28t27.5 -69q0 -42 -27.5 -70t-69.5 -28q-21 0 -39 7.5t-31.5 21t-21 31t-7.5 38.5zM235 0h-179v708h179v-708z" />
    <glyph glyph-name="dotlessi" unicode="&#x131;" horiz-adv-x="268" 
d="M220 0h-172v518h172v-518z" />
    <glyph glyph-name="IJ" unicode="&#x132;" horiz-adv-x="878" 
d="M235 0h-179v708h179v-708zM463 243q8 -43 38 -61.5t63 -18.5t59.5 18.5t26.5 49.5v315h-161v162h338v-477q0 -58 -23 -103t-61 -75.5t-86.5 -46.5t-99.5 -16q-46 0 -90 13t-80 40t-61 68t-32 97z" />
    <glyph glyph-name="ij" unicode="&#x133;" horiz-adv-x="529" 
d="M34 639q0 32 14.5 52.5t36 31t46.5 10t46.5 -11t36 -31t14.5 -51.5t-14.5 -51.5t-36 -31t-46.5 -11t-46.5 10t-36 31t-14.5 52.5zM216 518v-518h-168v518h168zM299 641q0 32 14.5 52.5t36 31t46.5 10t46.5 -11t36 -31t14.5 -51.5t-14.5 -51.5t-36 -31t-46.5 -11t-46.5 10
t-36 31t-14.5 52.5zM236 -44q19 -5 33 -1.5t23.5 11t14.5 18.5t5 23v511h169v-513q0 -50 -18.5 -91.5t-51.5 -69.5t-78 -38.5t-97 3.5v147z" />
    <glyph glyph-name="Kcommaaccent" unicode="&#x136;" horiz-adv-x="640" 
d="M428 708h223l-280 -342l279 -366h-227l-181 253l-6 -8v-245h-180v708h180v-262zM362 -254h-163l61 204h177z" />
    <glyph glyph-name="kcommaaccent" unicode="&#x137;" horiz-adv-x="509" 
d="M320 518h190l-188 -251l187 -267h-198l-102 166v-166h-161v708h161v-351zM298 -252h-159l60 200h173z" />
    <glyph glyph-name="Lacute" unicode="&#x139;" horiz-adv-x="538" 
d="M200 756h-155l100 166h186zM56 708h180v-531h288v-177h-468v708z" />
    <glyph glyph-name="lacute" unicode="&#x13a;" horiz-adv-x="295" 
d="M184 756h-155l100 166h186zM288 -2q-15 -4 -29 -6t-28 -2q-41 0 -75.5 13t-59.5 38t-39 62t-14 84v521h169v-519q0 -19 11 -33t40 -14q11 0 25 3v-147z" />
    <glyph glyph-name="Lcommaaccent" unicode="&#x13b;" horiz-adv-x="538" 
d="M56 708h180v-531h288v-177h-468v708zM331 -254h-163l61 204h177z" />
    <glyph glyph-name="lcommaaccent" unicode="&#x13c;" horiz-adv-x="295" 
d="M288 -2q-15 -4 -29 -6t-28 -2q-41 0 -75.5 13t-59.5 38t-39 62t-14 84v521h169v-519q0 -19 11 -33t40 -14q11 0 25 3v-147zM215 -252h-159l60 200h173z" />
    <glyph glyph-name="Lcaron" unicode="&#x13d;" horiz-adv-x="550" 
d="M56 708h180v-531h288v-177h-468v708zM469 500h-153l61 204h167z" />
    <glyph glyph-name="lcaron" unicode="&#x13e;" horiz-adv-x="365" 
d="M288 -2q-15 -4 -29 -6t-28 -2q-41 0 -75.5 13t-59.5 38t-39 62t-14 84v521h169v-519q0 -19 11 -33t40 -14q11 0 25 3v-147zM369 504h-133l41 204h157z" />
    <glyph glyph-name="Ldot" unicode="&#x13f;" horiz-adv-x="548" 
d="M56 708h180v-531h288v-177h-468v708zM293 380q0 41 27 69t70 28q41 0 67.5 -28t26.5 -69q0 -40 -26.5 -67t-67.5 -27q-43 0 -70 27t-27 67z" />
    <glyph glyph-name="ldot" unicode="&#x140;" horiz-adv-x="404" 
d="M288 -2q-15 -4 -29 -6t-28 -2q-41 0 -75.5 13t-59.5 38t-39 62t-14 84v521h169v-519q0 -19 11 -33t40 -14q11 0 25 3v-147zM238 354q0 39 25.5 66t66.5 27q40 0 65.5 -27t25.5 -66q0 -38 -25.5 -64.5t-65.5 -26.5q-41 0 -66.5 26.5t-25.5 64.5z" />
    <glyph glyph-name="Lslash" unicode="&#x141;" horiz-adv-x="570" 
d="M542 0h-455v257l-41 -17l-45 113l86 36v319h181v-242l129 53l47 -112l-176 -73v-152h274v-182z" />
    <glyph glyph-name="lslash" unicode="&#x142;" horiz-adv-x="348" 
d="M251 189q0 -19 11 -33t40 -14q11 0 25 3v-147q-15 -4 -29 -6t-28 -2q-41 0 -75.5 13t-59.5 38t-39 62t-14 84v90l-47 -20l-34 98l81 35v318h169v-246l67 28l34 -98l-101 -42v-161z" />
    <glyph glyph-name="Nacute" unicode="&#x143;" horiz-adv-x="676" 
d="M392 756h-155l100 166h186zM56 708h170l171 -302l60 -142l5 1l-3 19t-7 42t-7 42l-3 19v321h178v-708h-181l-160 279l-62 142l-5 -1l23 -137v-283h-179v708z" />
    <glyph glyph-name="nacute" unicode="&#x144;" horiz-adv-x="512" 
d="M313 566h-155l100 166h186zM47 486q41 20 89.5 31t99.5 11q45 0 87 -10t74.5 -33.5t52 -60.5t19.5 -91v-333h-168v332q0 26 -15 37t-35 11t-35 -6v-374h-169v486z" />
    <glyph glyph-name="Ncommaaccent" unicode="&#x145;" horiz-adv-x="676" 
d="M56 708h170l171 -302l60 -142l5 1l-3 19t-7 42t-7 42l-3 19v321h178v-708h-181l-160 279l-62 142l-5 -1l23 -137v-283h-179v708zM380 -254h-163l61 204h177z" />
    <glyph glyph-name="ncommaaccent" unicode="&#x146;" horiz-adv-x="512" 
d="M47 486q41 20 89.5 31t99.5 11q45 0 87 -10t74.5 -33.5t52 -60.5t19.5 -91v-333h-168v332q0 26 -15 37t-35 11t-35 -6v-374h-169v486zM294 -252h-159l60 200h173z" />
    <glyph glyph-name="Ncaron" unicode="&#x147;" horiz-adv-x="676" 
d="M299 924l41 -52l46 52h167l-150 -168h-122l-150 168h168zM56 708h170l171 -302l60 -142l5 1l-3 19t-7 42t-7 42l-3 19v321h178v-708h-181l-160 279l-62 142l-5 -1l23 -137v-283h-179v708z" />
    <glyph glyph-name="ncaron" unicode="&#x148;" horiz-adv-x="512" 
d="M220 734l41 -52l46 52h167l-150 -168h-122l-150 168h168zM47 486q41 20 89.5 31t99.5 11q45 0 87 -10t74.5 -33.5t52 -60.5t19.5 -91v-333h-168v332q0 26 -15 37t-35 11t-35 -6v-374h-169v486z" />
    <glyph glyph-name="Eng" unicode="&#x14a;" horiz-adv-x="676" 
d="M620 -5q0 -57 -18.5 -100t-51.5 -68.5t-78 -33.5t-97 6v147q19 -5 33 -1.5t23.5 11t14.5 18.5t5 23v10l-172 272l-62 142l-4 -1l22 -137v-283h-179v708h170l171 -294l60 -142l3 1l-3 19t-6 42t-6 42l-3 19v313h178v-713z" />
    <glyph glyph-name="eng" unicode="&#x14b;" horiz-adv-x="511" 
d="M235 528q45 0 87 -10t74.5 -33.5t52 -60.5t19.5 -91v-338q0 -50 -18.5 -91.5t-51.5 -69.5t-78 -38.5t-97 3.5v142q19 -5 33.5 -1t25 13t16 20.5t5.5 23.5v335q0 26 -16.5 37t-36.5 11t-35 -6v-374h-169v486q41 20 89.5 31t99.5 11z" />
    <glyph glyph-name="Omacron" unicode="&#x14c;" horiz-adv-x="665" 
d="M182 894h297v-134h-297v134zM39 475q0 61 25 106.5t66.5 76t94 45.5t107.5 15t108 -15t94 -45.5t66.5 -76t25.5 -106.5v-242q0 -61 -25 -106.5t-66.5 -76t-94 -45.5t-107.5 -15t-108 15t-94 45.5t-66.5 76t-25.5 106.5v242zM218 233q0 -20 10 -34t26 -24t37 -14.5
t42 -4.5t41.5 5t36.5 14.5t26 24t10 33.5v242q0 21 -10 36t-26.5 24.5t-37.5 14.5t-43 5q-21 0 -41 -5t-36 -15.5t-25.5 -25.5t-9.5 -34v-242z" />
    <glyph glyph-name="omacron" unicode="&#x14d;" horiz-adv-x="493" 
d="M105 691h280v-126h-280v126zM35 337q0 48 18 83.5t47.5 59.5t67.5 36t78 12q39 0 77 -12t68 -36t48.5 -59.5t18.5 -83.5v-164q0 -46 -18 -80t-48 -57t-68 -34.5t-78 -11.5t-78 12t-67.5 34.5t-47.5 57t-18 79.5v164zM246 378q-15 0 -30.5 -10t-15.5 -28v-169
q0 -18 14.5 -28.5t31.5 -10.5t31.5 10.5t14.5 28.5v169q0 18 -15.5 28t-30.5 10z" />
    <glyph glyph-name="Ohungarumlaut" unicode="&#x150;" horiz-adv-x="665" 
d="M279 758h-141l75 158h177zM505 758h-140l74 158h183zM39 475q0 61 25 106.5t66.5 76t94 45.5t107.5 15t108 -15t94 -45.5t66.5 -76t25.5 -106.5v-242q0 -61 -25 -106.5t-66.5 -76t-94 -45.5t-107.5 -15t-108 15t-94 45.5t-66.5 76t-25.5 106.5v242zM218 233q0 -20 10 -34
t26 -24t37 -14.5t42 -4.5t41.5 5t36.5 14.5t26 24t10 33.5v242q0 21 -10 36t-26.5 24.5t-37.5 14.5t-43 5q-21 0 -41 -5t-36 -15.5t-25.5 -25.5t-9.5 -34v-242z" />
    <glyph glyph-name="ohungarumlaut" unicode="&#x151;" horiz-adv-x="493" 
d="M201 566h-129l70 148h162zM398 566h-130l77 148h162zM35 337q0 48 18 83.5t47.5 59.5t67.5 36t78 12q39 0 77 -12t68 -36t48.5 -59.5t18.5 -83.5v-164q0 -46 -18 -80t-48 -57t-68 -34.5t-78 -11.5t-78 12t-67.5 34.5t-47.5 57t-18 79.5v164zM246 378q-15 0 -30.5 -10
t-15.5 -28v-169q0 -18 14.5 -28.5t31.5 -10.5t31.5 10.5t14.5 28.5v169q0 18 -15.5 28t-30.5 10z" />
    <glyph glyph-name="OE" unicode="&#x152;" horiz-adv-x="812" 
d="M535 434h212v-163h-212v-103h238v-168h-391v32q-29 -23 -60 -32.5t-62 -9.5q-54 0 -94.5 16.5t-68 46t-41.5 70t-14 89.5v278q0 52 17 94t46.5 72t68 46t80.5 16q32 0 64 -8t64 -27v25h391v-169h-238v-105zM382 539q-22 18 -50 23t-52.5 -2t-41 -25t-16.5 -46v-261
q0 -23 7.5 -39t19.5 -26t27.5 -14.5t31.5 -4.5q23 0 43.5 7.5t30.5 19.5v368z" />
    <glyph glyph-name="oe" unicode="&#x153;" horiz-adv-x="742" 
d="M462 181q0 -17 11.5 -31.5t29 -20t38.5 0.5t41 30l99 -79q-20 -28 -41.5 -45.5t-44 -27.5t-45.5 -13.5t-45 -3.5q-17 0 -35.5 3t-36 10.5t-33 20t-27.5 31.5q-23 -32 -55.5 -47.5t-65.5 -16.5q-41 -1 -79.5 10t-69.5 34t-49.5 57.5t-18.5 80.5v163q0 48 18 83.5t48 59.5
t68 36t78 12q81 0 129 -59q29 32 61.5 43.5t67.5 12.5q40 1 78 -10t66.5 -35t46 -60t17.5 -84v-147h-251v-8zM560 342q0 19 -15 29t-34 10.5t-35 -8.5t-18 -28v-45h102v42zM247 378q-15 0 -30.5 -10t-15.5 -28v-168q1 -18 14.5 -28.5t30.5 -10.5t31 10.5t15 28.5v171
q-2 17 -16.5 26t-28.5 9z" />
    <glyph glyph-name="Racute" unicode="&#x154;" horiz-adv-x="646" 
d="M359 756h-155l100 166h186zM269 225h-32v-225h-181v708h283q55 0 102 -13t82.5 -41t56 -72.5t22.5 -106.5q0 -99 -37 -155.5t-102 -76.5l193 -243h-223zM342 379q28 0 47 12t28.5 30t9.5 39t-9.5 39t-28.5 30t-47 12h-105v-162h105z" />
    <glyph glyph-name="racute" unicode="&#x155;" horiz-adv-x="353" 
d="M254 566h-149l100 166h180zM251 528q14 0 34 -2.5t53 -10.5v-147q-20 9 -42.5 10.5t-41 -5t-30.5 -20.5t-12 -35v-318h-169v326q0 53 16 91t44.5 63t66 36.5t81.5 11.5z" />
    <glyph glyph-name="Rcommaaccent" unicode="&#x156;" horiz-adv-x="646" 
d="M269 225h-32v-225h-181v708h283q55 0 102 -13t82.5 -41t56 -72.5t22.5 -106.5q0 -99 -37 -155.5t-102 -76.5l193 -243h-223zM342 379q28 0 47 12t28.5 30t9.5 39t-9.5 39t-28.5 30t-47 12h-105v-162h105zM368 -254h-163l61 204h177z" />
    <glyph glyph-name="rcommaaccent" unicode="&#x157;" horiz-adv-x="353" 
d="M251 528q14 0 34 -2.5t53 -10.5v-147q-20 9 -42.5 10.5t-41 -5t-30.5 -20.5t-12 -35v-318h-169v326q0 53 16 91t44.5 63t66 36.5t81.5 11.5zM155 -248h-153l57 192h167z" />
    <glyph glyph-name="Rcaron" unicode="&#x158;" horiz-adv-x="646" 
d="M266 924l41 -52l46 52h167l-150 -168h-122l-150 168h168zM269 225h-32v-225h-181v708h283q55 0 102 -13t82.5 -41t56 -72.5t22.5 -106.5q0 -99 -37 -155.5t-102 -76.5l193 -243h-223zM342 379q28 0 47 12t28.5 30t9.5 39t-9.5 39t-28.5 30t-47 12h-105v-162h105z" />
    <glyph glyph-name="rcaron" unicode="&#x159;" horiz-adv-x="353" 
d="M167 734l38 -51l39 51h167l-146 -168h-122l-144 168h168zM251 528q14 0 34 -2.5t53 -10.5v-147q-20 9 -42.5 10.5t-41 -5t-30.5 -20.5t-12 -35v-318h-169v326q0 53 16 91t44.5 63t66 36.5t81.5 11.5z" />
    <glyph glyph-name="Sacute" unicode="&#x15a;" horiz-adv-x="564" 
d="M336 756h-155l100 166h186zM135 224q27 -32 65.5 -49t75 -18.5t63 11.5t28.5 42q1 15 -10 27t-28 20.5t-39 14.5t-44 9q-43 7 -82.5 24t-69.5 44.5t-48 66.5t-18 90q0 52 21.5 91.5t57.5 66.5t82 40.5t95 13.5q32 0 63.5 -5t62 -18t60 -35t56.5 -55l-117 -90
q-28 30 -63 44t-66 13.5t-52.5 -16.5t-22.5 -47q2 -26 27 -41.5t67 -24.5q47 -9 92.5 -23t80 -41t54.5 -69.5t17 -107.5q-2 -51 -28 -90.5t-65.5 -66.5t-88.5 -41t-98 -14q-64 0 -127.5 32t-113.5 96z" />
    <glyph glyph-name="sacute" unicode="&#x15b;" horiz-adv-x="426" 
d="M270 566h-155l100 166h186zM99 174q27 -20 55.5 -30t53.5 -8q13 1 20 8.5t7 16.5t-8.5 17t-24.5 10q-52 7 -85 24t-52 41t-26 52t-7 57q0 28 11.5 57.5t34 53.5t56.5 39.5t79 15.5q35 0 81.5 -12t97.5 -55l-82 -102q-35 17 -56.5 21t-34.5 2q-11 -2 -17.5 -14.5
t3.5 -23.5q7 -7 15.5 -11.5t23.5 -8.5q28 -7 56 -18t50.5 -28.5t36.5 -44t14 -65.5q0 -44 -16 -77.5t-43 -56t-61.5 -33.5t-71.5 -11q-51 0 -97.5 18t-87.5 66z" />
    <glyph glyph-name="Scedilla" unicode="&#x15e;" horiz-adv-x="564" 
d="M299 443q47 -9 92.5 -23t80 -41t54.5 -69.5t17 -107.5q-2 -40 -18.5 -73t-42.5 -58.5t-60.5 -43t-72.5 -26.5l-14 -32q33 -9 51.5 -29t23.5 -44.5t-3 -51t-26 -48.5t-46.5 -36t-64.5 -14q-33 0 -70.5 10t-75.5 41l32 86q16 -11 34 -19t34 -10.5t27.5 2t15.5 18.5
q5 17 -16 33t-60 19l30 67q-54 9 -105.5 40t-93.5 85l113 106q27 -32 65.5 -49t75 -18.5t63 11.5t28.5 42q1 15 -10 27t-28 20.5t-39 14.5t-44 9q-43 7 -82.5 24t-69.5 44.5t-48 66.5t-18 90q0 52 21.5 91.5t57.5 66.5t82 40.5t95 13.5q32 0 63.5 -5t62 -18t60 -35t56.5 -55
l-117 -90q-28 30 -63 44t-66 13.5t-52.5 -16.5t-22.5 -47q2 -26 27 -41.5t67 -24.5z" />
    <glyph glyph-name="scedilla" unicode="&#x15f;" horiz-adv-x="426" 
d="M401 168q0 -66 -34 -107.5t-85 -58.5l-19 -43q31 -8 49.5 -27t24 -42t-1 -48t-23.5 -45.5t-45 -34t-65 -13.5q-32 0 -67.5 9.5t-70.5 38.5l30 81q16 -11 33 -18.5t31.5 -10t25.5 2t15 17.5q5 17 -15 31.5t-57 17.5l34 76q-38 7 -72 25.5t-65 54.5l75 100q27 -20 55.5 -30
t53.5 -8q13 1 20 8.5t7 16.5t-8.5 17t-24.5 10q-52 7 -85 24t-52 41t-26 52t-7 57q0 28 11.5 57.5t34 53.5t56.5 39.5t79 15.5q35 0 81.5 -12t97.5 -55l-82 -102q-35 17 -56.5 21t-34.5 2q-11 -2 -17.5 -14.5t3.5 -23.5q7 -7 15.5 -11.5t23.5 -8.5q28 -7 56 -18t50.5 -28.5
t36.5 -44t14 -65.5z" />
    <glyph glyph-name="Scaron" unicode="&#x160;" horiz-adv-x="564" 
d="M243 924l41 -52l46 52h167l-150 -168h-122l-150 168h168zM135 224q27 -32 65.5 -49t75 -18.5t63 11.5t28.5 42q1 15 -10 27t-28 20.5t-39 14.5t-44 9q-43 7 -82.5 24t-69.5 44.5t-48 66.5t-18 90q0 52 21.5 91.5t57.5 66.5t82 40.5t95 13.5q32 0 63.5 -5t62 -18t60 -35
t56.5 -55l-117 -90q-28 30 -63 44t-66 13.5t-52.5 -16.5t-22.5 -47q2 -26 27 -41.5t67 -24.5q47 -9 92.5 -23t80 -41t54.5 -69.5t17 -107.5q-2 -51 -28 -90.5t-65.5 -66.5t-88.5 -41t-98 -14q-64 0 -127.5 32t-113.5 96z" />
    <glyph glyph-name="scaron" unicode="&#x161;" horiz-adv-x="426" 
d="M177 734l41 -52l46 52h167l-150 -168h-122l-150 168h168zM99 174q27 -20 55.5 -30t53.5 -8q13 1 20 8.5t7 16.5t-8.5 17t-24.5 10q-52 7 -85 24t-52 41t-26 52t-7 57q0 28 11.5 57.5t34 53.5t56.5 39.5t79 15.5q35 0 81.5 -12t97.5 -55l-82 -102q-35 17 -56.5 21t-34.5 2
q-11 -2 -17.5 -14.5t3.5 -23.5q7 -7 15.5 -11.5t23.5 -8.5q28 -7 56 -18t50.5 -28.5t36.5 -44t14 -65.5q0 -44 -16 -77.5t-43 -56t-61.5 -33.5t-71.5 -11q-51 0 -97.5 18t-87.5 66z" />
    <glyph glyph-name="Tcommaaccent" unicode="&#x162;" horiz-adv-x="585" 
d="M14 0zM383 539v-539h-181v539h-188v170h557v-170h-188zM331 -254h-163l61 204h177z" />
    <glyph glyph-name="tcommaaccent" unicode="&#x163;" horiz-adv-x="336" 
d="M44 0zM221 -252h-159l60 200h173zM313 9q-47 -19 -96 -19q-36 0 -67.5 12t-55 36t-37 61t-13.5 87v449h158l9 -117h89v-143h-89v-179q0 -32 17.5 -46t43.5 -14q10 0 20 2t21 5v-134z" />
    <glyph glyph-name="Tcaron" unicode="&#x164;" horiz-adv-x="585" 
d="M247 924l41 -52l46 52h167l-150 -168h-122l-150 168h168zM383 539v-539h-181v539h-188v170h557v-170h-188z" />
    <glyph glyph-name="tcaron" unicode="&#x165;" horiz-adv-x="336" 
d="M372 558h-126l38 196h150zM313 9q-47 -19 -96 -19q-36 0 -67.5 12t-55 36t-37 61t-13.5 87v449h158l9 -117h89v-143h-89v-179q0 -32 17.5 -46t43.5 -14q10 0 20 2t21 5v-134z" />
    <glyph glyph-name="Tbar" unicode="&#x166;" horiz-adv-x="590" 
d="M462 345v-134h-76v-211h-181v211h-80v134h80v194h-188v170h557v-170h-188v-194h76z" />
    <glyph glyph-name="tbar" unicode="&#x167;" horiz-adv-x="346" 
d="M282 136q10 0 20 2t21 5v-134q-47 -19 -96 -19q-36 0 -67.5 12t-55 36t-37 61t-13.5 87v39h-42v98h42v312h158l10 -117h85v-142h-85v-53h64v-98h-64v-29q0 -32 17 -46t43 -14z" />
    <glyph glyph-name="Umacron" unicode="&#x16a;" horiz-adv-x="667" 
d="M185 892h297v-134h-297v134zM233 237q0 -29 15 -48t37.5 -28.5t48.5 -9.5t48.5 10t38 28.5t15.5 47.5v471h181v-471q0 -62 -24.5 -109t-64.5 -78t-90.5 -46.5t-103.5 -15.5t-104 15.5t-90.5 46.5t-63.5 78t-24 109v471h181v-471z" />
    <glyph glyph-name="umacron" unicode="&#x16b;" horiz-adv-x="513" 
d="M113 704h292v-131h-292v131zM466 32q-40 -20 -89 -31t-98 -11q-46 0 -88.5 9.5t-75 32.5t-52 60t-19.5 93v333h168v-332q0 -26 16.5 -37t36.5 -11q17 0 32 6v374h169v-486z" />
    <glyph glyph-name="Uring" unicode="&#x16e;" horiz-adv-x="667" 
d="M203 851q0 25 10.5 47t28.5 38t42.5 25t51.5 9t51 -10t41.5 -26.5t27.5 -38t10 -44.5q0 -24 -10.5 -45.5t-28 -37.5t-41 -25t-50.5 -9t-51.5 9t-42.5 24.5t-28.5 37t-10.5 46.5zM372 850q0 14 -10.5 25.5t-25.5 11.5q-18 0 -28 -11.5t-10 -25.5q0 -11 10 -22t28 -11
q15 0 25.5 8.5t10.5 24.5zM233 237q0 -29 15 -48t37.5 -28.5t48.5 -9.5t48.5 10t38 28.5t15.5 47.5v471h181v-471q0 -62 -24.5 -109t-64.5 -78t-90.5 -46.5t-103.5 -15.5t-104 15.5t-90.5 46.5t-63.5 78t-24 109v471h181v-471z" />
    <glyph glyph-name="uring" unicode="&#x16f;" horiz-adv-x="513" 
d="M124 670q0 27 10.5 50t28.5 40t42.5 26.5t51.5 9.5t51 -10.5t41.5 -28t27.5 -40.5t10 -48q0 -26 -10.5 -48.5t-28 -39t-41 -26.5t-50.5 -10t-51.5 9.5t-42.5 26t-28.5 39.5t-10.5 50zM293 668q0 16 -10.5 28t-25.5 12q-18 0 -28 -12t-10 -28q0 -11 10 -23t28 -12
q15 0 25.5 9t10.5 26zM466 32q-40 -20 -89 -31t-98 -11q-46 0 -88.5 9.5t-75 32.5t-52 60t-19.5 93v333h168v-332q0 -26 16.5 -37t36.5 -11q17 0 32 6v374h169v-486z" />
    <glyph glyph-name="Uhungarumlaut" unicode="&#x170;" horiz-adv-x="667" 
d="M282 756h-141l75 158h177zM508 756h-140l74 158h183zM233 237q0 -29 15 -48t37.5 -28.5t48.5 -9.5t48.5 10t38 28.5t15.5 47.5v471h181v-471q0 -62 -24.5 -109t-64.5 -78t-90.5 -46.5t-103.5 -15.5t-104 15.5t-90.5 46.5t-63.5 78t-24 109v471h181v-471z" />
    <glyph glyph-name="uhungarumlaut" unicode="&#x171;" horiz-adv-x="513" 
d="M203 566h-141l75 158h177zM429 566h-140l74 158h183zM466 32q-40 -20 -89 -31t-98 -11q-46 0 -88.5 9.5t-75 32.5t-52 60t-19.5 93v333h168v-332q0 -26 16.5 -37t36.5 -11q17 0 32 6v374h169v-486z" />
    <glyph glyph-name="Uogonek" unicode="&#x172;" horiz-adv-x="667" 
d="M616 237q0 -77 -36 -130t-92 -82q-26 -19 -40 -43t-16.5 -44.5t5 -34.5t23.5 -14q18 0 40 14l28 -107q-26 -21 -57.5 -30.5t-57.5 -9.5q-50 0 -81.5 19t-43 51t-1.5 74t45 88q-53 0 -103.5 15.5t-90 46.5t-63.5 78t-24 109v471h181v-471q0 -29 15 -48t37.5 -28.5
t48.5 -9.5t48.5 10t38 28.5t15.5 47.5v471h181v-471z" />
    <glyph glyph-name="uogonek" unicode="&#x173;" horiz-adv-x="513" 
d="M494 -204q-26 -21 -57.5 -30.5t-57.5 -9.5q-50 0 -81.5 20t-41.5 53t2 75t50 87q-8 -1 -14.5 -1h-14.5q-46 0 -88.5 9.5t-75 32.5t-52 60t-19.5 93v333h168v-332q0 -26 16.5 -37t36.5 -11q17 0 32 6v374h169v-486q-26 -22 -41.5 -47t-20.5 -46.5t0.5 -35.5t21.5 -14
q18 0 40 14z" />
    <glyph glyph-name="Wcircumflex" unicode="&#x174;" horiz-adv-x="915" 
d="M669 756h-162l-46 52l-44 -52h-169l154 168h117zM730 708h185l-204 -708h-166l-63 196l-25 162h-3l-27 -161l-56 -197h-166l-205 708h186l84 -339l18 -150h5l17 149l79 248h136l73 -249l23 -148h3l20 148z" />
    <glyph glyph-name="wcircumflex" unicode="&#x175;" horiz-adv-x="754" 
d="M585 566h-162l-46 52l-44 -52h-169l154 168h117zM510 185l16 108l54 225h171l-151 -518h-173l-34 127l-14 87h-3l-16 -87l-34 -127h-173l-150 518h170l54 -225l16 -108h3l58 323h145l58 -323h3z" />
    <glyph glyph-name="Ycircumflex" unicode="&#x176;" horiz-adv-x="655" 
d="M532 756h-162l-46 52l-44 -52h-169l154 168h117zM238 0v279l-247 429h208l128 -260l128 260h210l-248 -429v-279h-179z" />
    <glyph glyph-name="ycircumflex" unicode="&#x177;" horiz-adv-x="514" 
d="M462 566h-162l-46 52l-44 -52h-169l154 168h117zM466 12q0 -58 -15.5 -101.5t-44 -73t-68 -44t-87.5 -14.5q-47 0 -94 15.5t-93 54.5l67 104q23 -14 48 -22.5t47 -8.5q41 0 60 22.5t19 57.5q-32 -12 -78 -12q-35 0 -67.5 10t-58.5 31t-41.5 54t-15.5 79v354h163v-343
q0 -25 16.5 -36t36.5 -11q23 0 40 11v379h166v-506z" />
    <glyph glyph-name="Ydieresis" unicode="&#x178;" horiz-adv-x="655" 
d="M119 834q0 36 24.5 60.5t59.5 24.5t59.5 -24.5t24.5 -60.5q0 -17 -6.5 -32.5t-18 -26.5t-26.5 -17.5t-33 -6.5t-33 6.5t-26.5 17.5t-18 26.5t-6.5 32.5zM360 834q0 36 23.5 60.5t60.5 24.5q36 0 60.5 -24.5t24.5 -60.5q0 -35 -24.5 -59t-60.5 -24q-37 0 -60.5 24
t-23.5 59zM417 0v279l248 429h-210l-128 -260l-128 260h-208l247 -429v-279h179z" />
    <glyph glyph-name="Zacute" unicode="&#x179;" horiz-adv-x="605" 
d="M363 756h-155l100 166h186zM551 708l38 -60l-305 -485l288 2v-165h-525l-33 66l306 476h-284v166h515z" />
    <glyph glyph-name="zacute" unicode="&#x17a;" horiz-adv-x="457" 
d="M288 566h-155l100 166h186zM400 518l33 -47l-183 -321h176v-150h-369l-38 52l182 316h-165v150h364z" />
    <glyph glyph-name="Zdotaccent" unicode="&#x17b;" horiz-adv-x="605" 
d="M212 851q0 20 7.5 38t21 31t31.5 20.5t39 7.5q42 0 69.5 -28t27.5 -69q0 -42 -27.5 -70t-69.5 -28q-21 0 -39 7.5t-31.5 21t-21 31t-7.5 38.5zM551 708l38 -60l-305 -485l288 2v-165h-525l-33 66l306 476h-284v166h515z" />
    <glyph glyph-name="zdotaccent" unicode="&#x17c;" horiz-adv-x="457" 
d="M137 661q0 20 7.5 38t21 31t31.5 20.5t39 7.5q42 0 69.5 -28t27.5 -69q0 -42 -27.5 -70t-69.5 -28q-21 0 -39 7.5t-31.5 21t-21 31t-7.5 38.5zM400 518l33 -47l-183 -321h176v-150h-369l-38 52l182 316h-165v150h364z" />
    <glyph glyph-name="Zcaron" unicode="&#x17d;" horiz-adv-x="605" 
d="M270 924l41 -52l46 52h167l-150 -168h-122l-150 168h168zM551 708l38 -60l-305 -485l288 2v-165h-525l-33 66l306 476h-284v166h515z" />
    <glyph glyph-name="zcaron" unicode="&#x17e;" horiz-adv-x="457" 
d="M195 734l41 -52l46 52h167l-150 -168h-122l-150 168h168zM400 518l33 -47l-183 -321h176v-150h-369l-38 52l182 316h-165v150h364z" />
    <glyph glyph-name="florin" unicode="&#x192;" horiz-adv-x="510" 
d="M52 40q26 -13 43 -6.5t22 35.5l45 235h-71v146h98l21 96q9 52 37.5 92.5t69 60t89 14.5t95.5 -43l-56 -108q-26 11 -42 3.5t-22 -37.5l-18 -78h70v-146h-96l-49 -269q-10 -51 -37.5 -85t-65.5 -49.5t-83.5 -12t-90.5 28.5z" />
    <glyph glyph-name="Scommaaccent" unicode="&#x218;" horiz-adv-x="564" 
d="M135 224q27 -32 65.5 -49t75 -18.5t63 11.5t28.5 42q1 15 -10 27t-28 20.5t-39 14.5t-44 9q-43 7 -82.5 24t-69.5 44.5t-48 66.5t-18 90q0 52 21.5 91.5t57.5 66.5t82 40.5t95 13.5q32 0 63.5 -5t62 -18t60 -35t56.5 -55l-117 -90q-28 30 -63 44t-66 13.5t-52.5 -16.5
t-22.5 -47q2 -26 27 -41.5t67 -24.5q47 -9 92.5 -23t80 -41t54.5 -69.5t17 -107.5q-2 -51 -28 -90.5t-65.5 -66.5t-88.5 -41t-98 -14q-64 0 -127.5 32t-113.5 96zM305 -254h-163l61 204h177z" />
    <glyph glyph-name="scommaaccent" unicode="&#x219;" horiz-adv-x="426" 
d="M99 174q27 -20 55.5 -30t53.5 -8q13 1 20 8.5t7 16.5t-8.5 17t-24.5 10q-52 7 -85 24t-52 41t-26 52t-7 57q0 28 11.5 57.5t34 53.5t56.5 39.5t79 15.5q35 0 81.5 -12t97.5 -55l-82 -102q-35 17 -56.5 21t-34.5 2q-11 -2 -17.5 -14.5t3.5 -23.5q7 -7 15.5 -11.5
t23.5 -8.5q28 -7 56 -18t50.5 -28.5t36.5 -44t14 -65.5q0 -44 -16 -77.5t-43 -56t-61.5 -33.5t-71.5 -11q-51 0 -97.5 18t-87.5 66zM241 -239h-149l55 187h163z" />
    <glyph glyph-name="uni021A" unicode="&#x21a;" horiz-adv-x="585" 
d="M383 539v-539h-181v539h-188v170h557v-170h-188zM331 -254h-163l61 204h177z" />
    <glyph glyph-name="uni021B" unicode="&#x21b;" horiz-adv-x="336" 
d="M221 -252h-159l60 200h173zM313 9q-47 -19 -96 -19q-36 0 -67.5 12t-55 36t-37 61t-13.5 87v449h158l9 -117h89v-143h-89v-179q0 -32 17.5 -46t43.5 -14q10 0 20 2t21 5v-134z" />
    <glyph glyph-name="circumflex" unicode="&#x2c6;" horiz-adv-x="501" 
d="M461 756h-162l-46 52l-44 -52h-169l154 168h117z" />
    <glyph glyph-name="caron" unicode="&#x2c7;" horiz-adv-x="441" 
d="M182 924l41 -52l46 52h167l-150 -168h-122l-150 168h168z" />
    <glyph glyph-name="uni02C9" unicode="&#x2c9;" horiz-adv-x="330" 
d="M50 892h297v-134h-297v134z" />
    <glyph glyph-name="breve" unicode="&#x2d8;" horiz-adv-x="450" 
d="M400 922q0 -58 -26 -96.5t-65 -58t-84 -19.5t-84 19.5t-65 58t-26 96.5h137q0 -19 12 -28.5t27 -9.5t27 9.5t12 28.5h135z" />
    <glyph glyph-name="dotaccent" unicode="&#x2d9;" horiz-adv-x="296" 
d="M50 851q0 20 7.5 38t21 31t31.5 20.5t39 7.5q42 0 69.5 -28t27.5 -69q0 -42 -27.5 -70t-69.5 -28q-21 0 -39 7.5t-31.5 21t-21 31t-7.5 38.5z" />
    <glyph glyph-name="ring" unicode="&#x2da;" horiz-adv-x="359" 
d="M48 871q0 27 10.5 50t28.5 40t42.5 26.5t51.5 9.5t51 -10.5t41.5 -28t27.5 -40.5t10 -48q0 -26 -10.5 -48.5t-28 -39t-41 -26.5t-50.5 -10t-51.5 9.5t-42.5 26t-28.5 39.5t-10.5 50zM217 869q0 16 -10.5 28t-25.5 12q-18 0 -28 -12t-10 -28q0 -11 10 -23t28 -12
q15 0 25.5 9t10.5 26z" />
    <glyph glyph-name="ogonek" unicode="&#x2db;" horiz-adv-x="380" 
d="M281 0q-22 -22 -34 -42t-14 -35.5t5.5 -24.5t23.5 -9q18 0 40 14l28 -107q-26 -21 -57.5 -30.5t-57.5 -9.5q-53 0 -85 21.5t-41 56.5t6.5 81t59.5 96h121z" />
    <glyph glyph-name="tilde" unicode="&#x2dc;" horiz-adv-x="465" 
d="M50 794q23 121 127 118q22 0 43.5 -11.5t40.5 -19t35 -4.5t28 31l91 -52q-14 -56 -40.5 -85t-63.5 -28q-30 0 -55.5 11.5t-46.5 19t-39 4t-33 -32.5z" />
    <glyph glyph-name="hungarumlaut" unicode="&#x2dd;" horiz-adv-x="534" 
d="M191 756h-141l75 158h177zM417 756h-140l74 158h183z" />
    <glyph glyph-name="uni0326" unicode="&#x326;" horiz-adv-x="0" 
d="M326 -254h-163l61 204h177z" />
    <glyph glyph-name="uni03A9" unicode="&#x3a9;" horiz-adv-x="776" 
d="M105 176q-30 39 -45 89.5t-15 108.5q0 84 29 147t77 105t109.5 63t125.5 21q65 0 127.5 -21.5t111 -63.5t78.5 -104t30 -143q0 -57 -16 -110t-47 -92h64v-176h-333v141q45 14 75.5 36.5t49.5 51.5t27.5 62.5t8.5 70.5q0 34 -11 66t-32.5 56.5t-54.5 39t-78 14.5
q-42 0 -74 -15.5t-53.5 -41t-32.5 -58.5t-11 -69q0 -34 9.5 -67t29 -61.5t49 -50.5t69.5 -34v-141h-332v176h65z" />
    <glyph glyph-name="uni03BC" unicode="&#x3bc;" horiz-adv-x="530" 
d="M331 37q-13 -20 -28 -29t-30.5 -9t-29.5 9t-24 26v-206h-171v688h171v-310q0 -25 14 -37.5t31 -13t31 12t14 37.5v311h172l2 -518l-146 1z" />
    <glyph glyph-name="pi" unicode="&#x3c0;" horiz-adv-x="575" 
d="M532 -5q-63 -6 -104 6t-65 37t-33.5 59t-9.5 72v199h-51v-368h-168v353l-63 -14l-33 126l19 17q26 17 55.5 29.5t77.5 12.5h389l-16 -156h-40v-196q0 -4 1 -11.5t5 -14t12.5 -11.5t22.5 -5z" />
    <glyph glyph-name="uni0401" unicode="&#x401;" 
d="M104 834q0 36 24.5 60.5t59.5 24.5t59.5 -24.5t24.5 -60.5q0 -17 -6.5 -32.5t-18 -26.5t-26.5 -17.5t-33 -6.5t-33 6.5t-26.5 17.5t-18 26.5t-6.5 32.5zM345 834q0 36 23.5 60.5t60.5 24.5q36 0 60.5 -24.5t24.5 -60.5q0 -35 -24.5 -59t-60.5 -24q-37 0 -60.5 24
t-23.5 59zM237 540h312v168h-493v-708h493v169h-312v106h287v155h-287v110z" />
    <glyph glyph-name="uni0410" unicode="&#x410;" horiz-adv-x="648" 
d="M657 0h-192l-46 142h-189l-44 -142h-192l247 708h163zM376 301l-49 207h-5l-52 -207h106z" />
    <glyph glyph-name="uni0411" unicode="&#x411;" horiz-adv-x="616" 
d="M598 231q0 -53 -17.5 -95.5t-50 -72.5t-79.5 -46.5t-106 -16.5h-289v708h484v-150h-304v-110h104q74 0 123.5 -14t79.5 -41.5t42.5 -68t12.5 -93.5zM340 157q46 0 63.5 22.5t17.5 60.5t-20 58t-62 20h-103v-161h104z" />
    <glyph glyph-name="uni0412" unicode="&#x412;" horiz-adv-x="626" 
d="M570 492q0 -12 -4.5 -28t-13.5 -32t-22.5 -30.5t-32.5 -24.5q36 -18 57.5 -43t32 -52t12 -53t-1.5 -46q-14 -86 -74 -134.5t-178 -48.5h-289v708h284q51 0 93.5 -15t73.5 -42.5t47.5 -67.5t15.5 -91zM340 431q33 0 49.5 19.5t17 43.5t-16 43.5t-50.5 19.5h-104v-126h104z
M340 157q40 0 60 22.5t20 50t-20 50t-60 22.5h-104v-145h104z" />
    <glyph glyph-name="uni0413" unicode="&#x413;" horiz-adv-x="510" 
d="M497 708v-170h-261v-538h-180v708h441z" />
    <glyph glyph-name="uni0414" unicode="&#x414;" horiz-adv-x="746" 
d="M18 -142v303q52 0 80 26t40.5 69t16 99t7.5 116l17 237h462v-547h86v-303h-180v142h-346v-142h-183zM461 538h-120l-15 -215q-2 -40 -9 -83.5t-21 -78.5h165v377z" />
    <glyph glyph-name="uni0415" unicode="&#x415;" 
d="M237 430h287v-155h-287v-106h312v-169h-493v708h493v-168h-312v-110z" />
    <glyph glyph-name="uni0416" unicode="&#x416;" horiz-adv-x="948" 
d="M384 260l-6 8l-163 -268h-223l252 360l-253 348h216l177 -265v265h180v-265l177 265h216l-253 -348l252 -360h-223l-163 268l-6 -8v-260h-180v260z" />
    <glyph glyph-name="uni0417" unicode="&#x417;" horiz-adv-x="570" 
d="M441 377q56 -28 78.5 -72.5t22.5 -92.5q0 -106 -74.5 -164t-209.5 -58q-83 0 -151 36.5t-108 102.5l114 89q30 -34 66 -52.5t69 -18.5q54 0 84 19t30 57t-24 59.5t-68 21.5h-105v123h101q40 0 62.5 19.5t22.5 54.5q0 30 -22.5 48.5t-67.5 18.5q-20 0 -39 -5.5t-36.5 -13
t-31 -16.5l-22.5 -15l-94 92q42 52 100 80t136 28q118 0 181 -54t63 -151q0 -17 -5 -37t-14.5 -38.5t-24 -34.5t-33.5 -26z" />
    <glyph glyph-name="uni0418" unicode="&#x418;" horiz-adv-x="685" 
d="M449 283q1 10 3 21q2 9 3 20.5t3 24.5q4 29 9 67l-5 1l-67 -138l-170 -279h-169v708h180v-321q-1 0 -3 -16.5t-5 -36.5q-4 -24 -7 -53l4 -1l59 127l181 301h164v-708h-180v283z" />
    <glyph glyph-name="uni0419" unicode="&#x419;" horiz-adv-x="685" 
d="M338 766q-35 0 -67.5 11t-58 33t-40.5 54.5t-15 75.5h139q0 -19 12 -30t30 -11t30 11t12 30h139q0 -43 -15 -75.5t-40.5 -54.5t-58 -33t-67.5 -11zM449 0h180v708h-164l-181 -301l-59 -127l-4 1q3 29 7 53q3 20 5 36.5t3 16.5v321h-180v-708h169l170 279l67 138l5 -1
q-5 -38 -9 -67q-2 -13 -3 -24.5t-3 -20.5q-2 -11 -3 -21v-283z" />
    <glyph glyph-name="uni041A" unicode="&#x41a;" horiz-adv-x="640" 
d="M428 708h223l-280 -348l279 -360h-225l-183 253l-6 -8v-245h-180v708h180v-262z" />
    <glyph glyph-name="uni041B" unicode="&#x41b;" horiz-adv-x="709" 
d="M330 323q-3 -62 -20 -123t-53 -108.5t-94.5 -74t-145.5 -17.5v167q55 -3 83 22t40.5 68t15.5 99t7 115l17 237h473v-708h-180v538h-131z" />
    <glyph glyph-name="uni041C" unicode="&#x41c;" horiz-adv-x="769" 
d="M56 708h179l149 -346l150 346h179v-708h-180l1 204l11 143l-6 1l-93 -243h-123l-95 243l-5 -1l12 -143v-204h-179v708z" />
    <glyph glyph-name="uni041D" unicode="&#x41d;" horiz-adv-x="676" 
d="M236 0h-180v708h180v-268h204v268h180v-708h-180v267h-204v-267z" />
    <glyph glyph-name="uni041E" unicode="&#x41e;" horiz-adv-x="665" 
d="M39 475q0 61 25 106.5t66.5 76t94 45.5t107.5 15t108 -15t94 -45.5t66.5 -76t25.5 -106.5v-242q0 -61 -25 -106.5t-66.5 -76t-94 -45.5t-107.5 -15t-108 15t-94 45.5t-66.5 76t-25.5 106.5v242zM218 233q0 -20 10 -34t26 -24t37 -14.5t42 -4.5t41.5 5t36.5 14.5t26 24
t10 33.5v242q0 21 -10 36t-26.5 24.5t-37.5 14.5t-43 5q-21 0 -41 -5t-36 -15.5t-25.5 -25.5t-9.5 -34v-242z" />
    <glyph glyph-name="uni041F" unicode="&#x41f;" horiz-adv-x="671" 
d="M236 0h-180v708h559v-708h-180v538h-199v-538z" />
    <glyph glyph-name="uni0420" unicode="&#x420;" horiz-adv-x="618" 
d="M56 708h283q65 0 113.5 -21.5t81 -56.5t48.5 -80t16 -92t-16.5 -92.5t-48.5 -80.5t-80.5 -56.5t-112.5 -21.5h-105v-207h-179v708zM339 366q27 0 45 13t27 32.5t9 42t-9 42t-27 32.5t-45 13h-104v-175h104z" />
    <glyph glyph-name="uni0421" unicode="&#x421;" horiz-adv-x="582" 
d="M573 149q-22 -43 -52 -73.5t-64 -49.5t-70 -27.5t-69 -8.5q-52 0 -102 15t-89.5 45.5t-63.5 76t-24 105.5v244q0 60 24 105.5t63.5 75.5t90.5 45.5t104 15.5q33 0 68 -8t68 -26.5t62.5 -50t50.5 -78.5l-146 -59q-18 33 -52.5 46.5t-68.5 9.5t-59.5 -23.5t-25.5 -52.5
v-244q0 -32 25.5 -51.5t59.5 -22.5t66.5 11.5t47.5 51.5z" />
    <glyph glyph-name="uni0422" unicode="&#x422;" horiz-adv-x="585" 
d="M383 539v-539h-181v539h-188v170h557v-170h-188z" />
    <glyph glyph-name="uni0423" unicode="&#x423;" horiz-adv-x="600" 
d="M294 426h5l53 138l64 144h199l-320 -708h-193l104 229l-233 479h203l70 -154z" />
    <glyph glyph-name="uni0424" unicode="&#x424;" horiz-adv-x="804" 
d="M317 58q-55 0 -107.5 13t-93 41t-65.5 73t-25 108v122q0 63 25 108t65.5 73t93 41t107.5 13v58h170v-58q55 0 107.5 -13t93 -41t65.5 -73t25 -108v-122q0 -63 -25 -108t-65.5 -73t-93 -41t-107.5 -13v-58h-170v58zM206 292q0 -23 9 -37t24.5 -21.5t35.5 -10.5t42 -3v268
q-22 0 -42 -3t-35.5 -10.5t-24.5 -22t-9 -36.5v-124zM598 416q0 22 -9 36.5t-24.5 22t-35.5 10.5t-42 3v-268q22 0 42 3t35.5 10.5t24.5 21.5t9 37v124z" />
    <glyph glyph-name="uni0425" unicode="&#x425;" horiz-adv-x="656" 
d="M451 708h208l-198 -355l198 -353h-208l-124 241l-121 -241h-209l199 353l-199 355h209l121 -242z" />
    <glyph glyph-name="uni0426" unicode="&#x426;" horiz-adv-x="715" 
d="M56 708h180v-538h193v538h180v-538h86v-312h-170v142h-469v708z" />
    <glyph glyph-name="uni0427" unicode="&#x427;" horiz-adv-x="639" 
d="M403 237q-17 -15 -52 -27.5t-77 -12.5q-47 0 -90.5 15.5t-77.5 46t-54 76t-20 105.5v268h180v-268q0 -35 20 -53.5t57 -19.5q32 0 63 8.5t50 25.5l1 307h180v-708h-180v237z" />
    <glyph glyph-name="uni0428" unicode="&#x428;" horiz-adv-x="988" 
d="M236 708v-538h168v538h180v-538h168v538h180v-708h-876v708h180z" />
    <glyph glyph-name="uni0429" unicode="&#x429;" horiz-adv-x="1038" 
d="M932 708v-538h86v-312h-170v142h-792v708h180v-538h168v538h180v-538h168v538h180z" />
    <glyph glyph-name="uni042A" unicode="&#x42a;" horiz-adv-x="714" 
d="M17 538v170h315v-241h106q72 0 121 -16t78.5 -45.5t42.5 -70.5t13 -92q0 -52 -17 -96.5t-49 -77t-78.5 -51t-105.5 -18.5h-291v538h-135zM438 157q23 0 38 7.5t24 19.5t13 28t4 33q0 39 -21 59.5t-58 20.5h-106v-168h106z" />
    <glyph glyph-name="uni042B" unicode="&#x42b;" horiz-adv-x="915" 
d="M597 243q0 -52 -17 -96.5t-49 -77t-78.5 -51t-105.5 -18.5h-291v708h180v-241h106q72 0 121 -16t78.5 -45.5t42.5 -70.5t13 -92zM859 0h-179v708h179v-708zM342 157q23 0 38 7.5t24 19.5t13 28t4 33q0 39 -21 59.5t-58 20.5h-106v-168h106z" />
    <glyph glyph-name="uni042C" unicode="&#x42c;" horiz-adv-x="618" 
d="M597 243q0 -52 -17 -96.5t-49 -77t-78.5 -51t-105.5 -18.5h-291v708h180v-241h106q72 0 121 -16t78.5 -45.5t42.5 -70.5t13 -92zM342 157q23 0 38 7.5t24 19.5t13 28t4 33q0 39 -21 59.5t-58 20.5h-106v-168h106z" />
    <glyph glyph-name="uni042D" unicode="&#x42d;" 
d="M369 283h-157v149h157v42q0 18 -8.5 32.5t-22.5 24.5t-32 15t-37 5q-32 0 -61 -14t-45 -43l-146 59q21 47 50.5 79t62.5 51t68 27t68 8q53 0 104 -15.5t90.5 -46.5t64 -76.5t24.5 -105.5v-241q0 -60 -24 -105.5t-63.5 -76t-90 -46t-102.5 -15.5q-33 0 -69 9t-70 28
t-64 49.5t-52 73.5l156 72q14 -34 43 -48t61 -14q18 0 35.5 5t30.5 14.5t21 23t8 30.5v50z" />
    <glyph glyph-name="uni042E" unicode="&#x42e;" horiz-adv-x="974" 
d="M346 475q0 61 25.5 106.5t66.5 76t94 45.5t108 15t108 -15t94.5 -45.5t67 -76t25.5 -106.5v-242q0 -61 -25.5 -106.5t-66.5 -76t-94 -45.5t-108 -15t-108 15t-94.5 45.5t-67 76t-25.5 106.5v42h-112v-275h-180v708h180v-269h112v36zM526 237q0 -19 10 -33.5t26 -24
t36.5 -14.5t41.5 -5t42 4.5t37 14.5t26 24t10 34v231q0 20 -10 35t-26 25t-37 15t-42 5t-41.5 -5.5t-36.5 -15.5t-26 -25t-10 -34v-231z" />
    <glyph glyph-name="uni042F" unicode="&#x42f;" horiz-adv-x="646" 
d="M410 0v238h-29l-190 -238h-223l216 256q-30 10 -56.5 26.5t-46 42.5t-30.5 62.5t-11 87.5q3 112 73.5 172.5t194.5 60.5h282v-708h-180zM305 538q-41 0 -63 -20t-22 -57q0 -35 20.5 -58.5t64.5 -23.5h105v159h-105z" />
    <glyph glyph-name="uni0430" unicode="&#x430;" horiz-adv-x="483" 
d="M23 0zM218 323q12 0 29.5 -1t30.5 -3q1 22 -4.5 36.5t-15.5 22.5t-23 11.5t-27 3.5q-27 0 -48.5 -10t-41.5 -27l-78 79q36 49 88 71t108 22q40 0 77 -11t65.5 -34t45.5 -57.5t17 -82.5v-318q-50 -18 -102 -26.5t-98 -8.5q-111 0 -164.5 45.5t-53.5 126.5q0 33 12 62.5
t36.5 51.5t61 34.5t85.5 12.5zM276 209q-17 5 -33.5 4.5t-30.5 -6.5t-22.5 -17t-8.5 -27q0 -20 9.5 -30.5t23.5 -14.5t30.5 -3t31.5 5v89z" />
    <glyph glyph-name="uni0431" unicode="&#x431;" horiz-adv-x="511" 
d="M298 485q39 0 71.5 -12.5t56 -36t37 -57.5t13.5 -77v-129q0 -46 -18.5 -80t-49 -57t-69.5 -34.5t-79 -11.5t-79 11.5t-69.5 34.5t-49 57t-18.5 80v358q0 52 18.5 84t46.5 50.5t60.5 26t59.5 11.5q48 7 94.5 17t80.5 31l49 -126q-30 -22 -68.5 -33t-73.5 -16
q-16 -2 -33 -3.5t-31.5 -7.5t-23.5 -18.5t-9 -36.5v-48q11 8 32.5 15.5t51.5 7.5zM306 305q0 18 -14.5 28t-31.5 10q-14 0 -26 -3.5t-20 -11.5v-149q0 -18 14 -28.5t32 -10.5t32 10.5t14 28.5v126z" />
    <glyph glyph-name="uni0432" unicode="&#x432;" horiz-adv-x="517" 
d="M471 385q0 -41 -17.5 -68t-45.5 -41q26 -12 41.5 -27t24 -32.5t11.5 -36.5t3 -40q0 -69 -55.5 -104.5t-159.5 -35.5h-225v518h225q107 0 152.5 -34t45.5 -99zM269 315q25 0 37 13.5t12 30.5q-1 24 -14.5 34t-37.5 10h-48v-88h51zM269 115q57 0 59 51q1 28 -14.5 39
t-44.5 11h-51v-101h51z" />
    <glyph glyph-name="uni0433" unicode="&#x433;" horiz-adv-x="399" 
d="M48 0v518h338v-150h-168v-368h-170z" />
    <glyph glyph-name="uni0434" unicode="&#x434;" horiz-adv-x="598" 
d="M417 -118v118h-240v-118h-159v256h5q27 0 43.5 9t26.5 28t15.5 48t8.5 68l20 227h375v-380h64v-256h-159zM349 138v237h-70l-11 -154q-2 -26 -7.5 -47.5t-13.5 -35.5h102z" />
    <glyph glyph-name="uni0435" unicode="&#x435;" horiz-adv-x="479" 
d="M35 0zM189 180q0 -29 22 -44t51 -15q20 0 41.5 8t37.5 27l94 -76q-20 -28 -43 -45.5t-47 -27.5t-48.5 -13.5t-46.5 -3.5q-40 0 -78.5 11.5t-69 35.5t-49 59.5t-18.5 83.5v162q0 48 18.5 83.5t48.5 58t68 33.5t78 11q39 0 75 -11.5t64.5 -34.5t45.5 -59t17 -84v-140h-261
v-19zM304 347q0 23 -17.5 34t-38.5 11q-22 0 -39.5 -12t-17.5 -36v-34h113v37z" />
    <glyph glyph-name="uni0436" unicode="&#x436;" horiz-adv-x="747" 
d="M291 167l-100 -167h-188l181 267l-182 251h190l99 -171v171h165v-171l99 171h190l-182 -251l181 -267h-188l-100 167v-167h-165v167z" />
    <glyph glyph-name="uni0437" unicode="&#x437;" horiz-adv-x="443" 
d="M101 160q20 -21 41.5 -30.5t50.5 -9.5q28 0 44.5 11t17.5 33q1 23 -12.5 36t-42.5 13h-65v102h61q49 0 49 47q0 20 -14.5 29t-38.5 9t-42 -9.5t-35 -24.5l-83 75q30 46 80 66.5t105 20.5q35 0 67.5 -7.5t58 -24.5t40.5 -42.5t15 -61.5q0 -41 -17.5 -71.5t-45.5 -44.5
q38 -18 59 -49t21 -80q0 -41 -16.5 -70t-44.5 -48.5t-63.5 -29t-72.5 -9.5q-32 0 -64 5.5t-59.5 17t-49.5 30t-34 43.5z" />
    <glyph glyph-name="uni0438" unicode="&#x438;" horiz-adv-x="557" 
d="M352 292l-4 1l-28 -90l-104 -203h-168v518h170v-199l-10 -111l3 -1l32 89l99 222h167v-518h-170v179z" />
    <glyph glyph-name="uni0439" unicode="&#x439;" horiz-adv-x="557" 
d="M468 756q0 -59 -26.5 -98.5t-66 -59t-85.5 -19.5t-85 20t-64 59t-23 98h132q0 -23 13.5 -34.5t29.5 -11.5t29.5 11t13.5 35h132zM352 292l-4 1l-28 -90l-104 -203h-168v518h170v-199l-10 -111l3 -1l32 89l99 222h167v-518h-170v179z" />
    <glyph glyph-name="uni043A" unicode="&#x43a;" horiz-adv-x="522" 
d="M329 518h193l-188 -251l187 -267h-191l-112 166v-166h-170v518h170v-161z" />
    <glyph glyph-name="uni043B" unicode="&#x43b;" horiz-adv-x="551" 
d="M333 0v368h-51l-14 -180q-5 -56 -21 -92.5t-46 -57.5t-75.5 -29.5t-107.5 -8.5v137q27 0 44 8.5t28 27.5t17 48t9 70l19 227h368v-518h-170z" />
    <glyph glyph-name="uni043C" unicode="&#x43c;" horiz-adv-x="656" 
d="M209 261h-5l14 -112v-149h-170v518h181l99 -261l99 261h181v-518h-170v149l14 112h-5l-67 -185h-103z" />
    <glyph glyph-name="uni043D" unicode="&#x43d;" horiz-adv-x="525" 
d="M307 0v195h-89v-195h-170v518h170v-173h89v173h170v-518h-170z" />
    <glyph glyph-name="uni043E" unicode="&#x43e;" horiz-adv-x="493" 
d="M35 337q0 48 18 83.5t47.5 59.5t67.5 36t78 12q39 0 77 -12t68 -36t48.5 -59.5t18.5 -83.5v-164q0 -46 -18 -80t-48 -57t-68 -34.5t-78 -11.5t-78 12t-67.5 34.5t-47.5 57t-18 79.5v164zM246 378q-15 0 -30.5 -10t-15.5 -28v-169q0 -18 14.5 -28.5t31.5 -10.5t31.5 10.5
t14.5 28.5v169q0 18 -15.5 28t-30.5 10z" />
    <glyph glyph-name="uni043F" unicode="&#x43f;" horiz-adv-x="527" 
d="M309 0v368h-91v-368h-170v518h431v-518h-170z" />
    <glyph glyph-name="uni0440" unicode="&#x440;" horiz-adv-x="521" 
d="M51 484q48 18 105 31t113 13q42 0 79.5 -9t66.5 -29.5t47 -54.5t21 -85v-177q1 -42 -17 -76t-47 -58t-65.5 -36.5t-73.5 -12.5q-31 0 -59 9v-185h-170v670zM221 128q16 -7 34 -7q9 0 19.5 2t19 7t14 13.5t5.5 20.5v186q0 23 -19.5 32.5t-40.5 9.5q-17 0 -32 -5v-259z" />
    <glyph glyph-name="uni0441" unicode="&#x441;" horiz-adv-x="462" 
d="M449 142q-14 -44 -37.5 -73t-51 -46.5t-57.5 -25t-56 -7.5q-39 0 -77 10t-68 32t-48.5 57.5t-18.5 85.5v163q0 48 18.5 83.5t48.5 59t68 35.5t77 12q26 0 55 -6.5t55.5 -23t48 -43.5t33.5 -69l-142 -44q-5 23 -20 33.5t-32 10.5t-31 -11.5t-14 -32.5v-166q0 -21 14 -32.5
t33 -11.5q17 0 33 10t23 33z" />
    <glyph glyph-name="uni0442" unicode="&#x442;" horiz-adv-x="460" 
d="M315 378v-378h-170v378h-129v140h428v-140h-129z" />
    <glyph glyph-name="uni0443" unicode="&#x443;" horiz-adv-x="514" 
d="M44 0zM466 12q0 -58 -15.5 -101.5t-44 -73t-68 -44t-87.5 -14.5q-47 0 -94 15.5t-93 54.5l67 104q23 -14 48 -22.5t47 -8.5q41 0 60 22.5t19 57.5q-32 -12 -78 -12q-35 0 -67.5 10t-58.5 31t-41.5 54t-15.5 79v354h163v-343q0 -25 16.5 -36t36.5 -11q23 0 40 11v379h166
v-506z" />
    <glyph glyph-name="uni0444" unicode="&#x444;" horiz-adv-x="724" 
d="M280 2q-10 -5 -26 -8.5t-36 -3.5q-95 0 -137 47.5t-42 125.5v192q0 78 42 125.5t137 47.5q20 0 35.5 -3.5t25.5 -8.5v192h165v-192q10 5 26 8.5t36 3.5q95 0 137 -47.5t42 -125.5v-192q0 -78 -42 -125.5t-137 -47.5q-20 0 -36 3.5t-26 8.5v-188h-165zM209 172
q0 -24 11.5 -34t31.5 -10q9 0 15 2t13 7v244q-7 5 -13 7t-15 2q-20 0 -31.5 -10t-11.5 -34v-174zM515 346q0 24 -11.5 34t-31.5 10q-9 0 -15 -2t-13 -7v-244q7 -5 13 -7t15 -2q20 0 31.5 10t11.5 34v174z" />
    <glyph glyph-name="uni0445" unicode="&#x445;" horiz-adv-x="527" 
d="M185 0h-180l158 259l-159 259h183l53 -91l21 -65h1l19 67l52 89h188l-162 -257q19 -27 41 -61t44 -69t43 -69t38 -62h-192l-57 95l-17 58h-2l-18 -59z" />
    <glyph glyph-name="uni0446" unicode="&#x446;" horiz-adv-x="564" 
d="M543 -128h-148l-10 128h-337v518h170v-380h89v380h170v-380h66v-266z" />
    <glyph glyph-name="uni0447" unicode="&#x447;" horiz-adv-x="501" 
d="M283 0v163q-14 -10 -37 -16t-49 -6q-25 0 -54.5 7.5t-55 26.5t-43 52t-17.5 83v208h170v-180q0 -47 43 -47q14 0 24.5 3.5t18.5 8.5v215h170v-518h-170z" />
    <glyph glyph-name="uni0448" unicode="&#x448;" horiz-adv-x="766" 
d="M218 518v-373h80v373h170v-373h80v373h170v-518h-670v518h170z" />
    <glyph glyph-name="uni0449" unicode="&#x449;" horiz-adv-x="805" 
d="M48 518h170v-380h80v380h170v-380h80v380h170v-380h65v-266h-147l-10 128h-578v518z" />
    <glyph glyph-name="uni044A" unicode="&#x44a;" horiz-adv-x="565" 
d="M12 518h267v-169h85q92 0 138.5 -47t46.5 -132q0 -48 -14 -80.5t-41.5 -52.5t-67.5 -28.5t-92 -8.5h-225v396h-97v122zM330 115q29 0 43.5 17t15.5 43q1 63 -59 63h-51v-123h51z" />
    <glyph glyph-name="uni044B" unicode="&#x44b;" horiz-adv-x="759" 
d="M303 349q92 0 138.5 -47t46.5 -132q0 -48 -14 -80.5t-41.5 -52.5t-67.5 -28.5t-92 -8.5h-225v518h170v-169h85zM542 518h169v-518h-169v518zM269 115q29 0 43.5 17t15.5 43q1 63 -59 63h-51v-123h51z" />
    <glyph glyph-name="uni044C" unicode="&#x44c;" horiz-adv-x="504" 
d="M303 349q92 0 138.5 -47t46.5 -132q0 -48 -14 -80.5t-41.5 -52.5t-67.5 -28.5t-92 -8.5h-225v518h170v-169h85zM269 115q29 0 43.5 17t15.5 43q1 63 -59 63h-51v-123h51z" />
    <glyph glyph-name="uni044D" unicode="&#x44d;" horiz-adv-x="470" 
d="M218 528q39 0 78 -12t70 -35.5t50 -59t19 -83.5v-159q0 -48 -19 -83.5t-50 -59t-70 -35t-78 -11.5q-26 0 -56 7t-57.5 23.5t-51 45t-37.5 72.5l141 33q8 -22 21.5 -38.5t38.5 -16.5q19 0 33.5 11t14.5 33v41h-86v101h86v33q0 21 -14 32.5t-31 11.5q-17 1 -32 -10t-20 -34
l-142 51q12 42 33.5 69t48 43.5t55.5 23t55 6.5z" />
    <glyph glyph-name="uni044E" unicode="&#x44e;" horiz-adv-x="739" 
d="M216 336h56q0 48 19 84t49.5 60t69.5 36t78 12t78 -12t69.5 -36t49.5 -59.5t19 -83.5v-164q0 -46 -18.5 -80t-49 -57t-69.5 -34.5t-79 -11.5t-79 11.5t-69.5 34.5t-49 57t-18.5 80v27h-56v-200h-169v518h169v-182zM488 140q18 0 31.5 10.5t14.5 28.5v161q0 18 -14.5 28
t-31.5 10t-31.5 -10t-14.5 -28v-161q1 -18 14.5 -28.5t31.5 -10.5z" />
    <glyph glyph-name="uni044F" unicode="&#x44f;" horiz-adv-x="523" 
d="M305 0l1 181h-4l-112 -181h-190l146 201q-48 17 -78 52t-30 98q0 46 15.5 77.5t45 51.5t70.5 29t92 9h214v-518h-170zM259 402q-29 0 -45.5 -14.5t-16.5 -41.5q0 -26 15 -43t47 -17h46v116h-46z" />
    <glyph glyph-name="uni0451" unicode="&#x451;" horiz-adv-x="479" 
d="M43 644q0 36 24.5 60.5t59.5 24.5t59.5 -24.5t24.5 -60.5q0 -17 -6.5 -32.5t-18 -26.5t-26.5 -17.5t-33 -6.5t-33 6.5t-26.5 17.5t-18 26.5t-6.5 32.5zM274 644q0 36 23.5 60.5t60.5 24.5q36 0 60.5 -24.5t24.5 -60.5q0 -35 -24.5 -59t-60.5 -24q-37 0 -60.5 24t-23.5 59
zM189 199h261v140q0 48 -17 84t-45.5 59t-64.5 34.5t-75 11.5q-40 0 -78 -11t-68 -33.5t-48.5 -58t-18.5 -83.5v-162q0 -48 18.5 -83.5t49 -59.5t69 -35.5t78.5 -11.5q22 0 46.5 3.5t48.5 13.5t47 27.5t43 45.5l-94 76q-16 -19 -37.5 -27t-41.5 -8q-29 0 -51 15t-22 44v19z
M304 310h-113v34q0 24 17.5 36t39.5 12q21 0 38.5 -11t17.5 -34v-37z" />
    <glyph glyph-name="Wgrave" unicode="&#x1e80;" horiz-adv-x="915" 
d="M408 756l-131 166h186l100 -166h-155zM730 708h185l-204 -708h-166l-63 196l-25 162h-3l-27 -161l-56 -197h-166l-205 708h186l84 -339l18 -150h5l17 149l79 248h136l73 -249l23 -148h3l20 148z" />
    <glyph glyph-name="wgrave" unicode="&#x1e81;" horiz-adv-x="754" 
d="M324 566l-131 166h186l100 -166h-155zM510 185l16 108l54 225h171l-151 -518h-173l-34 127l-14 87h-3l-16 -87l-34 -127h-173l-150 518h170l54 -225l16 -108h3l58 323h145l58 -323h3z" />
    <glyph glyph-name="Wacute" unicode="&#x1e82;" horiz-adv-x="915" 
d="M513 756h-155l100 166h186zM730 708h185l-204 -708h-166l-63 196l-25 162h-3l-27 -161l-56 -197h-166l-205 708h186l84 -339l18 -150h5l17 149l79 248h136l73 -249l23 -148h3l20 148z" />
    <glyph glyph-name="wacute" unicode="&#x1e83;" horiz-adv-x="754" 
d="M429 566h-155l100 166h186zM510 185l16 108l54 225h171l-151 -518h-173l-34 127l-14 87h-3l-16 -87l-34 -127h-173l-150 518h170l54 -225l16 -108h3l58 323h145l58 -323h3z" />
    <glyph glyph-name="Wdieresis" unicode="&#x1e84;" horiz-adv-x="915" 
d="M256 834q0 36 24.5 60.5t59.5 24.5t59.5 -24.5t24.5 -60.5q0 -17 -6.5 -32.5t-18 -26.5t-26.5 -17.5t-33 -6.5t-33 6.5t-26.5 17.5t-18 26.5t-6.5 32.5zM497 834q0 36 23.5 60.5t60.5 24.5q36 0 60.5 -24.5t24.5 -60.5q0 -35 -24.5 -59t-60.5 -24q-37 0 -60.5 24
t-23.5 59zM644 367l-20 -148h-3l-23 148l-73 249h-136l-79 -248l-17 -149h-5l-18 150l-84 339h-186l205 -708h166l56 197l27 161h3l25 -162l63 -196h166l204 708h-185z" />
    <glyph glyph-name="wdieresis" unicode="&#x1e85;" horiz-adv-x="754" 
d="M172 644q0 36 24.5 60.5t59.5 24.5t59.5 -24.5t24.5 -60.5q0 -17 -6.5 -32.5t-18 -26.5t-26.5 -17.5t-33 -6.5t-33 6.5t-26.5 17.5t-18 26.5t-6.5 32.5zM413 644q0 36 23.5 60.5t60.5 24.5q36 0 60.5 -24.5t24.5 -60.5q0 -35 -24.5 -59t-60.5 -24q-37 0 -60.5 24
t-23.5 59zM507 185l-58 323h-145l-58 -323h-3l-16 108l-54 225h-170l150 -518h173l34 127l16 87h3l14 -87l34 -127h173l151 518h-171l-54 -225l-16 -108h-3z" />
    <glyph glyph-name="Ygrave" unicode="&#x1ef2;" horiz-adv-x="655" 
d="M271 756l-131 166h186l100 -166h-155zM238 0v279l-247 429h208l128 -260l128 260h210l-248 -429v-279h-179z" />
    <glyph glyph-name="ygrave" unicode="&#x1ef3;" horiz-adv-x="514" 
d="M201 566l-131 166h186l100 -166h-155zM466 12q0 -58 -15.5 -101.5t-44 -73t-68 -44t-87.5 -14.5q-47 0 -94 15.5t-93 54.5l67 104q23 -14 48 -22.5t47 -8.5q41 0 60 22.5t19 57.5q-32 -12 -78 -12q-35 0 -67.5 10t-58.5 31t-41.5 54t-15.5 79v354h163v-343
q0 -25 16.5 -36t36.5 -11q23 0 40 11v379h166v-506z" />
    <glyph glyph-name="endash" unicode="&#x2013;" horiz-adv-x="571" 
d="M525 205h-479v169h479v-169z" />
    <glyph glyph-name="emdash" unicode="&#x2014;" horiz-adv-x="868" 
d="M822 205h-776v169h776v-169z" />
    <glyph glyph-name="quoteleft" unicode="&#x2018;" horiz-adv-x="310" 
d="M136 709h157l-68 -217h-202z" />
    <glyph glyph-name="quoteright" unicode="&#x2019;" horiz-adv-x="299" 
d="M186 500h-157l58 206h202z" />
    <glyph glyph-name="quotesinglbase" unicode="&#x201a;" horiz-adv-x="295" 
d="M143 -104h-152l74 219h195z" />
    <glyph glyph-name="quotedblleft" unicode="&#x201c;" horiz-adv-x="544" 
d="M136 709h157l-68 -217h-202zM370 709h157l-68 -217h-202z" />
    <glyph glyph-name="quotedblright" unicode="&#x201d;" horiz-adv-x="530" 
d="M186 500h-157l58 206h202zM417 500h-157l58 206h202z" />
    <glyph glyph-name="quotedblbase" unicode="&#x201e;" horiz-adv-x="517" 
d="M142 -104h-152l74 208h195zM366 -104h-152l73 208h196z" />
    <glyph glyph-name="dagger" unicode="&#x2020;" horiz-adv-x="511" 
d="M25 518h145v190h171v-190h145v-170h-145v-444h-171v444h-145v170z" />
    <glyph glyph-name="daggerdbl" unicode="&#x2021;" horiz-adv-x="547" 
d="M43 235h145v141h-145v165h145v167h171v-167h145v-165h-145v-141h145v-166h-145v-165h-171v165h-145v166z" />
    <glyph glyph-name="bullet" unicode="&#x2022;" horiz-adv-x="420" 
d="M48 331q0 33 12.5 62.5t34.5 51.5t52 35t64 13q33 0 62.5 -13t51.5 -35t34.5 -51.5t12.5 -62.5q0 -34 -12.5 -63.5t-34.5 -51.5t-51.5 -35t-62.5 -13q-34 0 -64 13t-52 35t-34.5 51.5t-12.5 63.5z" />
    <glyph glyph-name="ellipsis" unicode="&#x2026;" horiz-adv-x="785" 
d="M29 95q0 21 8 39t21.5 31.5t32 21t39.5 7.5q42 0 70.5 -28.5t28.5 -70.5q0 -21 -7.5 -39.5t-21 -32t-31.5 -21.5t-39 -8t-39.5 8t-32 21.5t-21.5 32t-8 39.5zM294 95q0 42 28 70.5t70 28.5q21 0 39.5 -7.5t32 -21t21.5 -31.5t8 -39t-8 -39.5t-21.5 -32t-32 -21.5
t-39.5 -8t-38.5 8t-31 21.5t-21 32t-7.5 39.5zM557 95q0 21 7.5 39t21 31.5t31.5 21t39 7.5q44 0 72 -28.5t28 -70.5q0 -21 -7.5 -39.5t-21 -32t-31.5 -21.5t-40 -8q-21 0 -39 8t-31.5 21.5t-21 32t-7.5 39.5z" />
    <glyph glyph-name="perthousand" unicode="&#x2030;" horiz-adv-x="1072" 
d="M547 767l129 -86l-492 -757l-129 83zM325 541q0 -41 -11.5 -74t-31.5 -56t-47.5 -35t-60.5 -12q-71 0 -109.5 45.5t-38.5 133.5q0 81 41.5 128t106.5 47q73 0 112 -46t39 -131zM206 541q0 32 -9 46t-24 14t-25 -14t-10 -45q0 -32 10 -45.5t25 -13.5q33 0 33 58zM715 171
q0 -41 -11.5 -74t-31.5 -56t-47.5 -35t-60.5 -12q-71 0 -109.5 45.5t-38.5 133.5q0 81 41.5 128t106.5 47q73 0 112 -46t39 -131zM1049 171q0 -41 -11.5 -74t-31.5 -56t-47.5 -35t-60.5 -12q-71 0 -109.5 45.5t-38.5 133.5q0 81 41.5 128t106.5 47q73 0 112 -46t39 -131z
M596 171q0 32 -9 46t-24 14t-25 -14t-10 -45q0 -32 10 -45.5t25 -13.5q33 0 33 58zM930 171q0 32 -9 46t-24 14t-25 -14t-10 -45q0 -32 10 -45.5t25 -13.5q33 0 33 58z" />
    <glyph glyph-name="guilsinglleft" unicode="&#x2039;" horiz-adv-x="353" 
d="M323 438l-103 -150q12 -18 25.5 -38t27 -40.5t26.5 -40t24 -36.5l-145 -85l-159 239l160 238z" />
    <glyph glyph-name="guilsinglright" unicode="&#x203a;" horiz-adv-x="353" 
d="M29 133l103 154l-102 151l145 86l159 -237l-157 -238z" />
    <glyph glyph-name="fraction" unicode="&#x2044;" horiz-adv-x="583" 
d="M135 -77l-141 87l454 761l141 -86z" />
    <glyph glyph-name="Euro" unicode="&#x20ac;" horiz-adv-x="645" 
d="M87 474q0 60 23.5 105.5t62.5 76.5t89.5 46.5t103.5 15.5q33 0 68 -8t68 -27t62.5 -51t50.5 -79l-146 -59q-18 33 -52.5 46.5t-68.5 9.5t-59.5 -23.5t-25.5 -52.5v-4h178l-23 -108h-155v-31h178l-23 -108h-154q4 -29 30.5 -46t59 -18.5t63.5 13.5t45 50l156 -72
q-22 -43 -52 -73.5t-64 -49.5t-70 -28t-69 -9q-51 0 -99.5 14.5t-87 44t-63 73t-26.5 101.5h-62l22 108h40v31h-62l22 108h40v4z" />
    <glyph glyph-name="uni2113" unicode="&#x2113;" horiz-adv-x="450" 
d="M427 73q-35 -43 -83.5 -62.5t-95 -15.5t-84.5 33t-52 83l-37 -28l-59 136l81 69v185q0 71 14.5 117.5t38.5 74.5t54 39t60 11q38 0 66.5 -14t47 -38.5t27.5 -58t9 -71.5q0 -83 -41.5 -161t-109.5 -151v-7q0 -50 23.5 -59.5t53.5 18.5zM235 396q16 33 28.5 68.5t12.5 64.5
q0 41 -11 49t-21.5 -11t-15.5 -62t7 -104v-5z" />
    <glyph glyph-name="trademark" unicode="&#x2122;" horiz-adv-x="863" 
d="M117 547h-88v162h343v-162h-90v-258h-165v258zM401 709h137l69 -132l71 132h133v-418h-149l3 119l-42 -73h-25l-45 74l2 -120h-154v418z" />
    <glyph glyph-name="Omega" unicode="&#x2126;" horiz-adv-x="774" 
d="M413 143q35 14 62 37.5t45.5 53t28 62.5t9.5 66q0 34 -10.5 66t-31.5 56.5t-53.5 39t-77.5 14.5q-42 0 -73.5 -15.5t-52 -41t-31 -58.5t-10.5 -69q0 -32 9 -64t26.5 -60t43.5 -51t61 -36v-143h-319v176h79q-37 38 -55.5 89t-18.5 109q0 84 29 147t77 105t109.5 63
t125.5 21q65 0 127.5 -21.5t111 -63.5t78.5 -104t30 -143q0 -57 -20 -112.5t-56 -89.5h77v-176h-319z" />
    <glyph glyph-name="estimated" unicode="&#x212e;" horiz-adv-x="799" 
d="M271 229q0 -14 0.5 -22.5t0.5 -23.5q26 -23 59.5 -36.5t70.5 -13.5q23 0 50 4.5t53.5 15.5t51 28.5t42.5 44.5l167 -1q-37 -64 -82 -108t-93 -71.5t-96.5 -40t-93.5 -12.5q-76 0 -143.5 26.5t-117.5 72t-79.5 107t-29.5 132.5q0 70 29.5 132t79.5 108t117.5 73t143.5 27
q77 0 145 -27t118.5 -73t79.5 -108t29 -132v-71h-502v-31zM533 477q-28 23 -61 37t-70 14q-36 0 -70.5 -14t-60.5 -37v-76h262v76z" />
    <glyph glyph-name="partialdiff" unicode="&#x2202;" horiz-adv-x="505" 
d="M57 629q41 26 84 44t87 18q45 0 89.5 -18.5t79 -59t56 -103.5t21.5 -151q0 -80 -16.5 -146.5t-48.5 -115.5t-79 -76t-108 -27q-50 0 -86.5 19t-60.5 50.5t-36.5 72t-13.5 84.5q-2 57 16.5 103.5t49.5 79.5t70 51t79 18q32 0 65 -12q-2 36 -19 56t-42 26t-54.5 -1.5
t-56.5 -25.5zM231 153q15 -1 30 16t26 41q9 20 13.5 45t5.5 51q-31 23 -53.5 20.5t-37.5 -19.5t-22.5 -43.5t-6.5 -51t10 -42t27 -17.5h8z" />
    <glyph glyph-name="Delta" unicode="&#x2206;" horiz-adv-x="585" 
d="M362 675l199 -567v-108h-537v107l199 568h139zM217 169h145l-72 273z" />
    <glyph glyph-name="product" unicode="&#x220f;" horiz-adv-x="632" 
d="M358 -53v594h-85v-594h-170v594h-76v168h579v-168h-79v-594h-169z" />
    <glyph glyph-name="summation" unicode="&#x2211;" horiz-adv-x="547" 
d="M216 312q-44 65 -89.5 138t-89.5 137v119h468v-147h-242q38 -58 79 -124.5t79 -122.5l-166 -223h262v-154h-490v117z" />
    <glyph glyph-name="minus" unicode="&#x2212;" horiz-adv-x="606" 
d="M558 211h-511v168h511v-168z" />
    <glyph glyph-name="uni2215" unicode="&#x2215;" horiz-adv-x="563" 
d="M130 -49l-141 87l445 750l141 -86z" />
    <glyph glyph-name="uni2219" unicode="&#x2219;" horiz-adv-x="264" 
d="M33 303q0 42 27.5 71.5t72.5 29.5q43 0 70.5 -29.5t27.5 -71.5t-27.5 -70t-70.5 -28q-45 0 -72.5 28t-27.5 70z" />
    <glyph glyph-name="radical" unicode="&#x221a;" horiz-adv-x="541" 
d="M107 224l-56 -15l-53 145l217 83l56 -283l94 605h174l-184 -875h-140z" />
    <glyph glyph-name="infinity" unicode="&#x221e;" horiz-adv-x="671" 
d="M643 284q0 -40 -15 -73t-39.5 -56t-56 -36t-65.5 -13q-83 0 -131 61q-22 -24 -55.5 -42.5t-79.5 -18.5q-36 0 -67.5 13.5t-54.5 37t-36.5 55.5t-13.5 69q0 39 13 72t36.5 57t56 37.5t71.5 13.5q42 0 75 -18.5t58 -48.5q24 29 58 49t76 18q38 -2 69 -15t53.5 -36t35 -54.5
t12.5 -70.5v-1zM205 324q-24 0 -35.5 -12.5t-11.5 -28t11.5 -28t34.5 -12.5t62 41q-17 17 -33.5 28.5t-27.5 11.5zM469 324q-11 0 -27.5 -11.5t-33.5 -28.5q39 -41 62 -41t34.5 12.5t11.5 28t-11.5 28t-35.5 12.5z" />
    <glyph glyph-name="integral" unicode="&#x222b;" horiz-adv-x="383" 
d="M347 644q-24 14 -44 5t-21 -50l5 -546q0 -44 -13 -76.5t-35 -54t-51 -32.5t-61 -11q-59 0 -127 43l43 106q25 -18 46.5 -11t21.5 36q0 23 -0.5 58.5t-1.5 97.5t-2.5 157t-4.5 237q0 44 13 78t34.5 56.5t50 34t60.5 11.5q27 0 58 -9t63 -32z" />
    <glyph glyph-name="approxequal" unicode="&#x2248;" horiz-adv-x="498" 
d="M464 422q-32 -60 -68.5 -84.5t-77.5 -24.5q-25 0 -51 7.5t-53 19.5q-32 16 -56 11.5t-45 -27.5l-82 75q32 53 69.5 81.5t73.5 31.5q17 3 35 -3t35.5 -15t34.5 -17.5t33.5 -11t32 3.5t29.5 27zM467 226q-33 -60 -70.5 -86.5t-79.5 -26.5q-26 0 -51.5 8.5t-50.5 23.5
q-12 8 -21.5 12.5t-17.5 4.5t-19 -9.5t-31 -29.5l-91 78q30 48 54.5 74.5t50 35t55.5 2.5t70 -22v1q19 -7 30.5 -11.5t21 -4.5t21.5 5t32 17z" />
    <glyph glyph-name="notequal" unicode="&#x2260;" horiz-adv-x="528" 
d="M38 256h139l22 42h-161v142h236l50 96l121 -55l-22 -41h66v-142h-141l-22 -42h163v-142h-238l-49 -94l-121 51l22 43h-65v142z" />
    <glyph glyph-name="lessequal" unicode="&#x2264;" horiz-adv-x="489" 
d="M287 400q2 -2 8 -4.5t21 -10t42.5 -21t73.5 -36.5v-148h16v-167h-412v167h325l-321 168v105l392 207v-183z" />
    <glyph glyph-name="greaterequal" unicode="&#x2265;" horiz-adv-x="489" 
d="M449 345l-309 -162h313v-165h-412v165h16v142l115 58l29 14l-144 75v185l392 -208v-104z" />
    <glyph glyph-name="lozenge" unicode="&#x25ca;" horiz-adv-x="556" 
d="M20 331l201 357h117l198 -355l-200 -357h-120zM280 175l83 153l-86 160l-84 -157z" />
    <glyph glyph-name="i.loclTRK" horiz-adv-x="268" 
d="M43 645q0 19 7 35.5t20 29t29.5 19.5t36.5 7q40 0 66 -26.5t26 -64.5q0 -39 -26 -66t-66 -27q-39 0 -66 27t-27 66zM220 0h-172v518h172v-518z" />
    <glyph glyph-name="uni0414.loclBGR" horiz-adv-x="722" 
d="M16 -142v303h64l185 547h189l191 -547h62v-303h-182v142h-327v-142h-182zM363 508h-4l-31 -158l-53 -189h172l-49 191z" />
    <glyph glyph-name="uni041B.loclBGR" horiz-adv-x="634" 
d="M314 508l-43 -207l-84 -301h-192l238 708h165l244 -708h-192l-89 301l-41 207h-6z" />
    <glyph glyph-name="uni0432.loclBGR" horiz-adv-x="515" 
d="M482 173q0 -46 -19.5 -80t-51 -57t-71 -34.5t-79.5 -11.5q-48 0 -105.5 10t-108.5 30v505q0 46 18.5 80t49 57t69.5 34.5t79 11.5q39 0 76 -10.5t66 -32t47 -54.5t18 -79q0 -64 -25 -102.5t-57 -52.5q45 -7 69.5 -40t24.5 -87v-87zM217 418q10 3 18.5 6t18.5 7
q24 9 35 35t11 55q0 21 -9.5 34t-30.5 13q-18 0 -30.5 -10.5t-12.5 -28.5v-111zM312 272q0 21 -14.5 35t-38.5 10q-15 -2 -24 -5.5t-18 -6.5v-158q19 -7 45 -7q20 0 35 12t15 38v82z" />
    <glyph glyph-name="uni0433.loclBGR" horiz-adv-x="432" 
d="M414 73q-41 -48 -92 -65t-109 -17q-37 0 -71 9.5t-60 29t-41.5 49t-15.5 70.5t11.5 70t31 49t44.5 32t51 19q10 3 21 6t20.5 7t15.5 10t6 15q0 14 -10.5 19.5t-28.5 5.5q-16 0 -29.5 -4t-30.5 -13l-90 90q38 42 86.5 57.5t96.5 15.5q44 0 77.5 -13t55.5 -34.5t33 -50
t11 -59.5q0 -70 -38.5 -111.5t-112.5 -58.5q-29 -7 -46 -14t-17 -26q0 -15 13.5 -22t34.5 -7q20 0 44.5 9.5t51.5 30.5z" />
    <glyph glyph-name="uni0434.loclBGR" horiz-adv-x="503" 
d="M36 0zM36 345q0 52 19 87t50.5 56.5t72 30.5t84.5 9q54 0 104.5 -12.5t89.5 -31.5v-470q0 -62 -15.5 -106t-43 -72t-66.5 -41.5t-87 -13.5q-47 0 -92.5 13t-89.5 48l63 110q23 -14 47.5 -21t46.5 -7q79 0 79 78q-32 -12 -78 -12q-35 0 -68 10t-58.5 31t-41.5 54t-16 79
v181zM293 391q-15 10 -36 10q-23 0 -40 -12t-17 -38v-183q0 -25 16.5 -36t36.5 -11q23 0 40 11v259z" />
    <glyph glyph-name="uni0436.loclBGR" horiz-adv-x="745" 
d="M290 167l-100 -167h-188l181 267l-182 251h190l99 -171v361h165v-361l99 171h190l-182 -251l181 -267h-188l-100 167v-167h-165v167z" />
    <glyph glyph-name="uni0438.loclBGR" horiz-adv-x="513" 
d="M466 32q-40 -20 -89 -31t-98 -11q-46 0 -88.5 9.5t-75 32.5t-52 60t-19.5 93v333h168v-332q0 -26 16.5 -37t36.5 -11q17 0 32 6v374h169v-486z" />
    <glyph glyph-name="uni0439.loclBGR" horiz-adv-x="515" 
d="M438 756q0 -59 -26 -98.5t-65 -59t-84 -19.5t-84 19.5t-65 59t-26 98.5h131q0 -21 13.5 -31.5t30 -10.5t30.5 10.5t14 31.5h131zM468 32q-42 -20 -92 -31t-101 -11q-45 0 -87 10.5t-74 33.5t-51.5 60.5t-19.5 90.5v333h170v-330q0 -24 15 -36.5t33 -12.5q20 0 37 7v372
h170v-486z" />
    <glyph glyph-name="uni043A.loclBGR" horiz-adv-x="523" 
d="M329 518h193l-188 -251l187 -267h-191l-112 166v-166h-170v708h170v-351z" />
    <glyph glyph-name="uni043B.loclBGR" horiz-adv-x="512" 
d="M253 366l-22 -144l-52 -222h-178l157 518h192l162 -518h-185l-48 221l-23 145h-3z" />
    <glyph glyph-name="uni043F.loclBGR" horiz-adv-x="512" 
d="M47 486q41 20 89.5 31t99.5 11q45 0 87 -10t74.5 -33.5t52 -60.5t19.5 -91v-333h-168v332q0 26 -15 37t-35 11t-35 -6v-374h-169v486z" />
    <glyph glyph-name="uni0442.loclBGR" horiz-adv-x="735" 
d="M47 476q29 23 76 37.5t97 14.5q43 0 83 -12t69 -41q24 26 58.5 39.5t66.5 13.5q40 0 76 -11t62 -34.5t41.5 -58.5t15.5 -83v-341h-168v343q0 16 -11 23.5t-24 7.5q-14 0 -26 -7.5t-12 -22.5v-344h-163v346q0 15 -11.5 22t-26.5 7q-11 0 -20.5 -3t-16.5 -10v-362h-166v476
z" />
    <glyph glyph-name="uni0446.loclBGR" horiz-adv-x="556" 
d="M271 -10q-45 0 -86 10.5t-72.5 33.5t-50 60.5t-18.5 90.5v333h170v-330q0 -24 12.5 -36.5t30.5 -12.5q20 0 37 7v372h170v-359h72v-163q-3 -45 -8.5 -78.5t-10.5 -55.5h-137l4 151q-23 -11 -55 -17t-58 -6z" />
    <glyph glyph-name="uni0448.loclBGR" horiz-adv-x="776" 
d="M729 42q-29 -23 -79 -37.5t-104 -14.5q-42 0 -86 12t-73 41q-12 -13 -29 -23t-36 -16.5t-38.5 -10t-37.5 -3.5q-39 0 -75.5 12.5t-65 36t-45.5 57.5t-17 78v344h170v-348q0 -17 12.5 -24t30.5 -7q14 0 29.5 8t15.5 22v349h170v-350q0 -14 15 -21.5t31 -7.5q31 0 42 11
v368h170v-476z" />
    <glyph glyph-name="uni0449.loclBGR" horiz-adv-x="822" 
d="M786 -137l-135 -1v147q-23 -9 -51 -14t-54 -5q-42 0 -86 12t-73 41q-12 -13 -29 -23t-36 -16.5t-38.5 -10t-37.5 -3.5q-39 0 -75.5 12.5t-65 36t-45.5 57.5t-17 78v344h170v-348q0 -17 12.5 -24t30.5 -7q14 0 29.5 8t15.5 22v349h170v-350q0 -14 15 -21.5t31 -7.5
q31 0 42 11v368h170v-359h74v-168z" />
    <glyph glyph-name="uni044E.loclBGR" horiz-adv-x="739" 
d="M216 336h56q0 48 19 84t49.5 60t69.5 36t78 12t78 -12t69.5 -36t49.5 -59.5t19 -83.5v-164q0 -46 -18.5 -80t-49 -57t-69.5 -34.5t-79 -11.5t-79 11.5t-69.5 34.5t-49 57t-18.5 80v27h-56v-200h-169v708h169v-372zM488 140q18 0 31.5 10.5t14.5 28.5v161q0 18 -14.5 28
t-31.5 10t-31.5 -10t-14.5 -28v-161q1 -18 14.5 -28.5t31.5 -10.5z" />
    <glyph glyph-name="at.001" horiz-adv-x="750" 
d="M541 520q-13 18 -33 31t-43 22t-47 13t-45 4q-60 0 -106.5 -24.5t-78 -64t-48 -88.5t-16.5 -98q0 -59 22 -106t61 -75.5t92.5 -36.5t117.5 11l27 -96q-68 -21 -125 -21q-66 0 -125.5 25t-103 71t-67.5 110.5t-20 143.5q5 67 32 133t73.5 118t111 84t144.5 32
q54 0 105 -13q32 -9 63 -25t58 -36t48 -44t35 -50q22 -44 28.5 -95.5t-2.5 -101.5t-32.5 -95.5t-60.5 -77.5q-23 -21 -59 -36t-74 -15q-20 0 -37.5 4t-35.5 17q-31 -19 -71 -19t-72.5 15t-56 41t-36 61t-12.5 76q0 47 15 91t41.5 77.5t61.5 54t76 20.5q27 0 52 -8.5
t53 -31.5l18 21zM511 239q30 13 47.5 42.5t24 65t2.5 71t-18 59.5l-9 18zM344 244q12 0 24.5 4t20.5 12l32 147q-25 26 -47 30.5t-40.5 -5.5t-31 -31t-17.5 -46t-1 -50.5t20 -44.5q15 -16 40 -16z" />
    <glyph glyph-name=".ttfautohint" horiz-adv-x="330" 
d="M0 0z" />
    </font>
</defs>
</svg>
