<?xml version="1.0" standalone="no"?>
<!DOCTYPE svg PUBLIC "-//W3C//DTD SVG 1.1//EN" "http://www.w3.org/Graphics/SVG/1.1/DTD/svg11.dtd" >
<svg xmlns="http://www.w3.org/2000/svg" xmlns:xlink="http://www.w3.org/1999/xlink" version="1.1">
<metadata>
Created by FontForge 20170731 at Fri May 16 15:02:59 2014
 By Aleksey,,,
Copyright (c) 2014 by (c) 2009 Designed by Svetoslav Simov (c) Fontfabric, Inc. All rights reserved.
</metadata>
<defs>
<font id="UniSansBookItalic" horiz-adv-x="523" >
  <font-face 
    font-family="Uni Sans Book Italic"
    font-weight="400"
    font-style="italic"
    font-stretch="normal"
    units-per-em="1000"
    panose-1="0 0 5 0 0 0 0 0 0 0"
    ascent="756"
    descent="-244"
    x-height="518"
    cap-height="708"
    bbox="-112 -244 1036.71 921"
    underline-thickness="50"
    underline-position="-150"
    unicode-range="U+0020-FB02"
  />
<missing-glyph horiz-adv-x="500" 
d="M500 0h-500l98 700h500zM305 395l206 255h-340zM135 605l-72 -510l206 255zM329 350l134 -255l72 510zM87 50h340l-135 255z" />
    <glyph glyph-name="fi" unicode="fi" horiz-adv-x="473" 
d="M379 645q3 19 17.5 32t33.5 13t30.5 -13t8.5 -32q-2 -19 -17 -32t-34 -13t-30 13t-9 32zM308 0l72 518h56l-72 -518h-56zM-32 -149q25 16 36 42.5t15 52.5l84 599q6 42 24 73.5t44.5 52.5t60 31.5t70.5 10.5l-8 -56q-52 0 -89.5 -29t-45.5 -83l-7 -53h112l-7 -50h-112
l-70 -496q-7 -47 -28 -80.5t-53 -53.5z" />
    <glyph glyph-name="fl" unicode="fl" horiz-adv-x="501" 
d="M453 -10q-76 0 -111 43t-24 121l78 555h56l-78 -555q-8 -52 13 -80t74 -28zM-32 -149q25 16 36 42.5t15 52.5l84 599q6 42 24 73.5t44.5 52.5t60 31.5t70.5 10.5l-8 -56q-52 0 -89.5 -29t-45.5 -83l-7 -53h112l-7 -50h-112l-70 -496q-7 -47 -28 -80.5t-53 -53.5z" />
    <glyph glyph-name=".notdef" horiz-adv-x="500" 
d="M500 0h-500l98 700h500zM305 395l206 255h-340zM135 605l-72 -510l206 255zM329 350l134 -255l72 510zM87 50h340l-135 255z" />
    <glyph glyph-name=".null" horiz-adv-x="0" 
 />
    <glyph glyph-name="nonmarkingreturn" horiz-adv-x="333" 
 />
    <glyph glyph-name="space" unicode=" " horiz-adv-x="219" 
 />
    <glyph glyph-name="exclam" unicode="!" horiz-adv-x="205" 
d="M130 708h59l-73 -522h-59zM17 38q3 20 19 34t36 14t32 -14t9 -34q-2 -20 -18 -34t-36 -14t-32 14t-10 34z" />
    <glyph glyph-name="quotedbl" unicode="&#x22;" horiz-adv-x="316" 
d="M131 480h-43l32 228h60zM268 480h-42l32 228h60z" />
    <glyph glyph-name="numbersign" unicode="#" horiz-adv-x="741" 
d="M645 222h-184l-97 -223h-63l98 223h-161l-97 -223h-63l98 223h-157l20 56h162l69 159h-180l20 57h185l93 213h63l-93 -213h160l93 213h64l-94 -213h158l-23 -57h-161l-68 -159h180zM424 278l69 159h-160l-69 -159h160z" />
    <glyph glyph-name="dollar" unicode="$" horiz-adv-x="578" 
d="M323 392q42 -9 83 -21t70.5 -35.5t43.5 -61.5t2 -98q-8 -44 -32.5 -78t-59.5 -57.5t-77.5 -36.5t-86.5 -16l-15 -102h-49l15 102q-36 3 -70 12.5t-62 27t-48.5 41.5t-29.5 56l57 24q14 -45 59.5 -71t101.5 -31l42 298q-41 9 -79.5 20.5t-66.5 32.5t-41 54.5t-4 86.5
q7 42 30.5 75t56.5 55.5t74 36t83 16.5l14 102h49l-14 -102q36 -2 70 -11.5t61.5 -26.5t48 -40.5t29.5 -54.5l-56 -24q-14 45 -59 70t-102 29zM134 536q-7 -34 2 -56.5t29 -37.5t48.5 -24t61.5 -16l37 262q-31 -3 -60 -12t-53 -25t-41.5 -38.5t-23.5 -52.5zM274 47
q33 2 64 11.5t56.5 25.5t44 39.5t25.5 54.5q9 40 -0.5 66.5t-31 43.5t-52.5 27.5t-66 18.5z" />
    <glyph glyph-name="percent" unicode="%" horiz-adv-x="747" 
d="M43 -40l610 790l45 -30l-609 -790zM359 517q-6 -44 -22 -79.5t-39.5 -60t-52.5 -37.5t-61 -13q-71 0 -102.5 49t-18.5 143q6 43 22 78t39.5 60t52.5 38t61 13q69 0 101.5 -50t19.5 -141zM301 517q10 70 -9.5 102t-62.5 32q-45 0 -70.5 -31t-36.5 -101q-10 -72 7.5 -103
t63.5 -31q45 0 71.5 31.5t36.5 100.5zM698 186q-6 -44 -22 -79t-39.5 -59.5t-52 -37.5t-60.5 -13q-72 0 -103.5 48.5t-17.5 142.5q6 44 21.5 79t38.5 59.5t52 37.5t62 13q69 0 101.5 -49.5t19.5 -141.5zM640 186q10 70 -9.5 102.5t-62.5 32.5q-45 0 -71 -31.5t-36 -101.5
q-10 -72 7 -103t64 -31q44 0 71 31.5t37 100.5z" />
    <glyph glyph-name="ampersand" unicode="&#x26;" horiz-adv-x="620" 
d="M512 302l46 -24l-82 -108l94 -127h-76l-57 76q-50 -57 -105 -90t-128 -33q-44 0 -81 14t-62 40t-36 62.5t-5 82.5q6 40 23.5 70t43 53t57 42t63.5 37q-12 18 -24.5 37t-22 39t-14 42t-1.5 45q5 37 23.5 66t45.5 49t60 30.5t68 10.5q31 0 58 -10.5t46 -29.5t28 -45.5
t5 -59.5q-5 -37 -22.5 -64.5t-42.5 -48.5t-55.5 -38t-61.5 -32l146 -180zM331 665q-23 0 -44 -7.5t-38.5 -21.5t-29 -33t-14.5 -41q-3 -19 2.5 -38t14.5 -37t20.5 -35t21.5 -30q23 11 49 24.5t48 30.5t38 39t20 51q6 43 -18.5 70.5t-69.5 27.5zM238 360q-26 -14 -52 -29.5
t-48 -35t-38 -43.5t-20 -55q-5 -33 4 -60.5t28.5 -46.5t47.5 -29.5t61 -10.5q28 0 53.5 9t48.5 24t43.5 35t38.5 41z" />
    <glyph glyph-name="quotesingle" unicode="'" horiz-adv-x="182" 
d="M136 480h-48l32 228h60z" />
    <glyph glyph-name="parenleft" unicode="(" horiz-adv-x="259" 
d="M295 753q-38 -41 -69 -91.5t-54.5 -104.5t-39.5 -109t-23 -107q-16 -117 5 -217t68 -197l-51 -30q-28 48 -47 102.5t-29.5 111.5t-11.5 115t7 115q9 59 26.5 118.5t43.5 116.5t59.5 110t72.5 99z" />
    <glyph glyph-name="parenright" unicode=")" horiz-adv-x="260" 
d="M-32 -102q38 41 69.5 91t55 104t39.5 109.5t23 107.5q17 118 -2 226.5t-67 206.5l51 30q28 -48 46.5 -105.5t28.5 -118t10.5 -121.5t-7.5 -118q-17 -119 -69.5 -235t-131.5 -209z" />
    <glyph glyph-name="asterisk" unicode="*" horiz-adv-x="443" 
d="M440 556l-151 -45l74 -124l-41 -29l-77 125l-106 -125l-36 29l109 126l-140 46l21 46l141 -48l21 151h47l-21 -152l150 48z" />
    <glyph glyph-name="plus" unicode="+" horiz-adv-x="587" 
d="M310 595h57l-31 -225h222l-9 -58h-222l-32 -227h-57l32 227h-231l9 58h231z" />
    <glyph glyph-name="comma" unicode="," horiz-adv-x="208" 
d="M10 -138h-59l98 228h70z" />
    <glyph glyph-name="hyphen" unicode="-" horiz-adv-x="371" 
d="M304 271h-247l8 58h247z" />
    <glyph glyph-name="period" unicode="." horiz-adv-x="202" 
d="M17 42q3 20 19 34t36 14t32 -14t9 -34q-2 -20 -18 -34t-36 -14t-32 14t-10 34z" />
    <glyph glyph-name="slash" unicode="/" horiz-adv-x="402" 
d="M27 -36l-50 18l411 762l50 -18z" />
    <glyph glyph-name="zero" unicode="0" horiz-adv-x="627" 
d="M270 -10q-45 0 -89 12t-77 37.5t-51 64t-10 91.5l44 317q7 53 35.5 92t69 64.5t88 37.5t92.5 12t88.5 -12t76.5 -37.5t50.5 -64.5t10.5 -92l-44 -317q-8 -53 -36 -91.5t-68.5 -64t-87.5 -37.5t-92 -12zM102 195q-6 -41 8.5 -69t40.5 -45t59.5 -24.5t67.5 -7.5
q33 0 69 7.5t67 24.5t53 45t28 69l44 317q6 41 -8.5 69t-40 45.5t-59.5 25t-67 7.5q-34 0 -70 -7.5t-67 -25t-53 -45.5t-28 -69z" />
    <glyph glyph-name="one" unicode="1" horiz-adv-x="302" 
d="M187 0h-58l88 628l-138 -124l-38 35l185 170h60z" />
    <glyph glyph-name="two" unicode="2" horiz-adv-x="567" 
d="M337 659q-68 0 -123.5 -26t-84.5 -76l-49 23q19 34 47.5 60t63 43.5t74 26.5t81.5 9q81 0 133.5 -35.5t67.5 -91t-10.5 -122.5t-99.5 -129l-334 -281h383l-8 -59h-464l-13 45l399 335q58 49 79 98.5t10.5 89.5t-50 65t-102.5 25z" />
    <glyph glyph-name="three" unicode="3" horiz-adv-x="581" 
d="M62 146q8 -24 26.5 -42t43 -30t54 -18.5t60.5 -6.5q37 0 73.5 9t66.5 28t50.5 47.5t26.5 66.5q11 84 -30.5 121.5t-123.5 36.5h-59l8 55h59q31 0 58.5 6t48.5 20.5t34.5 37t18.5 55.5q5 34 -5 58t-30.5 39.5t-48.5 22.5t-59 7q-26 0 -53 -4.5t-51.5 -14t-45 -24.5
t-34.5 -35l-46 26q17 28 43 48.5t56.5 34.5t64.5 21t68 7q42 0 81 -11t67 -34t42.5 -58t7.5 -83t-30 -84.5t-68 -60.5q60 -23 77 -73.5t8 -114.5q-8 -53 -36 -92.5t-67.5 -65.5t-87 -39t-95.5 -13q-38 0 -74.5 8t-67.5 24.5t-54 41t-34 57.5z" />
    <glyph glyph-name="four" unicode="4" horiz-adv-x="575" 
d="M526 185h-79l-26 -185h-59l26 185h-356l-25 56l443 468h70l-66 -471h79zM395 238l61 403l-388 -403h327z" />
    <glyph glyph-name="five" unicode="5" horiz-adv-x="585" 
d="M75 146q17 -46 66.5 -71.5t109.5 -25.5q37 0 74 10t67.5 30t51.5 50t27 69l6 44q6 39 -6.5 66.5t-36.5 45.5t-58 26t-72 8q-55 0 -100 -10.5t-98 -33.5l-31 -2l50 356h438l-8 -59h-379l-32 -224q42 17 83.5 26t85.5 8q46 0 89 -12t75 -37t49 -64t10 -93l-6 -46
q-8 -54 -36.5 -94.5t-68.5 -67.5t-88 -41t-96 -14q-38 0 -73 8.5t-64.5 25t-52 40.5t-33.5 56z" />
    <glyph glyph-name="six" unicode="6" horiz-adv-x="622" 
d="M545 565q-16 48 -64.5 71t-109.5 23q-39 0 -77 -9t-69 -28t-52.5 -47t-26.5 -65l-21 -152q42 50 100 69.5t116 19.5q49 0 94 -13t77.5 -39t48.5 -64.5t9 -89.5l-6 -43q-7 -51 -34.5 -90t-67 -64.5t-88 -38.5t-97.5 -13q-50 0 -95 12.5t-78 38.5t-50 64.5t-11 90.5l44 313
q7 52 35 91t68.5 65t89.5 38.5t99 12.5q77 0 138.5 -31.5t84.5 -94.5zM511 240q5 37 -7.5 65t-38 46.5t-60 28t-72.5 9.5q-39 0 -77 -9t-69 -28t-52.5 -47t-26.5 -65l-6 -41q-5 -38 8.5 -65.5t39.5 -46.5t61.5 -28t74.5 -9q38 0 75.5 9.5t67.5 28t50.5 46.5t25.5 65z" />
    <glyph glyph-name="seven" unicode="7" horiz-adv-x="524" 
d="M81 709h466l15 -44l-453 -665h-67l442 649h-411z" />
    <glyph glyph-name="eight" unicode="8" horiz-adv-x="619" 
d="M254 -10q-48 0 -91.5 13t-75.5 39t-48.5 65.5t-9.5 92.5q4 31 15.5 60t30 53.5t43 42.5t54.5 27l1 3q-41 17 -56.5 57t-8.5 85q7 47 30.5 82.5t58 59.5t76 36t83.5 12h19q42 0 80.5 -12t66 -36t41.5 -59.5t8 -82.5q-7 -45 -33.5 -85t-71.5 -57l-1 -3q28 -9 47.5 -27
t31.5 -42.5t15.5 -53.5t-0.5 -60q-9 -53 -36.5 -92.5t-67 -65.5t-87 -39t-95.5 -13h-19zM348 660q-32 0 -62.5 -8t-56 -24t-43 -41t-21.5 -59q-6 -39 5 -62t33 -35.5t51 -16.5t59 -4h19q30 0 60.5 4t55.5 16.5t42.5 35.5t23.5 62q4 34 -6.5 59t-31 41t-49.5 24t-60 8h-19z
M281 48q34 0 70 8.5t67 27t53.5 47.5t28.5 70q7 48 -5.5 78t-37.5 46.5t-59.5 22.5t-73.5 6h-19q-39 0 -75 -6t-65.5 -22.5t-50 -46.5t-27.5 -78q-6 -41 8 -70t40 -47.5t59.5 -27t67.5 -8.5h19z" />
    <glyph glyph-name="nine" unicode="9" horiz-adv-x="622" 
d="M92 143q16 -48 64 -71t109 -23q39 0 77 9t69 28t52.5 46.5t26.5 65.5l22 152q-21 -25 -46.5 -42t-54 -27.5t-58 -15t-58.5 -4.5q-49 0 -93.5 13t-77 39t-49 64.5t-9.5 89.5l6 43q7 51 34.5 90t67 65.5t88 39.5t97.5 13t94.5 -13t78.5 -39t50.5 -65t10.5 -91l-44 -313
q-7 -52 -35 -90.5t-68.5 -64.5t-90 -38.5t-98.5 -12.5q-38 0 -73.5 8t-65 23.5t-51 39t-32.5 54.5zM125 468q-5 -37 7.5 -65t38 -46.5t60 -28t72.5 -9.5q39 0 77 9t69 28t52.5 46.5t26.5 65.5l6 41q5 37 -8 65.5t-39 47t-61.5 28t-74.5 9.5q-38 0 -75.5 -9.5t-67.5 -28.5
t-51 -47t-26 -65z" />
    <glyph glyph-name="colon" unicode=":" horiz-adv-x="221" 
d="M81 435q2 20 18 34t36 14t32 -14t10 -34q-3 -20 -19 -34t-36 -14t-32 14t-9 34zM28 57q2 20 18 34t36 14t32 -14t10 -34q-3 -20 -19 -34t-36 -14t-32 14t-9 34z" />
    <glyph glyph-name="semicolon" unicode=";" horiz-adv-x="250" 
d="M89 420q2 20 18 34t36 14t32 -14t10 -34q-3 -20 -19 -34t-36 -14t-32 14t-9 34zM37 -138h-59l90 228h78z" />
    <glyph glyph-name="less" unicode="&#x3c;" horiz-adv-x="437" 
d="M359 138l-9 -66l-323 207l6 48l382 210l-9 -67l-311 -167z" />
    <glyph glyph-name="equal" unicode="=" horiz-adv-x="535" 
d="M476 345h-407l8 54h407zM457 207h-407l7 55h407z" />
    <glyph glyph-name="greater" unicode="&#x3e;" horiz-adv-x="436" 
d="M402 279l-381 -207l9 66l310 165l-263 167l9 67l322 -210z" />
    <glyph glyph-name="question" unicode="?" horiz-adv-x="479" 
d="M70 631q41 44 96.5 65.5t112.5 21.5q43 0 82 -13t67 -38.5t41.5 -63.5t5.5 -89t-30 -88t-54.5 -63t-71.5 -41.5t-79 -22.5l-31 -163h-49l23 210q40 0 80 11.5t73 33t55 53t27 71.5q4 37 -6.5 64t-32 45t-50.5 26.5t-60 8.5q-44 0 -86.5 -15.5t-72.5 -47.5h-1zM179 85
q20 0 31 -14t9 -34q-3 -20 -18 -33.5t-35 -13.5t-32 13.5t-9 33.5q2 20 18 34t36 14z" />
    <glyph glyph-name="at" unicode="@" horiz-adv-x="774" 
d="M511 262q-8 -16 -12 -29t-5 -18q-2 -8 1.5 -17t19.5 -9q25 0 56.5 21.5t59.5 55.5t49 76.5t27 83.5q8 55 -8.5 100.5t-51 78t-82.5 50.5t-103 18q-67 0 -128 -26t-108.5 -70t-79 -101t-40.5 -120q-9 -66 7 -124t52.5 -101.5t90.5 -68.5t119 -25q26 0 51 4t52 14l17 -42
q-62 -23 -127 -23q-80 0 -143 28.5t-105 78t-60 116.5t-7 143q10 76 47.5 142.5t93.5 116t126.5 77.5t146.5 28q72 0 130 -22.5t97 -62t57 -93t9 -116.5q-9 -61 -36.5 -114t-65 -92t-81.5 -61.5t-86 -22.5q-26 0 -41.5 16.5t-10.5 49.5h-2q-12 -12 -27.5 -24t-33.5 -21.5
t-37 -15t-38 -5.5q-33 0 -56 11.5t-37 31t-18.5 46t-0.5 55.5q7 51 30 102t59 91.5t82 66t100 25.5q33 0 59.5 -18t33.5 -63h2l32 62h59zM244 282q-5 -41 15 -67t58 -26q34 0 67.5 22.5t61 56.5t45.5 73t23 71q7 48 -8 75t-57 27q-43 1 -78.5 -22t-62 -57.5t-43 -75.5
t-21.5 -77z" />
    <glyph glyph-name="A" unicode="A" horiz-adv-x="606" 
d="M559 0h-62l-52 236h-304l-116 -236h-62l353 708h86zM170 295h262l-79 369z" />
    <glyph glyph-name="B" unicode="B" horiz-adv-x="625" 
d="M483 377q59 -22 76.5 -69t8.5 -111q-9 -55 -32.5 -92.5t-58.5 -61t-79 -33.5t-94 -10h-268l99 708h269q41 0 76.5 -11t60 -33t35.5 -56t5 -79q-7 -48 -29.5 -88t-68.5 -64zM361 405q31 0 58.5 6.5t49 21.5t36 38.5t19.5 57.5q4 34 -4 57t-25.5 37t-43 20t-55.5 6h-210
l-35 -244h210zM313 59q39 -1 72 5t59 22t42.5 43t22.5 69t-2.5 70.5t-29 46t-52 24.5t-72.5 7h-210l-40 -287h210z" />
    <glyph glyph-name="C" unicode="C" horiz-adv-x="590" 
d="M85 503q7 53 36 93.5t70 67.5t90.5 40.5t99.5 13.5q37 0 72.5 -8t65.5 -23.5t52 -39.5t33 -56l-57 -26v-1q-8 24 -25.5 41.5t-41 29.5t-52 18t-58.5 6q-38 0 -76.5 -10t-70 -29.5t-53 -48.5t-26.5 -68l-41 -298q-5 -39 8.5 -68.5t39 -49t61 -29t73.5 -9.5q30 0 60 6
t57 18t49.5 29.5t37.5 41.5l50 -26q-20 -32 -49.5 -56t-64 -40t-73 -24t-76.5 -8q-49 0 -94.5 13.5t-78.5 40.5t-50 67t-9 94z" />
    <glyph glyph-name="D" unicode="D" horiz-adv-x="640" 
d="M135 708h236q50 0 96 -12t79.5 -37t50.5 -64t10 -94l-42 -295q-8 -54 -36 -93t-68.5 -64t-89.5 -37t-99 -12h-236zM280 59q39 0 77 8t69.5 26t53 46t26.5 67l42 295q6 40 -8 68t-40.5 46t-62 26t-74.5 8h-177l-83 -590h177z" />
    <glyph glyph-name="E" unicode="E" horiz-adv-x="567" 
d="M148 384h355l-8 -60h-355l-37 -265h385l-8 -59h-444l99 708h444l-8 -59h-385z" />
    <glyph glyph-name="F" unicode="F" horiz-adv-x="555" 
d="M186 649l-40 -286h337l-9 -59h-337l-42 -304h-59l99 708h443l-8 -59h-384z" />
    <glyph glyph-name="G" unicode="G" horiz-adv-x="633" 
d="M87 505q7 53 35.5 93t70 66.5t90.5 40t99 13.5q38 0 73.5 -7.5t65.5 -23t52 -39.5t33 -56l-57 -26q-8 24 -25.5 41.5t-41 29t-52 17t-58.5 5.5q-38 0 -76.5 -10t-70 -29.5t-53 -48.5t-26.5 -68l-41 -296q-6 -39 7.5 -69t40 -49.5t62 -29.5t74.5 -10t77.5 10t70.5 29.5
t54 49.5t27 69l12 89h-217l8 59h276l-20 -147q-8 -54 -36 -95t-69.5 -68.5t-91 -41t-99.5 -13.5t-95.5 13.5t-79 41t-51 68.5t-9.5 95z" />
    <glyph glyph-name="H" unicode="H" horiz-adv-x="688" 
d="M95 0h-59l99 708h59l-46 -325h413l46 325h59l-99 -708h-59l45 324h-413z" />
    <glyph glyph-name="I" unicode="I" horiz-adv-x="216" 
d="M95 0h-59l99 708h59z" />
    <glyph glyph-name="J" unicode="J" horiz-adv-x="590" 
d="M278 708h295l-71 -504q-8 -53 -34.5 -93t-64.5 -67t-84.5 -40.5t-94.5 -13.5q-42 0 -82.5 10.5t-72.5 32.5t-52 54.5t-22 76.5l55 10q2 -35 17.5 -59t40.5 -39.5t56 -22.5t64 -7q36 0 72 10t66 29.5t50.5 49.5t26.5 69l63 445h-236z" />
    <glyph glyph-name="K" unicode="K" horiz-adv-x="614" 
d="M139 319l451 389h76l-389 -341l288 -367h-76l-260 325l-101 -89l-33 -236h-59l99 708h59z" />
    <glyph glyph-name="L" unicode="L" horiz-adv-x="503" 
d="M36 0l99 708h59l-91 -649h354l-8 -59h-413z" />
    <glyph glyph-name="M" unicode="M" horiz-adv-x="802" 
d="M182 626l-87 -626h-59l99 708h86l162 -535l311 535h86l-99 -708h-59l87 626l-309 -529h-56z" />
    <glyph glyph-name="N" unicode="N" horiz-adv-x="688" 
d="M517 65l90 643h59l-99 -708h-88l-298 617l-86 -617h-59l99 708h72z" />
    <glyph glyph-name="O" unicode="O" horiz-adv-x="675" 
d="M85 500q7 54 37 95t73.5 68.5t95.5 41t105 13.5t101.5 -13.5t84 -41t53.5 -68.5t11 -95l-41 -292q-8 -54 -37.5 -95t-73 -68.5t-96 -41t-104.5 -13.5q-53 0 -101 13.5t-84 41t-54.5 68.5t-10.5 95zM103 208q-6 -40 9 -69.5t43.5 -49.5t66.5 -30t80 -10q41 0 82.5 10
t75.5 30t57 49.5t29 69.5l41 292q6 42 -9 72t-44 49.5t-67.5 28.5t-80.5 9q-41 0 -82 -9.5t-74.5 -29t-56.5 -49.5t-29 -71z" />
    <glyph glyph-name="P" unicode="P" horiz-adv-x="611" 
d="M36 0l99 708h267q78 0 125.5 -33t67 -82t11 -106.5t-41 -106.5t-89 -82t-134.5 -33h-209l-37 -265h-59zM348 324q59 0 101.5 24t67 60t30 78.5t-9 78.5t-50 60t-93.5 24h-208l-46 -325h208z" />
    <glyph glyph-name="Q" unicode="Q" horiz-adv-x="675" 
d="M396 718q53 0 101.5 -13.5t84 -41t53.5 -68.5t11 -95l-41 -292q-6 -42 -25 -75.5t-48 -59.5l40 -64l-51 -33l-38 61q-42 -23 -91 -35t-98 -12q-53 0 -101 13.5t-84 41t-54.5 68.5t-10.5 95l41 292q7 54 37 95t73.5 68.5t95.5 41t105 13.5zM587 500q6 42 -9 72t-44 49.5
t-67.5 28.5t-80.5 9q-41 0 -82 -9.5t-74.5 -29t-56.5 -49.5t-29 -71l-41 -292q-6 -40 9 -69.5t43.5 -49.5t66.5 -30t80 -10q45 0 83.5 8.5t68.5 24.5l-37 60l51 32l35 -55q36 37 43 89z" />
    <glyph glyph-name="R" unicode="R" horiz-adv-x="614" 
d="M272 300h-135l-42 -300h-59l99 708h267q50 0 91 -11.5t69.5 -36.5t41.5 -64t6 -94q-8 -55 -32.5 -93.5t-60 -62.5t-79.5 -35t-92 -11h-2l195 -300h-71zM353 354q41 0 74.5 7.5t59 24.5t42 45.5t22.5 70.5t-3 70t-30 45t-52.5 24.5t-70.5 7.5h-209l-42 -295h209z" />
    <glyph glyph-name="S" unicode="S" horiz-adv-x="587" 
d="M138 536q-8 -38 3.5 -61.5t36 -38.5t59 -24t72.5 -16q45 -9 88.5 -22.5t76 -38.5t48 -64.5t3.5 -100.5q-9 -47 -36.5 -81t-65.5 -56t-84 -32.5t-92 -10.5q-40 0 -78 8.5t-70 26t-55 43t-33 59.5l56 24h1q7 -26 25.5 -45t44 -31.5t56.5 -19t63 -6.5q35 0 69.5 7.5
t63.5 23.5t49.5 40.5t28.5 57.5q10 44 -2 72t-38 45.5t-63 27.5t-77 19q-42 9 -84 20t-72.5 32t-46 55t-5.5 89q8 45 34.5 78.5t63.5 56t82 34t91 11.5q39 0 76.5 -8.5t68.5 -25t53.5 -41.5t32.5 -58l-56 -24q-8 25 -26 43.5t-42.5 30.5t-54.5 18t-61 6q-34 0 -67.5 -7.5
t-61.5 -23t-48 -38.5t-27 -54z" />
    <glyph glyph-name="T" unicode="T" horiz-adv-x="557" 
d="M593 649h-236l-91 -649h-59l91 649h-236l8 59h531z" />
    <glyph glyph-name="U" unicode="U" horiz-adv-x="677" 
d="M119 211q-6 -40 7.5 -70.5t39.5 -50.5t61.5 -30.5t74.5 -10.5t77.5 10.5t70.5 30.5t54 50.5t28 70.5l69 497h59l-69 -497q-8 -55 -36.5 -96.5t-69.5 -69t-91 -41.5t-100 -14t-95.5 14t-79 41.5t-50.5 69t-9 96.5l69 497h59z" />
    <glyph glyph-name="V" unicode="V" horiz-adv-x="606" 
d="M61 708h62l144 -664l328 664h62l-353 -708h-87z" />
    <glyph glyph-name="W" unicode="W" horiz-adv-x="939" 
d="M920 708h62l-304 -708h-86l-92 522l-239 -522h-86l-106 708h62l93 -664l260 571h57l100 -571z" />
    <glyph glyph-name="X" unicode="X" horiz-adv-x="569" 
d="M519 0h-71l-163 307l-250 -307h-71l292 353l-191 355h69l164 -303l249 303h70l-291 -355z" />
    <glyph glyph-name="Y" unicode="Y" horiz-adv-x="556" 
d="M265 0h-59l38 277l-185 431h69l155 -372l258 372h70l-308 -431z" />
    <glyph glyph-name="Z" unicode="Z" horiz-adv-x="572" 
d="M96 708h486l15 -45l-526 -604h431l-8 -59h-497l-12 45l526 604h-423z" />
    <glyph glyph-name="bracketleft" unicode="[" horiz-adv-x="249" 
d="M71 -82h90l-7 -51h-150l125 888h150l-8 -51h-90z" />
    <glyph glyph-name="backslash" unicode="\" horiz-adv-x="399" 
d="M80 726l55 18l197 -762l-57 -18z" />
    <glyph glyph-name="bracketright" unicode="]" horiz-adv-x="249" 
d="M179 708h-90l7 48h150l-125 -888h-150l7 48h90z" />
    <glyph glyph-name="asciicircum" unicode="^" horiz-adv-x="534" 
d="M512 425h-70l-128 226l-186 -226h-69l240 283h46z" />
    <glyph glyph-name="underscore" unicode="_" horiz-adv-x="625" 
d="M508 -87h-499l8 56h499z" />
    <glyph glyph-name="grave" unicode="`" horiz-adv-x="210" 
d="M112 869h80l55 -113h-58z" />
    <glyph glyph-name="a" unicode="a" horiz-adv-x="517" 
d="M357 52q-28 -27 -72 -44.5t-90 -17.5q-35 0 -66.5 10t-55 31t-34.5 53t-5 76l27 197q7 48 29 81t54.5 53t71.5 28.5t80 8.5q51 0 98 -13t81 -30l-67 -485h-50zM412 445q-21 11 -52.5 19t-66.5 8q-30 0 -59.5 -5.5t-54 -19t-41 -35.5t-20.5 -54l-27 -194q-4 -30 4 -51.5
t24 -36t38.5 -21t47.5 -6.5q22 0 44.5 4t43.5 11.5t39.5 18t31.5 23.5z" />
    <glyph glyph-name="b" unicode="b" horiz-adv-x="514" 
d="M150 497q73 31 146 31q37 0 71 -10.5t58.5 -32t37 -53t6.5 -72.5l-29 -202q-6 -42 -27 -73t-51 -52t-66.5 -31.5t-72.5 -11.5q-51 0 -100 9t-95 26l96 685h56zM89 64q33 -12 69 -15.5t72 -3.5q26 0 51.5 8t47 23t36.5 37t19 50l28 197q4 31 -4.5 52t-26 34.5t-42 19.5
t-50.5 6q-36 0 -73.5 -7.5t-72.5 -21.5z" />
    <glyph glyph-name="c" unicode="c" horiz-adv-x="461" 
d="M393 409q-13 32 -46.5 47.5t-74.5 15.5q-26 0 -52 -6.5t-48 -20t-37 -34.5t-19 -49l-28 -203q-4 -28 5 -49t26.5 -34.5t42 -20t50.5 -6.5q22 0 45 4.5t42.5 13.5t35 23.5t24.5 35.5l48 -23q-14 -29 -36.5 -50t-49.5 -35t-57 -21t-60 -7q-36 0 -70 10.5t-58.5 31.5
t-37 52.5t-6.5 73.5l28 202q6 42 27.5 73.5t52 52.5t67.5 31.5t73 10.5q54 0 99 -22t65 -67z" />
    <glyph glyph-name="d" unicode="d" horiz-adv-x="514" 
d="M408 25q-51 -17 -102.5 -26t-102.5 -9q-36 1 -69.5 11.5t-58 31.5t-37 52t-6.5 73l28 201q6 41 27 72.5t52 53t68 32t74 10.5q72 0 136 -31l30 214h56zM410 444q-32 14 -67 21t-71 7q-26 0 -52 -6.5t-48 -20t-36.5 -34.5t-18.5 -49l-28 -206q-4 -28 4.5 -48.5t26 -34.5
t41 -21t49.5 -7q36 0 73.5 3.5t73.5 15.5z" />
    <glyph glyph-name="e" unicode="e" horiz-adv-x="484" 
d="M88 159q-4 -30 5.5 -50.5t27.5 -34t42 -19.5t50 -6q42 0 81.5 16t60.5 51l46 -25q-15 -25 -37 -44t-48 -31.5t-54.5 -19t-56.5 -6.5q-37 0 -71 10.5t-58.5 31.5t-37 53t-6.5 74l27 195q6 44 28 76.5t53 54.5t68 32.5t74 10.5t70.5 -10.5t58 -31.5t36.5 -53t6 -75
q-6 -44 -26.5 -75.5t-50 -52t-66 -30.5t-74 -11t-74 6.5t-66.5 22.5zM103 270q22 -9 50.5 -16.5t59.5 -10t61.5 1t56 16.5t43 36.5t23.5 60.5q4 30 -5 51.5t-26.5 35.5t-41.5 20.5t-50 6.5q-27 0 -53.5 -7.5t-48.5 -23t-37.5 -38.5t-19.5 -54z" />
    <glyph glyph-name="f" unicode="f" horiz-adv-x="258" 
d="M-32 -149q25 16 36 42.5t15 52.5l84 599q6 42 24 73.5t44.5 52.5t60 31.5t70.5 10.5l-8 -56q-52 0 -89.5 -29t-45.5 -83l-7 -53h112l-7 -50h-112l-70 -496q-7 -47 -28 -80.5t-53 -53.5z" />
    <glyph glyph-name="g" unicode="g" horiz-adv-x="509" 
d="M55 -117q16 -25 49 -38t71 -13q28 0 54.5 7t48.5 20.5t37 34.5t20 50l12 77q-35 -17 -71 -24t-72 -7q-37 0 -70.5 10.5t-58 31.5t-37 52.5t-6.5 72.5l28 205q6 41 27 72t50.5 52t65.5 31.5t72 10.5q35 0 88 -10t104 -33l-77 -540q-6 -42 -26.5 -73t-50 -51t-66 -29.5
t-74.5 -9.5q-50 0 -93 17t-68 49zM407 448q-22 10 -59 18t-79 8q-26 0 -51.5 -7t-46.5 -21t-36 -34.5t-18 -48.5l-29 -205q-5 -27 2.5 -48.5t24 -36.5t40.5 -22.5t53 -7.5q35 1 72.5 9t73.5 25z" />
    <glyph glyph-name="h" unicode="h" horiz-adv-x="525" 
d="M150 497q71 31 144 31q37 1 71 -10t58.5 -32t37 -52.5t6.5 -72.5l-49 -361h-56l49 361v1q4 28 -5.5 48.5t-27 34t-41.5 20.5t-50 7q-72 0 -145 -28l-60 -444h-56l99 708h56z" />
    <glyph glyph-name="i" unicode="i" horiz-adv-x="194" 
d="M98 645q3 19 17.5 32t33.5 13t30.5 -13t8.5 -32q-2 -19 -17 -32t-34 -13t-30 13t-9 32zM155 518l-73 -518h-56l73 518h56z" />
    <glyph glyph-name="j" unicode="j" horiz-adv-x="194" 
d="M100 645q3 19 17.5 32t33.5 13t30.5 -13t8.5 -32q-2 -19 -17 -32t-34 -13t-30 13t-9 32zM-105 -136q53 0 86.5 30t41.5 84l76 540h56l-76 -540q-11 -79 -63 -124.5t-128 -45.5z" />
    <glyph glyph-name="k" unicode="k" horiz-adv-x="483" 
d="M116 246l311 272h70l-265 -234l191 -284h-69l-166 244l-82 -72l-24 -172h-56l99 708h56z" />
    <glyph glyph-name="l" unicode="l" horiz-adv-x="228" 
d="M180 -10q-76 0 -111 43t-24 121l76 555h56l-76 -555q-7 -52 13.5 -80t73.5 -28z" />
    <glyph glyph-name="m" unicode="m" horiz-adv-x="813" 
d="M92 484q37 19 84 31.5t94 12.5q48 0 89 -16t65 -54q34 35 77 52.5t84 17.5q39 0 72.5 -10.5t57 -32.5t34.5 -54.5t5 -76.5l-49 -354h-57l49 354q4 32 -4 54.5t-24.5 36.5t-40 20.5t-49.5 6.5q-21 0 -43.5 -6t-42 -18t-34 -30t-17.5 -42l-53 -376h-55l53 376q3 25 -7 43
t-29 30t-44.5 17.5t-52.5 5.5q-32 0 -61.5 -7.5t-49.5 -21.5l-62 -443h-57z" />
    <glyph glyph-name="n" unicode="n" 
d="M92 487q51 17 102 29t102 12q36 -1 69 -11.5t57 -31t36.5 -51.5t6.5 -73l-50 -361h-56l50 361q4 28 -5 49t-26.5 35t-41 20.5t-48.5 6.5q-42 0 -82 -10t-65 -20l-61 -442h-56z" />
    <glyph glyph-name="o" unicode="o" horiz-adv-x="497" 
d="M60 359q6 42 27 74t52 53t67.5 31.5t73.5 10.5t70.5 -10.5t58.5 -31.5t37.5 -53t6.5 -74l-29 -201q-6 -42 -27.5 -73.5t-52 -52.5t-67 -31.5t-73.5 -10.5t-71 10.5t-58.5 31.5t-37 52.5t-6.5 73.5zM272 472q-26 0 -52 -6.5t-47.5 -20t-37 -34.5t-19.5 -51l-29 -198
q-4 -30 5.5 -51t27.5 -35t42 -20.5t50 -6.5q25 0 51 6.5t48 20.5t37.5 35t19.5 51l29 198q4 30 -5.5 51t-27.5 34.5t-42.5 20t-49.5 6.5z" />
    <glyph glyph-name="p" unicode="p" horiz-adv-x="514" 
d="M94 493q51 17 102.5 26t102.5 9q36 0 69.5 -10.5t57.5 -31.5t36.5 -52.5t6.5 -73.5l-28 -201q-6 -41 -26.5 -72.5t-50.5 -53t-67.5 -32.5t-76.5 -11q-37 0 -71 8.5t-65 23.5l-30 -213h-56zM91 75q32 -14 67 -21.5t71 -7.5q26 0 52 7t48 21t36.5 34.5t18.5 48.5l28 205
q4 28 -4.5 49t-25.5 34.5t-41 20t-50 6.5q-36 0 -73 -2.5t-74 -14.5z" />
    <glyph glyph-name="q" unicode="q" horiz-adv-x="514" 
d="M351 22q-72 -30 -146 -32q-37 0 -71 10.5t-58.5 32t-37 53.5t-6.5 73l28 201q6 42 27 73.5t51 52.5t66.5 31.5t73.5 10.5q51 0 100 -9.5t95 -26.5l-96 -683h-56zM411 454q-32 12 -68.5 15t-72.5 3q-26 0 -51.5 -7t-47 -20.5t-36 -34t-18.5 -48.5l-28 -205q-5 -28 4 -48.5
t26.5 -34.5t42 -21t50.5 -7q36 0 73.5 7.5t72.5 21.5z" />
    <glyph glyph-name="r" unicode="r" horiz-adv-x="303" 
d="M282 528q9 0 18.5 -0.5t19.5 -1.5l-8 -56q-17 3 -33 3q-21 0 -45.5 -5.5t-46.5 -19t-38.5 -35t-20.5 -52.5l-49 -361h-56l49 361q6 45 28.5 76.5t53 51.5t64.5 29.5t64 9.5z" />
    <glyph glyph-name="s" unicode="s" horiz-adv-x="440" 
d="M51 124q24 -40 62.5 -57.5t83.5 -17.5q21 0 42.5 4.5t39.5 15t31 27.5t16 42q4 26 -5 43t-24.5 28t-36 16.5t-39.5 9.5q-31 6 -62 14.5t-54.5 24.5t-36.5 41.5t-7 65.5q6 39 26.5 67t50 46t63 26t64.5 8q40 0 77 -13t61 -39l-42 -42q-19 23 -45.5 30.5t-57.5 7.5
q-20 0 -43 -4t-44 -14.5t-36 -28t-19 -44.5q-3 -26 8.5 -42.5t30 -26.5t41.5 -15t42 -9q30 -6 58 -16t48.5 -27t31.5 -43t6 -64q-5 -37 -23.5 -65t-45 -46.5t-58.5 -27.5t-65 -9q-62 0 -110.5 26.5t-74.5 80.5z" />
    <glyph glyph-name="t" unicode="t" horiz-adv-x="261" 
d="M206 -8q-7 -1 -14 -1.5t-14 -0.5q-33 0 -60 11.5t-45 32.5t-25.5 51.5t-2.5 69.5l69 482h48l-10 -119h112l-7 -45h-112l-45 -318q-7 -48 15 -81t73 -34q6 0 12 0.5t13 1.5z" />
    <glyph glyph-name="u" unicode="u" 
d="M359 14q-35 -10 -73 -17t-73 -7q-36 0 -69 11t-57 32t-36 52t-6 73l50 360h56l-51 -362q-4 -27 5 -47.5t26 -34.5t40.5 -21t49.5 -7q42 0 82 10.5t65 20.5l62 441h56l-68 -487z" />
    <glyph glyph-name="v" unicode="v" horiz-adv-x="472" 
d="M488 518l-254 -518h-81l-110 518h59l99 -467l228 467h59z" />
    <glyph glyph-name="w" unicode="w" horiz-adv-x="722" 
d="M131 0l-84 518h59l73 -460l176 460h71l48 -460l201 460h59l-228 -518h-80l-45 443l-170 -443h-80z" />
    <glyph glyph-name="x" unicode="x" horiz-adv-x="462" 
d="M258 259l142 -259h-68l-113 218l-174 -218h-68l214 259l-142 259h68l114 -219l173 219h68z" />
    <glyph glyph-name="y" unicode="y" horiz-adv-x="536" 
d="M68 -113q20 -26 53 -38t72 -13q28 0 56.5 6.5t51.5 21t39.5 37t20.5 52.5l10 73q-36 -21 -73.5 -28t-75.5 -7t-72.5 11.5t-59.5 33t-38 54t-7 74.5l49 354h58l-50 -356q-4 -29 5 -50.5t27 -36t42.5 -22t51.5 -7.5q37 0 74.5 8t76.5 26l61 438h57l-79 -565
q-6 -44 -27.5 -76t-52 -53t-67.5 -31.5t-75 -10.5q-51 0 -97.5 17.5t-73.5 52.5z" />
    <glyph glyph-name="z" unicode="z" horiz-adv-x="463" 
d="M74 518h351l28 -41l-379 -418h318l-8 -59h-366l-30 40l386 424h-308z" />
    <glyph glyph-name="braceleft" unicode="{" horiz-adv-x="275" 
d="M262 708q-15 0 -24.5 -5.5t-14.5 -15.5t-7.5 -24.5t-5.5 -33.5l-23 -160q-5 -39 -15.5 -67.5t-22.5 -47.5t-23 -29t-16 -12v-2q4 -3 12 -13t15 -28.5t9.5 -47t-3.5 -67.5l-23 -164q-5 -37 0 -56t36 -19h32l-7 -48h-50q-42 0 -60.5 32.5t-10.5 88.5l20 146q4 29 5 56.5
t-4 49t-16.5 34.5t-32.5 13l7 48q21 0 36.5 13t26 34.5t17.5 49.5t11 57l21 145q8 57 35.5 89t69.5 32h50l-7 -48h-37z" />
    <glyph glyph-name="bar" unicode="|" horiz-adv-x="188" 
d="M-2 -178l131 932h56l-131 -932h-56z" />
    <glyph glyph-name="braceright" unicode="}" horiz-adv-x="276" 
d="M147 756q42 0 60.5 -32t10.5 -89l-21 -145q-4 -29 -5 -57t4 -49.5t17 -34.5t33 -13l-7 -48q-21 0 -36.5 -13t-26.5 -34.5t-18 -49t-11 -56.5l-20 -146q-8 -56 -35.5 -88.5t-69.5 -32.5h-50l7 48h32q31 0 41 19t15 56l23 164q5 39 16 67.5t22.5 47t22.5 28.5t16 13v2
q-5 2 -12.5 12t-14 29t-9.5 47.5t3 67.5l23 160q3 19 4 33.5t-1 24.5t-10 15.5t-23 5.5h-37l7 48h50z" />
    <glyph glyph-name="asciitilde" unicode="~" horiz-adv-x="525" 
d="M474 334q-11 -17 -24 -33.5t-30 -29.5t-37.5 -21t-45.5 -8q-26 0 -45.5 11t-37 23.5t-35.5 23.5t-39 11q-30 0 -53 -20t-44 -46l-30 29q10 16 23.5 32t30.5 29t38 21t46 8q28 0 49 -10.5t39 -23.5t34 -23.5t35 -10.5q30 0 53.5 21t44.5 47z" />
    <glyph glyph-name="uni00A0" unicode="&#xa0;" horiz-adv-x="220" 
 />
    <glyph glyph-name="exclamdown" unicode="&#xa1;" horiz-adv-x="201" 
d="M173 480q-3 -20 -19 -34t-36 -14t-32 14t-9 34q2 20 18 34t36 14t32 -14t10 -34zM55 -222h-60l74 522h60z" />
    <glyph glyph-name="cent" unicode="&#xa2;" horiz-adv-x="469" 
d="M390 404q-11 29 -39 44t-63 18l-58 -412q41 3 76.5 22.5t52.5 56.5l47 -25q-13 -26 -33 -45.5t-44.5 -33.5t-51.5 -21.5t-55 -9.5l-13 -92h-46l13 92q-32 4 -61 16t-49 33t-30 50.5t-4 67.5l26 190q6 38 24 67.5t44 50.5t58 33t66 15l13 93h46l-13 -92q48 -3 88 -24.5
t57 -63.5zM242 465q-23 -3 -44.5 -11t-39 -21.5t-29 -32.5t-14.5 -43l-28 -194q-4 -24 2.5 -43t20 -32.5t33 -21.5t41.5 -11z" />
    <glyph glyph-name="sterling" unicode="&#xa3;" horiz-adv-x="514" 
d="M152 345h-104l7 48h104l17 119q5 34 19.5 70.5t42 67t69 50t99.5 19.5q40 0 70 -13.5t58 -41.5l-45 -38q-18 21 -40 30t-54 9q-38 0 -66.5 -14.5t-48.5 -36t-31.5 -47.5t-14.5 -48l-18 -126h165l-7 -48h-165l-41 -296h245l-7 -49h-406l7 49h104z" />
    <glyph glyph-name="currency" unicode="&#xa4;" horiz-adv-x="618" 
d="M105 197q-50 64 -38 157q14 93 82 157l-49 55l39 37l49 -56q37 26 79 39.5t84 13.5t80 -13.5t67 -39.5l65 56l29 -37l-65 -55q25 -32 35 -71.5t3 -85.5q-6 -46 -27 -85.5t-55 -71.5l49 -55l-39 -37l-49 56q-37 -26 -78.5 -39.5t-83.5 -13.5t-80.5 13.5t-67.5 39.5
l-65 -56l-29 37zM121 353q-6 -41 4.5 -76t33.5 -61.5t56 -41.5t72 -15q40 0 77.5 15t67.5 41.5t50 61.5t26 76t-4.5 77t-33 62.5t-55.5 42t-73 15.5q-39 0 -76.5 -15.5t-67.5 -42t-50.5 -62.5t-26.5 -77z" />
    <glyph glyph-name="yen" unicode="&#xa5;" horiz-adv-x="601" 
d="M496 309l-16 -44h-158l-8 -53h169l-16 -44h-159l-23 -168h-59l23 168h-168l15 44h159l8 53h-165l16 44h137l-172 400h69l154 -380l259 380h70l-285 -400h150z" />
    <glyph glyph-name="brokenbar" unicode="&#xa6;" horiz-adv-x="201" 
d="M79 356l49 350h58l-49 -350h-58zM8 -144l49 350h58l-49 -350h-58z" />
    <glyph glyph-name="section" unicode="&#xa7;" horiz-adv-x="473" 
d="M47 1q10 -45 45 -66.5t80 -21.5q22 0 46 6.5t44 19.5t34 31.5t17 42.5q5 34 -14.5 56.5t-51 40t-68.5 34t-67.5 39t-49 53t-11.5 77.5q4 25 15.5 45t28.5 36t37.5 27.5t43.5 20.5q-33 22 -52 52t-13 75q6 39 26 68t49.5 49t64 30t69.5 10q25 0 49 -5.5t43.5 -16.5
t33.5 -29t20 -43l-57 -29q-9 34 -36.5 50.5t-63.5 16.5q-23 0 -45.5 -6.5t-42 -19.5t-33 -32t-17.5 -43q-4 -32 14.5 -53.5t49 -39t66.5 -34t65.5 -38.5t47 -52t11.5 -74q-7 -46 -36.5 -78.5t-71.5 -53.5q30 -20 46.5 -51.5t11.5 -71.5q-6 -40 -26 -71t-49 -52.5t-64 -32.5
t-71 -11q-31 0 -59.5 7t-51.5 22t-40 37.5t-24 53.5zM269 170q14 7 30.5 18t30.5 24.5t24.5 28.5t12.5 32q3 19 -3 34t-16.5 27.5t-23.5 21.5t-24 16l-70 43q-18 -6 -37 -14.5t-35.5 -20.5t-28.5 -28t-15 -37q-3 -20 0.5 -34.5t11.5 -25t19.5 -19t25.5 -15.5z" />
    <glyph glyph-name="dieresis" unicode="&#xa8;" horiz-adv-x="281" 
d="M128 812q2 17 16 29t31 12t27 -12t8 -29t-16 -29t-31 -12t-27 12t-8 29zM308 812q2 17 16 29t31 12t27 -12t8 -29t-16 -29t-31 -12t-27 12t-8 29z" />
    <glyph glyph-name="copyright" unicode="&#xa9;" horiz-adv-x="833" 
d="M51 354q11 77 50 144.5t96.5 118t129.5 80t149 29.5t140.5 -29.5t107 -80t63 -118t8.5 -144.5t-49.5 -144.5t-96.5 -118t-129.5 -80t-148.5 -29.5t-140.5 29.5t-107 80t-63.5 118t-9 144.5zM110 354q-9 -65 7.5 -122t53 -99.5t90 -67t118.5 -24.5t125.5 24.5t109 67
t81 99.5t41.5 122t-7.5 122t-53 99.5t-90 67t-118.5 24.5t-125.5 -24.5t-108.5 -67t-81 -99.5t-42 -122zM571 479q-13 32 -46.5 47.5t-74.5 15.5q-26 0 -52 -6.5t-48 -20t-37 -34.5t-19 -49v-2l-21 -151l-1 -2q-4 -28 5.5 -49t27 -34.5t42 -20t50.5 -6.5q45 0 87 19.5
t60 60.5l48 -25q-14 -28 -36.5 -49t-49.5 -34.5t-57 -20.5t-60 -7q-36 0 -70 10.5t-58.5 31.5t-37 52.5t-6.5 73.5l21 151q6 42 27.5 73.5t52 52.5t67.5 31.5t73 10.5q54 0 99 -22t65 -67z" />
    <glyph glyph-name="ordfeminine" unicode="&#xaa;" horiz-adv-x="375" 
d="M302 608q4 30 -19.5 43.5t-54.5 13.5q-23 0 -48.5 -7.5t-43.5 -26.5l-29 33q29 28 64.5 41t68.5 13q25 0 48 -7t39.5 -20.5t25 -35t4.5 -49.5l-32 -230q-39 -12 -76 -17t-73 -4q-53 1 -84.5 33t-23.5 89q5 31 20 52t36 33.5t46.5 17.5t52.5 5q40 0 74 -14zM291 526
q-15 5 -35 9t-41 4q-16 0 -31.5 -2.5t-28 -9.5t-21 -19t-11.5 -31q-5 -34 13.5 -53t48.5 -20q22 0 44.5 1.5t45.5 6.5z" />
    <glyph glyph-name="guillemotleft" unicode="&#xab;" horiz-adv-x="414" 
d="M243 469l-143 -174l95 -174l-53 -29l-108 203l165 203zM388 469l-143 -174l95 -174l-53 -29l-108 203l165 203z" />
    <glyph glyph-name="logicalnot" unicode="&#xac;" horiz-adv-x="604" 
d="M73 399h477l-33 -229h-55l25 174h-422z" />
    <glyph glyph-name="uni00AD" unicode="&#xad;" horiz-adv-x="326" 
d="M273 213h-247l9 58h247z" />
    <glyph glyph-name="registered" unicode="&#xae;" horiz-adv-x="833" 
d="M51 354q11 77 50 144.5t96.5 118t129.5 80t149 29.5t140.5 -29.5t107 -80t63 -118t8.5 -144.5t-49.5 -144.5t-96.5 -118t-129.5 -80t-148.5 -29.5t-140.5 29.5t-107 80t-63.5 118t-9 144.5zM108 354q-9 -65 7.5 -122.5t53.5 -100.5t91 -67.5t119 -24.5t126 24.5
t109.5 67.5t81.5 100.5t42 122.5t-7.5 122.5t-53 100t-90.5 67.5t-119 25t-126 -25t-110 -67.5t-82 -100t-42 -122.5zM319 570h153q73 0 105 -33.5t24 -91.5q-4 -30 -16 -52.5t-29 -38.5t-38 -25.5t-43 -13.5l103 -174h-61l-103 174h-78l-25 -174h-53zM413 363q22 0 44.5 3
t41 11.5t31.5 24.5t17 43q3 21 -3.5 35.5t-19 23.5t-29 13.5t-33.5 4.5h-97l-22 -159h70z" />
    <glyph glyph-name="macron" unicode="&#xaf;" horiz-adv-x="240" 
d="M103 848h230l-8 -49h-230z" />
    <glyph glyph-name="degree" unicode="&#xb0;" horiz-adv-x="354" 
d="M196 449q-28 0 -51 10.5t-38.5 29t-22.5 43t-3 52.5t17.5 52t34.5 42t46.5 28.5t53.5 10.5t51 -10.5t38.5 -28.5t23 -42t3.5 -52t-18 -52.5t-35 -43t-47 -29t-53 -10.5zM203 499q35 0 62.5 24.5t32.5 59.5t-16 59.5t-56 24.5q-17 0 -33.5 -6.5t-29.5 -18t-21.5 -27
t-11.5 -32.5q-2 -17 2.5 -32.5t14.5 -27t24.5 -18t31.5 -6.5z" />
    <glyph glyph-name="plusminus" unicode="&#xb1;" horiz-adv-x="559" 
d="M293 615h57l-25 -179h193l-8 -57h-193l-26 -180h-57l26 180h-188l8 57h188zM466 95h-430l8 55h430z" />
    <glyph glyph-name="twosuperior" unicode="&#xb2;" horiz-adv-x="410" 
d="M346 284h-283l-9 37l235 197q20 16 35 38t15 45q0 29 -22.5 47t-64.5 18q-32 0 -61.5 -12t-46.5 -41l-45 20q25 44 69 63.5t88 19.5q35 0 60.5 -9t42 -24t24.5 -34t8 -40q0 -35 -21 -69t-50 -58l-174 -147h208z" />
    <glyph glyph-name="threesuperior" unicode="&#xb3;" horiz-adv-x="391" 
d="M310 517q32 -13 44.5 -40t7.5 -62v-1q-5 -23 -15 -43t-28 -37q-27 -26 -65 -37.5t-73 -9.5q-41 2 -77 22t-49 58l-3 8l48 22l3 -8q9 -25 35.5 -38t52.5 -15q23 -2 52 7t49 30q16 17 19 42q2 15 0.5 29.5t-9.5 25.5q-13 14 -32.5 19t-37.5 4h-32l5 40h32q14 0 32 7t30 18
q10 8 14.5 19t6.5 22q3 24 -10 41q-12 16 -33.5 22t-45.5 4t-46 -13t-35 -30l-5 -8l-39 23q11 21 28 35.5t36 23t38 12.5t36 5q31 1 61 -9q13 -5 25 -12.5t20 -18.5q13 -16 17 -35t1 -40q-4 -26 -19 -48t-39 -34z" />
    <glyph glyph-name="acute" unicode="&#xb4;" horiz-adv-x="213" 
d="M159 756h-58l84 113h80z" />
    <glyph glyph-name="mu" unicode="&#xb5;" horiz-adv-x="524" 
d="M362 0q2 26 4 45.5t2 26.5h-3q-24 -38 -68.5 -61t-101.5 -23q-41 0 -66.5 14.5t-42.5 42.5l-39 -273h-59l104 740h60l-45 -322q-4 -28 -3 -54.5t11 -47.5t30.5 -33.5t56.5 -12.5q33 0 64 11.5t56 35t42.5 59t24.5 83.5l39 281h60l-68 -512h-58z" />
    <glyph glyph-name="paragraph" unicode="&#xb6;" horiz-adv-x="564" 
d="M247 266q-76 0 -122.5 32.5t-64.5 82t-9.5 106.5t42.5 106.5t92.5 82t139.5 32.5h227l-117 -834h-58l110 786h-125l-110 -786h-60z" />
    <glyph glyph-name="periodcentered" unicode="&#xb7;" horiz-adv-x="219" 
d="M63 318q3 20 19 34t36 14t32 -14t9 -34t-19 -34t-36 -14t-32 14t-9 34z" />
    <glyph glyph-name="cedilla" unicode="&#xb8;" horiz-adv-x="240" 
d="M122 -69q17 0 32.5 -5.5t26 -16t15.5 -27t2 -37.5q-4 -24 -16.5 -41t-30 -27.5t-37.5 -15.5t-39 -5q-46 0 -86 20l18 37q17 -9 33 -13t37 -4q25 0 47 13t27 40q3 18 -3.5 28.5t-17.5 15t-24 3.5t-24 -6l-12 13l51 110h37z" />
    <glyph glyph-name="onesuperior" unicode="&#xb9;" horiz-adv-x="240" 
d="M64 597l118 116h48l-60 -424h-50l49 346l-71 -68z" />
    <glyph glyph-name="ordmasculine" unicode="&#xba;" horiz-adv-x="408" 
d="M210 355q-28 0 -54.5 7.5t-46.5 23.5t-30 39t-5 55l17 113q5 31 21.5 54.5t40 39.5t52 23.5t56.5 7.5t54.5 -7.5t46.5 -23.5t30 -39.5t5 -54.5l-17 -113q-5 -32 -21.5 -55t-40 -39t-52 -23.5t-56.5 -7.5zM125 480q-3 -21 4.5 -35.5t21 -23t31 -12.5t35.5 -4t36.5 4
t34 12.5t27 23t14.5 35.5l17 113q3 21 -4.5 35.5t-21 23t-31 12.5t-35.5 4t-36.5 -4t-34 -12.5t-27 -23t-14.5 -35.5z" />
    <glyph glyph-name="guillemotright" unicode="&#xbb;" horiz-adv-x="414" 
d="M22 121l143 174l-95 174l52 29l109 -203l-166 -203zM167 121l143 174l-95 174l52 29l109 -203l-166 -203z" />
    <glyph glyph-name="onequarter" unicode="&#xbc;" horiz-adv-x="734" 
d="M91 -34l-41 28l561 748l42 -28zM172 289h-50l49 346l-71 -68l-34 30l118 116h48zM614 426h53l-38 -276h54l-7 -47h-54l-14 -102h-51l14 102h-193l-26 48zM611 362l-198 -212h165z" />
    <glyph glyph-name="onehalf" unicode="&#xbd;" horiz-adv-x="765" 
d="M71 -34l-41 28l561 748l42 -28zM172 289h-50l49 346l-71 -68l-34 30l118 116h48zM482 51h208l-7 -51h-283l-10 37l236 194q19 16 34.5 38t15.5 45q0 24 -20.5 44.5t-67.5 20.5q-32 0 -60.5 -12t-47.5 -41l-44 20q25 44 69 63.5t88 19.5q63 0 99 -31.5t36 -75.5
q0 -35 -21 -69.5t-50 -57.5z" />
    <glyph glyph-name="threequarters" unicode="&#xbe;" horiz-adv-x="778" 
d="M176 -34l-41 28l561 748l42 -28zM297 517q28 -11 40.5 -32.5t12.5 -50.5q0 -27 -11.5 -53t-33.5 -47t-54.5 -34t-75.5 -13q-10 0 -28.5 3t-39 11.5t-38.5 24t-27 41.5l-3 8l48 22l3 -8q6 -15 17.5 -25.5t25.5 -16.5t28 -8.5t25 -2.5q53 0 83 28.5t30 67.5q0 35 -21.5 49
t-58.5 12h-32l5 40h32q13 0 27 4.5t26 13.5t20 21t10 27q4 31 -18 49.5t-58 18.5q-26 0 -52.5 -11t-41.5 -33l-5 -8l-39 23q13 25 33 40t41 23t40.5 10.5t31.5 2.5q20 0 41 -5t38 -16.5t27.5 -30t10.5 -45.5q0 -26 -13 -54.5t-46 -45.5zM719 426l-38 -276h44l-7 -47h-44
l-14 -102h-51l14 102h-193l-26 48l262 275h53zM465 150h165l33 212z" />
    <glyph glyph-name="questiondown" unicode="&#xbf;" horiz-adv-x="474" 
d="M284 433q-20 0 -31 14t-9 34q3 20 18 33.5t35 13.5t32 -13.5t9 -33.5q-2 -20 -18 -34t-36 -14zM393 -113q-41 -44 -96.5 -65.5t-112.5 -21.5q-43 0 -82 12.5t-67 38t-41.5 64t-5.5 89.5q7 51 29.5 88t55 63t71 41.5t79.5 22.5l31 163h49l-23 -210q-41 0 -80.5 -11.5
t-72.5 -33t-55 -53t-27 -71.5q-5 -37 6 -64t32.5 -45t50 -26.5t60.5 -8.5q44 0 86.5 15.5t72.5 47.5h1z" />
    <glyph glyph-name="Agrave" unicode="&#xc0;" horiz-adv-x="606" 
d="M265 869h80l55 -113h-58zM559 0h-62l-52 236h-304l-116 -236h-62l353 708h86zM170 295h262l-79 369z" />
    <glyph glyph-name="Aacute" unicode="&#xc1;" horiz-adv-x="606" 
d="M390 756h-58l84 113h80zM559 0h-62l-52 236h-304l-116 -236h-62l353 708h86zM170 295h262l-79 369z" />
    <glyph glyph-name="Acircumflex" unicode="&#xc2;" horiz-adv-x="606" 
d="M508 756h-63l-63 78l-82 -78h-64l119 113h66zM559 0h-62l-52 236h-304l-116 -236h-62l353 708h86zM170 295h262l-79 369z" />
    <glyph glyph-name="Atilde" unicode="&#xc3;" horiz-adv-x="606" 
d="M244 794q13 35 38 55t58 20q16 0 28.5 -7.5t24 -16.5t22.5 -16.5t23 -7.5q29 0 45 37l36 -15q-16 -34 -39.5 -53.5t-51.5 -19.5q-17 0 -30 7.5t-24 16.5t-22.5 16.5t-25.5 7.5t-24.5 -10t-20.5 -28zM559 0h-62l-52 236h-304l-116 -236h-62l353 708h86zM170 295h262
l-79 369z" />
    <glyph glyph-name="Adieresis" unicode="&#xc4;" horiz-adv-x="606" 
d="M256 812q2 17 16 29t31 12t27 -12t8 -29t-16 -29t-31 -12t-27 12t-8 29zM416 812q2 17 16 29t31 12t27 -12t8 -29t-16 -29t-31 -12t-27 12t-8 29zM559 0h-62l-52 236h-304l-116 -236h-62l353 708h86zM170 295h262l-79 369z" />
    <glyph glyph-name="Aring" unicode="&#xc5;" horiz-adv-x="606" 
d="M497 0l-52 236h-304l-116 -236h-62l352 706q-20 12 -30 34t-6 48q3 19 12.5 36.5t24 30.5t32.5 20.5t38 7.5q19 0 35 -8t26.5 -21.5t15.5 -30.5t2 -36q-4 -26 -21 -48.5t-41 -34.5l156 -704h-62zM323 787q-3 -21 9.5 -35.5t32.5 -14.5q21 0 37 15t19 36t-9 36t-33 15
t-37 -15.5t-19 -36.5zM353 664l-183 -369h262z" />
    <glyph glyph-name="AE" unicode="&#xc6;" horiz-adv-x="801" 
d="M806 649h-302l-38 -266h271l-8 -59h-271l-37 -265h302l-8 -59h-361l33 236h-215l-150 -236h-69l460 708h401zM446 661l-236 -366h185z" />
    <glyph glyph-name="Ccedilla" unicode="&#xc7;" horiz-adv-x="590" 
d="M381 718q37 0 72.5 -8t65.5 -23.5t52 -39.5t33 -56l-57 -26v-1q-8 24 -25.5 41.5t-41 29.5t-52 18t-58.5 6q-38 0 -76.5 -10t-70 -29.5t-53 -48.5t-26.5 -68l-41 -298q-5 -39 8.5 -68.5t39 -49t61 -29t73.5 -9.5q30 0 60 6t57 18t49.5 29.5t37.5 41.5l50 -26
q-19 -30 -46 -53t-59 -38.5t-67.5 -24.5t-71.5 -11l-26 -60q17 0 32.5 -5.5t26 -16t15.5 -27t2 -37.5q-4 -24 -16.5 -41t-30 -27.5t-37.5 -15.5t-39 -5q-46 0 -86 20l18 37q17 -9 33 -13t37 -4q25 0 47 13t27 40q3 18 -3.5 28.5t-17.5 15t-24 3.5t-24 -6l-12 13l41 87
q-47 3 -88.5 17.5t-72 41.5t-45.5 66t-8 90l41 298q7 53 36 93.5t70 67.5t90.5 40.5t99.5 13.5z" />
    <glyph glyph-name="Egrave" unicode="&#xc8;" horiz-adv-x="567" 
d="M260 869h80l55 -113h-58zM148 384h355l-8 -60h-355l-37 -265h385l-8 -59h-444l99 708h444l-8 -59h-385z" />
    <glyph glyph-name="Eacute" unicode="&#xc9;" horiz-adv-x="567" 
d="M385 756h-58l84 113h80zM148 384h355l-8 -60h-355l-37 -265h385l-8 -59h-444l99 708h444l-8 -59h-385z" />
    <glyph glyph-name="Ecircumflex" unicode="&#xca;" horiz-adv-x="567" 
d="M503 756h-63l-63 78l-82 -78h-64l119 113h66zM148 384h355l-8 -60h-355l-37 -265h385l-8 -59h-444l99 708h444l-8 -59h-385z" />
    <glyph glyph-name="Edieresis" unicode="&#xcb;" horiz-adv-x="567" 
d="M241 812q2 17 16 29t31 12t27 -12t8 -29t-16 -29t-31 -12t-27 12t-8 29zM421 812q2 17 16 29t31 12t27 -12t8 -29t-16 -29t-31 -12t-27 12t-8 29zM148 384h355l-8 -60h-355l-37 -265h385l-8 -59h-444l99 708h444l-8 -59h-385z" />
    <glyph glyph-name="Igrave" unicode="&#xcc;" horiz-adv-x="216" 
d="M68 869h80l55 -113h-58zM95 0h-59l99 708h59z" />
    <glyph glyph-name="Iacute" unicode="&#xcd;" horiz-adv-x="216" 
d="M193 756h-58l84 113h80zM95 0h-59l99 708h59z" />
    <glyph glyph-name="Icircumflex" unicode="&#xce;" horiz-adv-x="216" 
d="M276 756h-58l-33 78l-62 -78h-64l99 113h64zM95 0h-59l99 708h59z" />
    <glyph glyph-name="Idieresis" unicode="&#xcf;" horiz-adv-x="216" 
d="M79 812q2 17 16 29t31 12t27 -12t8 -29t-16 -29t-31 -12t-27 12t-8 29zM199 812q2 17 16 29t31 12t27 -12t8 -29t-16 -29t-31 -12t-27 12t-8 29zM95 0h-59l99 708h59z" />
    <glyph glyph-name="Eth" unicode="&#xd0;" horiz-adv-x="643" 
d="M138 708h236q50 0 96 -12t79.5 -37t50.5 -64t10 -94l-42 -295q-8 -54 -36 -93t-68.5 -64t-89.5 -37t-99 -12h-236l45 329h-63l7 47h63zM283 59q39 0 77 8t69.5 26t53 46t26.5 67l42 295q6 40 -8 68t-40.5 46t-62 26t-74.5 8h-177l-39 -273h155l-7 -47h-155l-37 -270h177z
" />
    <glyph glyph-name="Ntilde" unicode="&#xd1;" horiz-adv-x="688" 
d="M283 794q13 35 38 55t58 20q16 0 28.5 -7.5t24 -16.5t22.5 -16.5t23 -7.5q29 0 45 37l36 -15q-16 -34 -39.5 -53.5t-51.5 -19.5q-17 0 -30 7.5t-24 16.5t-22.5 16.5t-25.5 7.5t-24.5 -10t-20.5 -28zM517 65l90 643h59l-99 -708h-88l-298 617l-86 -617h-59l99 708h72z" />
    <glyph glyph-name="Ograve" unicode="&#xd2;" horiz-adv-x="675" 
d="M299 869h80l55 -113h-58zM85 500q7 54 37 95t73.5 68.5t95.5 41t105 13.5t101.5 -13.5t84 -41t53.5 -68.5t11 -95l-41 -292q-8 -54 -37.5 -95t-73 -68.5t-96 -41t-104.5 -13.5q-53 0 -101 13.5t-84 41t-54.5 68.5t-10.5 95zM103 208q-6 -40 9 -69.5t43.5 -49.5t66.5 -30
t80 -10q41 0 82.5 10t75.5 30t57 49.5t29 69.5l41 292q6 42 -9 72t-44 49.5t-67.5 28.5t-80.5 9q-41 0 -82 -9.5t-74.5 -29t-56.5 -49.5t-29 -71z" />
    <glyph glyph-name="Oacute" unicode="&#xd3;" horiz-adv-x="675" 
d="M424 756h-58l84 113h80zM85 500q7 54 37 95t73.5 68.5t95.5 41t105 13.5t101.5 -13.5t84 -41t53.5 -68.5t11 -95l-41 -292q-8 -54 -37.5 -95t-73 -68.5t-96 -41t-104.5 -13.5q-53 0 -101 13.5t-84 41t-54.5 68.5t-10.5 95zM103 208q-6 -40 9 -69.5t43.5 -49.5t66.5 -30
t80 -10q41 0 82.5 10t75.5 30t57 49.5t29 69.5l41 292q6 42 -9 72t-44 49.5t-67.5 28.5t-80.5 9q-41 0 -82 -9.5t-74.5 -29t-56.5 -49.5t-29 -71z" />
    <glyph glyph-name="Ocircumflex" unicode="&#xd4;" horiz-adv-x="675" 
d="M542 756h-63l-63 78l-82 -78h-64l119 113h66zM85 500q7 54 37 95t73.5 68.5t95.5 41t105 13.5t101.5 -13.5t84 -41t53.5 -68.5t11 -95l-41 -292q-8 -54 -37.5 -95t-73 -68.5t-96 -41t-104.5 -13.5q-53 0 -101 13.5t-84 41t-54.5 68.5t-10.5 95zM103 208q-6 -40 9 -69.5
t43.5 -49.5t66.5 -30t80 -10q41 0 82.5 10t75.5 30t57 49.5t29 69.5l41 292q6 42 -9 72t-44 49.5t-67.5 28.5t-80.5 9q-41 0 -82 -9.5t-74.5 -29t-56.5 -49.5t-29 -71z" />
    <glyph glyph-name="Otilde" unicode="&#xd5;" horiz-adv-x="675" 
d="M278 794q13 35 38 55t58 20q16 0 28.5 -7.5t24 -16.5t22.5 -16.5t23 -7.5q29 0 45 37l36 -15q-16 -34 -39.5 -53.5t-51.5 -19.5q-17 0 -30 7.5t-24 16.5t-22.5 16.5t-25.5 7.5t-24.5 -10t-20.5 -28zM85 500q7 54 37 95t73.5 68.5t95.5 41t105 13.5t101.5 -13.5t84 -41
t53.5 -68.5t11 -95l-41 -292q-8 -54 -37.5 -95t-73 -68.5t-96 -41t-104.5 -13.5q-53 0 -101 13.5t-84 41t-54.5 68.5t-10.5 95zM103 208q-6 -40 9 -69.5t43.5 -49.5t66.5 -30t80 -10q41 0 82.5 10t75.5 30t57 49.5t29 69.5l41 292q6 42 -9 72t-44 49.5t-67.5 28.5t-80.5 9
q-41 0 -82 -9.5t-74.5 -29t-56.5 -49.5t-29 -71z" />
    <glyph glyph-name="Odieresis" unicode="&#xd6;" horiz-adv-x="675" 
d="M280 812q2 17 16 29t31 12t27 -12t8 -29t-16 -29t-31 -12t-27 12t-8 29zM460 812q2 17 16 29t31 12t27 -12t8 -29t-16 -29t-31 -12t-27 12t-8 29zM85 500q7 54 37 95t73.5 68.5t95.5 41t105 13.5t101.5 -13.5t84 -41t53.5 -68.5t11 -95l-41 -292q-8 -54 -37.5 -95
t-73 -68.5t-96 -41t-104.5 -13.5q-53 0 -101 13.5t-84 41t-54.5 68.5t-10.5 95zM103 208q-6 -40 9 -69.5t43.5 -49.5t66.5 -30t80 -10q41 0 82.5 10t75.5 30t57 49.5t29 69.5l41 292q6 42 -9 72t-44 49.5t-67.5 28.5t-80.5 9q-41 0 -82 -9.5t-74.5 -29t-56.5 -49.5t-29 -71z
" />
    <glyph glyph-name="multiply" unicode="&#xd7;" horiz-adv-x="501" 
d="M440 502l33 -40l-181 -159l135 -157l-46 -41l-136 158l-184 -162l-34 41l183 160l-140 164l46 40l140 -165z" />
    <glyph glyph-name="Oslash" unicode="&#xd8;" horiz-adv-x="675" 
d="M568 673q42 -27 64 -70t14 -103l-41 -292q-8 -54 -37.5 -95t-73 -68.5t-96 -41t-104.5 -13.5q-74 0 -135 26l-50 -81l-42 22l50 81q-40 28 -60.5 70t-12.5 100l41 292q7 54 37 95t73.5 68.5t95.5 41t105 13.5q71 0 130 -24l48 77l41 -23zM103 208q-5 -38 8.5 -67
t39.5 -49l343 550q-49 17 -108 17q-41 0 -82 -9.5t-74.5 -29t-56.5 -49.5t-29 -71zM587 500q6 42 -8.5 71.5t-43.5 48.5l-343 -551q49 -20 110 -20q41 0 82.5 10t75.5 30t57 49.5t29 69.5z" />
    <glyph glyph-name="Ugrave" unicode="&#xd9;" horiz-adv-x="677" 
d="M298 869h80l55 -113h-58zM119 211q-6 -40 7.5 -70.5t39.5 -50.5t61.5 -30.5t74.5 -10.5t77.5 10.5t70.5 30.5t54 50.5t28 70.5l69 497h59l-69 -497q-8 -55 -36.5 -96.5t-69.5 -69t-91 -41.5t-100 -14t-95.5 14t-79 41.5t-50.5 69t-9 96.5l69 497h59z" />
    <glyph glyph-name="Uacute" unicode="&#xda;" horiz-adv-x="677" 
d="M423 756h-58l84 113h80zM119 211q-6 -40 7.5 -70.5t39.5 -50.5t61.5 -30.5t74.5 -10.5t77.5 10.5t70.5 30.5t54 50.5t28 70.5l69 497h59l-69 -497q-8 -55 -36.5 -96.5t-69.5 -69t-91 -41.5t-100 -14t-95.5 14t-79 41.5t-50.5 69t-9 96.5l69 497h59z" />
    <glyph glyph-name="Ucircumflex" unicode="&#xdb;" horiz-adv-x="677" 
d="M541 756h-63l-63 78l-82 -78h-64l119 113h66zM119 211q-6 -40 7.5 -70.5t39.5 -50.5t61.5 -30.5t74.5 -10.5t77.5 10.5t70.5 30.5t54 50.5t28 70.5l69 497h59l-69 -497q-8 -55 -36.5 -96.5t-69.5 -69t-91 -41.5t-100 -14t-95.5 14t-79 41.5t-50.5 69t-9 96.5l69 497h59z
" />
    <glyph glyph-name="Udieresis" unicode="&#xdc;" horiz-adv-x="677" 
d="M279 812q2 17 16 29t31 12t27 -12t8 -29t-16 -29t-31 -12t-27 12t-8 29zM459 812q2 17 16 29t31 12t27 -12t8 -29t-16 -29t-31 -12t-27 12t-8 29zM119 211q-6 -40 7.5 -70.5t39.5 -50.5t61.5 -30.5t74.5 -10.5t77.5 10.5t70.5 30.5t54 50.5t28 70.5l69 497h59l-69 -497
q-8 -55 -36.5 -96.5t-69.5 -69t-91 -41.5t-100 -14t-95.5 14t-79 41.5t-50.5 69t-9 96.5l69 497h59z" />
    <glyph glyph-name="Yacute" unicode="&#xdd;" horiz-adv-x="556" 
d="M363 756h-58l84 113h80zM265 0h-59l38 277l-185 431h69l155 -372l258 372h70l-308 -431z" />
    <glyph glyph-name="Thorn" unicode="&#xde;" horiz-adv-x="611" 
d="M36 0l99 708h59l-18 -131h208q78 0 125.5 -33t67 -82t11 -106.5t-41 -106.5t-89 -82t-134.5 -33h-209l-19 -134h-59zM330 193q59 0 101.5 24t67 60t30 78.5t-9 78.5t-50 60t-93.5 24h-208l-46 -325h208z" />
    <glyph glyph-name="germandbls" unicode="&#xdf;" horiz-adv-x="591" 
d="M251 59q38 -1 76 8t69 28t52.5 48t27.5 68q6 40 -4 69t-31 47.5t-52.5 26.5t-69.5 8h-92l8 56h92q30 0 57.5 8.5t50 25.5t37.5 42.5t20 58.5q5 35 -6 59.5t-32.5 39.5t-50 22t-58.5 7t-60.5 -7.5t-56 -24t-44 -42t-23.5 -60.5l-77 -548h-58l77 548q7 46 31 81.5t59 59.5
t76.5 36.5t83.5 12.5t80.5 -11.5t67 -34t43 -57.5t7.5 -81q-7 -48 -32 -91.5t-72 -68.5q60 -22 79 -70t10 -113q-9 -54 -37.5 -94t-69 -66.5t-89 -39t-97.5 -11.5q-27 1 -54 6t-50 18l10 63q20 -11 48 -18.5t54 -8.5z" />
    <glyph glyph-name="agrave" unicode="&#xe0;" horiz-adv-x="517" 
d="M199 689h80l55 -113h-58zM357 52q-28 -27 -72 -44.5t-90 -17.5q-35 0 -66.5 10t-55 31t-34.5 53t-5 76l27 197q7 48 29 81t54.5 53t71.5 28.5t80 8.5q51 0 98 -13t81 -30l-67 -485h-50zM412 445q-21 11 -52.5 19t-66.5 8q-30 0 -59.5 -5.5t-54 -19t-41 -35.5t-20.5 -54
l-27 -194q-4 -30 4 -51.5t24 -36t38.5 -21t47.5 -6.5q22 0 44.5 4t43.5 11.5t39.5 18t31.5 23.5z" />
    <glyph glyph-name="aacute" unicode="&#xe1;" horiz-adv-x="517" 
d="M324 576h-58l84 113h80zM357 52q-28 -27 -72 -44.5t-90 -17.5q-35 0 -66.5 10t-55 31t-34.5 53t-5 76l27 197q7 48 29 81t54.5 53t71.5 28.5t80 8.5q51 0 98 -13t81 -30l-67 -485h-50zM412 445q-21 11 -52.5 19t-66.5 8q-30 0 -59.5 -5.5t-54 -19t-41 -35.5t-20.5 -54
l-27 -194q-4 -30 4 -51.5t24 -36t38.5 -21t47.5 -6.5q22 0 44.5 4t43.5 11.5t39.5 18t31.5 23.5z" />
    <glyph glyph-name="acircumflex" unicode="&#xe2;" horiz-adv-x="517" 
d="M442 576h-63l-63 78l-82 -78h-64l119 113h66zM357 52q-28 -27 -72 -44.5t-90 -17.5q-35 0 -66.5 10t-55 31t-34.5 53t-5 76l27 197q7 48 29 81t54.5 53t71.5 28.5t80 8.5q51 0 98 -13t81 -30l-67 -485h-50zM412 445q-21 11 -52.5 19t-66.5 8q-30 0 -59.5 -5.5t-54 -19
t-41 -35.5t-20.5 -54l-27 -194q-4 -30 4 -51.5t24 -36t38.5 -21t47.5 -6.5q22 0 44.5 4t43.5 11.5t39.5 18t31.5 23.5z" />
    <glyph glyph-name="atilde" unicode="&#xe3;" horiz-adv-x="517" 
d="M178 614q13 35 38 55t58 20q16 0 28.5 -7.5t24 -16.5t22.5 -16.5t23 -7.5q29 0 45 37l36 -15q-16 -34 -39.5 -53.5t-51.5 -19.5q-17 0 -30 7.5t-24 16.5t-22.5 16.5t-25.5 7.5t-24.5 -10t-20.5 -28zM357 52q-28 -27 -72 -44.5t-90 -17.5q-35 0 -66.5 10t-55 31t-34.5 53
t-5 76l27 197q7 48 29 81t54.5 53t71.5 28.5t80 8.5q51 0 98 -13t81 -30l-67 -485h-50zM412 445q-21 11 -52.5 19t-66.5 8q-30 0 -59.5 -5.5t-54 -19t-41 -35.5t-20.5 -54l-27 -194q-4 -30 4 -51.5t24 -36t38.5 -21t47.5 -6.5q22 0 44.5 4t43.5 11.5t39.5 18t31.5 23.5z" />
    <glyph glyph-name="adieresis" unicode="&#xe4;" horiz-adv-x="517" 
d="M180 632q2 17 16 29t31 12t27 -12t8 -29t-16 -29t-31 -12t-27 12t-8 29zM360 632q2 17 16 29t31 12t27 -12t8 -29t-16 -29t-31 -12t-27 12t-8 29zM357 52q-28 -27 -72 -44.5t-90 -17.5q-35 0 -66.5 10t-55 31t-34.5 53t-5 76l27 197q7 48 29 81t54.5 53t71.5 28.5t80 8.5
q51 0 98 -13t81 -30l-67 -485h-50zM412 445q-21 11 -52.5 19t-66.5 8q-30 0 -59.5 -5.5t-54 -19t-41 -35.5t-20.5 -54l-27 -194q-4 -30 4 -51.5t24 -36t38.5 -21t47.5 -6.5q22 0 44.5 4t43.5 11.5t39.5 18t31.5 23.5z" />
    <glyph glyph-name="aring" unicode="&#xe5;" horiz-adv-x="517" 
d="M214 661q3 19 12.5 36.5t24 30.5t32.5 20.5t38 7.5q19 0 35 -8t26.5 -21.5t15.5 -30.5t2 -36q-3 -18 -12.5 -35t-24 -30t-32.5 -21t-37 -8q-20 0 -35.5 7.5t-26.5 20.5t-16 30.5t-2 36.5zM356 661q3 21 -9 36t-33 15t-37 -15.5t-19 -36.5t9.5 -35.5t32.5 -14.5
q21 0 37 15t19 36zM357 52q-28 -27 -72 -44.5t-90 -17.5q-35 0 -66.5 10t-55 31t-34.5 53t-5 76l27 197q7 48 29 81t54.5 53t71.5 28.5t80 8.5q51 0 98 -13t81 -30l-67 -485h-50zM412 445q-21 11 -52.5 19t-66.5 8q-30 0 -59.5 -5.5t-54 -19t-41 -35.5t-20.5 -54l-27 -194
q-4 -30 4 -51.5t24 -36t38.5 -21t47.5 -6.5q22 0 44.5 4t43.5 11.5t39.5 18t31.5 23.5z" />
    <glyph glyph-name="ae" unicode="&#xe6;" horiz-adv-x="823" 
d="M356 52q-28 -27 -72 -44.5t-90 -17.5q-35 0 -66.5 10t-54.5 31t-34.5 53t-5.5 76l27 198q6 47 28 79.5t54 52.5t70.5 29t78.5 9q51 0 99 -14.5t81 -34.5q32 25 71 37t79 12q37 0 70.5 -10.5t58 -32t36.5 -53.5t6 -74q-6 -44 -26.5 -75.5t-50 -52t-66 -30.5t-74 -11
t-74 6.5t-66.5 22.5l-9 -65q-3 -28 7 -48t28 -32.5t42 -18t49 -5.5q42 0 81.5 16t60.5 51l46 -25q-15 -25 -37 -44t-48 -31.5t-54.5 -19t-56.5 -6.5q-39 0 -74.5 12t-59.5 35l-4 -37h-49zM398 354q6 41 28 76q-24 18 -60.5 30t-75.5 12q-30 0 -59.5 -6.5t-53.5 -20t-40 -35
t-20 -51.5l-27 -199q-4 -30 4 -51t24 -34.5t38.5 -19.5t47.5 -6q22 0 44.5 4t43.5 11.5t39.5 18t31.5 23.5zM442 270q22 -9 50.5 -16.5t59.5 -10t61.5 1t56 16.5t43 36.5t23.5 60.5q4 30 -5 51.5t-26.5 35.5t-41.5 20.5t-50 6.5q-27 0 -53.5 -7t-48.5 -21t-37.5 -36
t-19.5 -53z" />
    <glyph glyph-name="ccedilla" unicode="&#xe7;" horiz-adv-x="461" 
d="M211 49q22 0 45 4.5t42.5 13.5t35 23.5t24.5 35.5l48 -23q-13 -27 -33 -47t-44.5 -34t-51.5 -21.5t-55 -9.5l-26 -60q17 0 32.5 -5.5t26 -16t15.5 -27t2 -37.5q-4 -24 -16.5 -41t-30 -27.5t-37.5 -15.5t-39 -5q-46 0 -86 20l18 37q17 -9 33 -13t37 -4q25 0 47 13t27 40
q3 18 -3.5 28.5t-17.5 15t-24 3.5t-24 -6l-12 13l41 88q-34 2 -64.5 13.5t-52 32.5t-32.5 51t-5 70l28 202q6 42 27.5 73.5t52 52.5t67.5 31.5t73 10.5q54 0 99 -22t65 -67l-51 -30q-13 32 -46.5 47.5t-74.5 15.5q-26 0 -52 -6.5t-48 -20t-37 -34.5t-19 -49l-28 -203
q-4 -28 5 -49t26.5 -34.5t42 -20t50.5 -6.5z" />
    <glyph glyph-name="egrave" unicode="&#xe8;" horiz-adv-x="484" 
d="M185 689h80l55 -113h-58zM88 159q-4 -30 5.5 -50.5t27.5 -34t42 -19.5t50 -6q42 0 81.5 16t60.5 51l46 -25q-15 -25 -37 -44t-48 -31.5t-54.5 -19t-56.5 -6.5q-37 0 -71 10.5t-58.5 31.5t-37 53t-6.5 74l27 195q6 44 28 76.5t53 54.5t68 32.5t74 10.5t70.5 -10.5
t58 -31.5t36.5 -53t6 -75q-6 -44 -26.5 -75.5t-50 -52t-66 -30.5t-74 -11t-74 6.5t-66.5 22.5zM103 270q22 -9 50.5 -16.5t59.5 -10t61.5 1t56 16.5t43 36.5t23.5 60.5q4 30 -5 51.5t-26.5 35.5t-41.5 20.5t-50 6.5q-27 0 -53.5 -7.5t-48.5 -23t-37.5 -38.5t-19.5 -54z" />
    <glyph glyph-name="eacute" unicode="&#xe9;" horiz-adv-x="484" 
d="M310 576h-58l84 113h80zM88 159q-4 -30 5.5 -50.5t27.5 -34t42 -19.5t50 -6q42 0 81.5 16t60.5 51l46 -25q-15 -25 -37 -44t-48 -31.5t-54.5 -19t-56.5 -6.5q-37 0 -71 10.5t-58.5 31.5t-37 53t-6.5 74l27 195q6 44 28 76.5t53 54.5t68 32.5t74 10.5t70.5 -10.5t58 -31.5
t36.5 -53t6 -75q-6 -44 -26.5 -75.5t-50 -52t-66 -30.5t-74 -11t-74 6.5t-66.5 22.5zM103 270q22 -9 50.5 -16.5t59.5 -10t61.5 1t56 16.5t43 36.5t23.5 60.5q4 30 -5 51.5t-26.5 35.5t-41.5 20.5t-50 6.5q-27 0 -53.5 -7.5t-48.5 -23t-37.5 -38.5t-19.5 -54z" />
    <glyph glyph-name="ecircumflex" unicode="&#xea;" horiz-adv-x="484" 
d="M428 576h-63l-63 78l-82 -78h-64l119 113h66zM88 159q-4 -30 5.5 -50.5t27.5 -34t42 -19.5t50 -6q42 0 81.5 16t60.5 51l46 -25q-15 -25 -37 -44t-48 -31.5t-54.5 -19t-56.5 -6.5q-37 0 -71 10.5t-58.5 31.5t-37 53t-6.5 74l27 195q6 44 28 76.5t53 54.5t68 32.5t74 10.5
t70.5 -10.5t58 -31.5t36.5 -53t6 -75q-6 -44 -26.5 -75.5t-50 -52t-66 -30.5t-74 -11t-74 6.5t-66.5 22.5zM103 270q22 -9 50.5 -16.5t59.5 -10t61.5 1t56 16.5t43 36.5t23.5 60.5q4 30 -5 51.5t-26.5 35.5t-41.5 20.5t-50 6.5q-27 0 -53.5 -7.5t-48.5 -23t-37.5 -38.5
t-19.5 -54z" />
    <glyph glyph-name="edieresis" unicode="&#xeb;" horiz-adv-x="484" 
d="M176 622q2 17 16 29t31 12t27 -12t8 -29t-16 -29t-31 -12t-27 12t-8 29zM336 622q2 17 16 29t31 12t27 -12t8 -29t-16 -29t-31 -12t-27 12t-8 29zM88 159q-4 -30 5.5 -50.5t27.5 -34t42 -19.5t50 -6q42 0 81.5 16t60.5 51l46 -25q-15 -25 -37 -44t-48 -31.5t-54.5 -19
t-56.5 -6.5q-37 0 -71 10.5t-58.5 31.5t-37 53t-6.5 74l27 195q6 44 28 76.5t53 54.5t68 32.5t74 10.5t70.5 -10.5t58 -31.5t36.5 -53t6 -75q-6 -44 -26.5 -75.5t-50 -52t-66 -30.5t-74 -11t-74 6.5t-66.5 22.5zM103 270q22 -9 50.5 -16.5t59.5 -10t61.5 1t56 16.5t43 36.5
t23.5 60.5q4 30 -5 51.5t-26.5 35.5t-41.5 20.5t-50 6.5q-27 0 -53.5 -7.5t-48.5 -23t-37.5 -38.5t-19.5 -54z" />
    <glyph glyph-name="igrave" unicode="&#xec;" horiz-adv-x="194" 
d="M30 679h80l55 -113h-58zM155 518l-73 -518h-56l73 518h56z" />
    <glyph glyph-name="iacute" unicode="&#xed;" horiz-adv-x="194" 
d="M155 566h-58l84 113h80zM155 518l-73 -518h-56l73 518h56z" />
    <glyph glyph-name="icircumflex" unicode="&#xee;" horiz-adv-x="194" 
d="M229 566h-54l-26 78l-59 -78h-59l89 113h64zM155 518l-73 -518h-56l73 518h56z" />
    <glyph glyph-name="idieresis" unicode="&#xef;" horiz-adv-x="194" 
d="M41 622q2 17 16 29t31 12t27 -12t8 -29t-16 -29t-31 -12t-27 12t-8 29zM161 622q2 17 16 29t31 12t27 -12t8 -29t-16 -29t-31 -12t-27 12t-8 29zM155 518l-73 -518h-56l73 518h56z" />
    <glyph glyph-name="eth" unicode="&#xf0;" horiz-adv-x="507" 
d="M125 648q39 38 95.5 55t110.5 12l31 67l42 -15l-27 -61q48 -15 77.5 -53t20.5 -101l-73 -518l-57 -17q-36 -10 -73 -16.5t-73 -6.5t-68.5 10.5t-56.5 31.5t-36 52t-6 72l21 152q6 40 27 71.5t51 52.5t66.5 31.5t73.5 10.5q36 0 69.5 -7t64.5 -24l15 105q6 41 -14.5 66
t-53.5 36l-36 -80l-43 16l35 73q-42 3 -83.5 -10t-66.5 -40zM398 394q-63 29 -137 29q-26 0 -51.5 -7t-46.5 -20.5t-36 -34t-19 -48.5v-1l-21 -152v-1q-4 -28 4.5 -48.5t25.5 -34t40.5 -20.5t49.5 -7q42 0 82 10t65 20q6 44 11 82.5t10.5 75t11 75t11.5 82.5z" />
    <glyph glyph-name="ntilde" unicode="&#xf1;" 
d="M178 614q13 35 38 55t58 20q16 0 28.5 -7.5t24 -16.5t22.5 -16.5t23 -7.5q29 0 45 37l36 -15q-16 -34 -39.5 -53.5t-51.5 -19.5q-17 0 -30 7.5t-24 16.5t-22.5 16.5t-25.5 7.5t-24.5 -10t-20.5 -28zM92 487q51 17 102 29t102 12q36 -1 69 -11.5t57 -31t36.5 -51.5
t6.5 -73l-50 -361h-56l50 361q4 28 -5 49t-26.5 35t-41 20.5t-48.5 6.5q-42 0 -82 -10t-65 -20l-61 -442h-56z" />
    <glyph glyph-name="ograve" unicode="&#xf2;" horiz-adv-x="497" 
d="M183 689h80l55 -113h-58zM60 359q6 42 27 74t52 53t67.5 31.5t73.5 10.5t70.5 -10.5t58.5 -31.5t37.5 -53t6.5 -74l-29 -201q-6 -42 -27.5 -73.5t-52 -52.5t-67 -31.5t-73.5 -10.5t-71 10.5t-58.5 31.5t-37 52.5t-6.5 73.5zM272 472q-26 0 -52 -6.5t-47.5 -20t-37 -34.5
t-19.5 -51l-29 -198q-4 -30 5.5 -51t27.5 -35t42 -20.5t50 -6.5q25 0 51 6.5t48 20.5t37.5 35t19.5 51l29 198q4 30 -5.5 51t-27.5 34.5t-42.5 20t-49.5 6.5z" />
    <glyph glyph-name="oacute" unicode="&#xf3;" horiz-adv-x="497" 
d="M308 576h-58l84 113h80zM60 359q6 42 27 74t52 53t67.5 31.5t73.5 10.5t70.5 -10.5t58.5 -31.5t37.5 -53t6.5 -74l-29 -201q-6 -42 -27.5 -73.5t-52 -52.5t-67 -31.5t-73.5 -10.5t-71 10.5t-58.5 31.5t-37 52.5t-6.5 73.5zM272 472q-26 0 -52 -6.5t-47.5 -20t-37 -34.5
t-19.5 -51l-29 -198q-4 -30 5.5 -51t27.5 -35t42 -20.5t50 -6.5q25 0 51 6.5t48 20.5t37.5 35t19.5 51l29 198q4 30 -5.5 51t-27.5 34.5t-42.5 20t-49.5 6.5z" />
    <glyph glyph-name="ocircumflex" unicode="&#xf4;" horiz-adv-x="497" 
d="M426 576h-63l-63 78l-82 -78h-64l119 113h66zM60 359q6 42 27 74t52 53t67.5 31.5t73.5 10.5t70.5 -10.5t58.5 -31.5t37.5 -53t6.5 -74l-29 -201q-6 -42 -27.5 -73.5t-52 -52.5t-67 -31.5t-73.5 -10.5t-71 10.5t-58.5 31.5t-37 52.5t-6.5 73.5zM272 472q-26 0 -52 -6.5
t-47.5 -20t-37 -34.5t-19.5 -51l-29 -198q-4 -30 5.5 -51t27.5 -35t42 -20.5t50 -6.5q25 0 51 6.5t48 20.5t37.5 35t19.5 51l29 198q4 30 -5.5 51t-27.5 34.5t-42.5 20t-49.5 6.5z" />
    <glyph glyph-name="otilde" unicode="&#xf5;" horiz-adv-x="497" 
d="M162 604q13 35 38 55t58 20q16 0 28.5 -7.5t24 -16.5t22.5 -16.5t23 -7.5q29 0 45 37l36 -15q-16 -34 -39.5 -53.5t-51.5 -19.5q-17 0 -30 7.5t-24 16.5t-22.5 16.5t-25.5 7.5t-24.5 -10t-20.5 -28zM60 359q6 42 27 74t52 53t67.5 31.5t73.5 10.5t70.5 -10.5t58.5 -31.5
t37.5 -53t6.5 -74l-29 -201q-6 -42 -27.5 -73.5t-52 -52.5t-67 -31.5t-73.5 -10.5t-71 10.5t-58.5 31.5t-37 52.5t-6.5 73.5zM272 472q-26 0 -52 -6.5t-47.5 -20t-37 -34.5t-19.5 -51l-29 -198q-4 -30 5.5 -51t27.5 -35t42 -20.5t50 -6.5q25 0 51 6.5t48 20.5t37.5 35
t19.5 51l29 198q4 30 -5.5 51t-27.5 34.5t-42.5 20t-49.5 6.5z" />
    <glyph glyph-name="odieresis" unicode="&#xf6;" horiz-adv-x="497" 
d="M174 622q2 17 16 29t31 12t27 -12t8 -29t-16 -29t-31 -12t-27 12t-8 29zM334 622q2 17 16 29t31 12t27 -12t8 -29t-16 -29t-31 -12t-27 12t-8 29zM60 359q6 42 27 74t52 53t67.5 31.5t73.5 10.5t70.5 -10.5t58.5 -31.5t37.5 -53t6.5 -74l-29 -201q-6 -42 -27.5 -73.5
t-52 -52.5t-67 -31.5t-73.5 -10.5t-71 10.5t-58.5 31.5t-37 52.5t-6.5 73.5zM272 472q-26 0 -52 -6.5t-47.5 -20t-37 -34.5t-19.5 -51l-29 -198q-4 -30 5.5 -51t27.5 -35t42 -20.5t50 -6.5q25 0 51 6.5t48 20.5t37.5 35t19.5 51l29 198q4 30 -5.5 51t-27.5 34.5t-42.5 20
t-49.5 6.5z" />
    <glyph glyph-name="divide" unicode="&#xf7;" horiz-adv-x="542" 
d="M250 479q3 21 20 36t38 15t34 -15t10 -36t-20 -36t-38 -15t-34 15t-10 36zM488 301h-434l8 60h434zM207 171q3 22 20 36t38 15q21 0 33.5 -15t10.5 -36q-3 -21 -20.5 -36t-38.5 -15t-33.5 15t-9.5 36z" />
    <glyph glyph-name="oslash" unicode="&#xf8;" horiz-adv-x="497" 
d="M393 498q32 -21 49.5 -55.5t10.5 -83.5l-29 -201q-6 -42 -27.5 -73.5t-52 -52.5t-67 -31.5t-73.5 -10.5q-40 0 -76 12l-35 -65l-39 17l36 67q-32 20 -49 54.5t-10 82.5l29 201q6 42 27 74t52 53t67.5 31.5t73.5 10.5t73 -11l34 64l40 -20zM87 162q-4 -29 5.5 -50
t26.5 -35l207 388q-24 7 -54 7q-26 0 -52 -6.5t-47.5 -20t-37 -34.5t-19.5 -51zM397 360q4 29 -5.5 50t-26.5 35l-208 -388q27 -8 55 -8q25 0 51 6.5t48 20.5t37.5 35t19.5 51z" />
    <glyph glyph-name="ugrave" unicode="&#xf9;" 
d="M194 679h80l55 -113h-58zM359 14q-35 -10 -73 -17t-73 -7q-36 0 -69 11t-57 32t-36 52t-6 73l50 360h56l-51 -362q-4 -27 5 -47.5t26 -34.5t40.5 -21t49.5 -7q42 0 82 10.5t65 20.5l62 441h56l-68 -487z" />
    <glyph glyph-name="uacute" unicode="&#xfa;" 
d="M319 566h-58l84 113h80zM359 14q-35 -10 -73 -17t-73 -7q-36 0 -69 11t-57 32t-36 52t-6 73l50 360h56l-51 -362q-4 -27 5 -47.5t26 -34.5t40.5 -21t49.5 -7q42 0 82 10.5t65 20.5l62 441h56l-68 -487z" />
    <glyph glyph-name="ucircumflex" unicode="&#xfb;" 
d="M437 566h-63l-63 78l-82 -78h-64l119 113h66zM359 14q-35 -10 -73 -17t-73 -7q-36 0 -69 11t-57 32t-36 52t-6 73l50 360h56l-51 -362q-4 -27 5 -47.5t26 -34.5t40.5 -21t49.5 -7q42 0 82 10.5t65 20.5l62 441h56l-68 -487z" />
    <glyph glyph-name="udieresis" unicode="&#xfc;" 
d="M175 622q2 17 16 29t31 12t27 -12t8 -29t-16 -29t-31 -12t-27 12t-8 29zM355 622q2 17 16 29t31 12t27 -12t8 -29t-16 -29t-31 -12t-27 12t-8 29zM359 14q-35 -10 -73 -17t-73 -7q-36 0 -69 11t-57 32t-36 52t-6 73l50 360h56l-51 -362q-4 -27 5 -47.5t26 -34.5t40.5 -21
t49.5 -7q42 0 82 10.5t65 20.5l62 441h56l-68 -487z" />
    <glyph glyph-name="yacute" unicode="&#xfd;" horiz-adv-x="536" 
d="M324 566h-58l84 113h80zM68 -113q20 -26 53 -38t72 -13q28 0 56.5 6.5t51.5 21t39.5 37t20.5 52.5l10 73q-36 -21 -73.5 -28t-75.5 -7t-72.5 11.5t-59.5 33t-38 54t-7 74.5l49 354h58l-50 -356q-4 -29 5 -50.5t27 -36t42.5 -22t51.5 -7.5q37 0 74.5 8t76.5 26l61 438h57
l-79 -565q-6 -44 -27.5 -76t-52 -53t-67.5 -31.5t-75 -10.5q-51 0 -97.5 17.5t-73.5 52.5z" />
    <glyph glyph-name="thorn" unicode="&#xfe;" horiz-adv-x="517" 
d="M182 707l-27 -197q72 18 146 18q36 0 69.5 -10.5t58 -31.5t37 -52t6.5 -73l-29 -203q-6 -41 -27.5 -72.5t-52 -52.5t-67.5 -32t-74 -11t-71 8.5t-66 23.5l-30 -218h-56l127 903h56zM93 78q32 -14 67.5 -21.5t71.5 -7.5q26 0 52 6.5t47.5 20t36.5 34t18 48.5l29 205
q4 28 -4.5 48.5t-26 34t-41.5 20t-50 6.5q-36 0 -72.5 -2.5t-73.5 -14.5z" />
    <glyph glyph-name="ydieresis" unicode="&#xff;" horiz-adv-x="536" 
d="M180 622q2 17 16 29t31 12t27 -12t8 -29t-16 -29t-31 -12t-27 12t-8 29zM360 622q2 17 16 29t31 12t27 -12t8 -29t-16 -29t-31 -12t-27 12t-8 29zM68 -113q20 -26 53 -38t72 -13q28 0 56.5 6.5t51.5 21t39.5 37t20.5 52.5l10 73q-36 -21 -73.5 -28t-75.5 -7t-72.5 11.5
t-59.5 33t-38 54t-7 74.5l49 354h58l-50 -356q-4 -29 5 -50.5t27 -36t42.5 -22t51.5 -7.5q37 0 74.5 8t76.5 26l61 438h57l-79 -565q-6 -44 -27.5 -76t-52 -53t-67.5 -31.5t-75 -10.5q-51 0 -97.5 17.5t-73.5 52.5z" />
    <glyph glyph-name="Amacron" unicode="&#x100;" horiz-adv-x="606" 
d="M267 848h230l-8 -49h-230zM559 0h-62l-52 236h-304l-116 -236h-62l353 708h86zM170 295h262l-79 369z" />
    <glyph glyph-name="amacron" unicode="&#x101;" horiz-adv-x="517" 
d="M201 668h230l-8 -49h-230zM357 52q-28 -27 -72 -44.5t-90 -17.5q-35 0 -66.5 10t-55 31t-34.5 53t-5 76l27 197q7 48 29 81t54.5 53t71.5 28.5t80 8.5q51 0 98 -13t81 -30l-67 -485h-50zM412 445q-21 11 -52.5 19t-66.5 8q-30 0 -59.5 -5.5t-54 -19t-41 -35.5t-20.5 -54
l-27 -194q-4 -30 4 -51.5t24 -36t38.5 -21t47.5 -6.5q22 0 44.5 4t43.5 11.5t39.5 18t31.5 23.5z" />
    <glyph glyph-name="Abreve" unicode="&#x102;" horiz-adv-x="606" 
d="M514 869q-11 -53 -45.5 -84t-94.5 -31q-55 0 -84 31t-18 84h47q-6 -31 10.5 -50t49.5 -19t57.5 19t30.5 50h47zM559 0h-62l-52 236h-304l-116 -236h-62l353 708h86zM170 295h262l-79 369z" />
    <glyph glyph-name="abreve" unicode="&#x103;" horiz-adv-x="517" 
d="M448 689q-11 -53 -45.5 -84t-94.5 -31q-55 0 -84 31t-18 84h47q-6 -31 10.5 -50t49.5 -19t57.5 19t30.5 50h47zM357 52q-28 -27 -72 -44.5t-90 -17.5q-35 0 -66.5 10t-55 31t-34.5 53t-5 76l27 197q7 48 29 81t54.5 53t71.5 28.5t80 8.5q51 0 98 -13t81 -30l-67 -485h-50
zM412 445q-21 11 -52.5 19t-66.5 8q-30 0 -59.5 -5.5t-54 -19t-41 -35.5t-20.5 -54l-27 -194q-4 -30 4 -51.5t24 -36t38.5 -21t47.5 -6.5q22 0 44.5 4t43.5 11.5t39.5 18t31.5 23.5z" />
    <glyph glyph-name="Aogonek" unicode="&#x104;" horiz-adv-x="604" 
d="M580 -211q-17 -14 -39 -23.5t-50 -9.5q-38 0 -57.5 24.5t-15.5 62.5q2 16 10.5 36.5t21.5 41.5t30 41.5t35 37.5h-19l-52 236h-304l-116 -236h-62l353 708h86l157 -708q-45 -45 -66 -85.5t-21 -63.5q0 -17 8.5 -27.5t22 -13.5t31 3t35.5 21zM352 664l-183 -369h262z" />
    <glyph glyph-name="aogonek" unicode="&#x105;" horiz-adv-x="517" 
d="M321 -149q0 -17 8.5 -27.5t22 -13.5t31 3t35.5 21l12 -45q-17 -14 -39 -23.5t-50 -9.5q-38 0 -57.5 24.5t-15.5 62.5q2 16 9 36.5t19 41.5t27.5 41.5t34.5 37.5l-1 52q-28 -27 -72 -44.5t-90 -17.5q-35 0 -66.5 10t-55 31t-34.5 53t-5 76l27 197q7 48 29 81t54.5 53
t71.5 28.5t80 8.5q51 0 98 -13t81 -30l-67 -485q-45 -45 -66 -85.5t-21 -63.5zM205 49q22 0 44.5 4t43.5 11.5t39.5 18t31.5 23.5l48 339q-21 11 -52.5 19t-66.5 8q-30 0 -59.5 -5.5t-54 -19t-41 -35.5t-20.5 -54l-27 -194q-4 -30 4 -51.5t24 -36t38.5 -21t47.5 -6.5z" />
    <glyph glyph-name="Cacute" unicode="&#x106;" horiz-adv-x="590" 
d="M409 756h-58l84 113h80zM85 503q7 53 36 93.5t70 67.5t90.5 40.5t99.5 13.5q37 0 72.5 -8t65.5 -23.5t52 -39.5t33 -56l-57 -26v-1q-8 24 -25.5 41.5t-41 29.5t-52 18t-58.5 6q-38 0 -76.5 -10t-70 -29.5t-53 -48.5t-26.5 -68l-41 -298q-5 -39 8.5 -68.5t39 -49t61 -29
t73.5 -9.5q30 0 60 6t57 18t49.5 29.5t37.5 41.5l50 -26q-20 -32 -49.5 -56t-64 -40t-73 -24t-76.5 -8q-49 0 -94.5 13.5t-78.5 40.5t-50 67t-9 94z" />
    <glyph glyph-name="cacute" unicode="&#x107;" horiz-adv-x="461" 
d="M308 576h-58l84 113h80zM393 409q-13 32 -46.5 47.5t-74.5 15.5q-26 0 -52 -6.5t-48 -20t-37 -34.5t-19 -49l-28 -203q-4 -28 5 -49t26.5 -34.5t42 -20t50.5 -6.5q22 0 45 4.5t42.5 13.5t35 23.5t24.5 35.5l48 -23q-14 -29 -36.5 -50t-49.5 -35t-57 -21t-60 -7
q-36 0 -70 10.5t-58.5 31.5t-37 52.5t-6.5 73.5l28 202q6 42 27.5 73.5t52 52.5t67.5 31.5t73 10.5q54 0 99 -22t65 -67z" />
    <glyph glyph-name="Cdotaccent" unicode="&#x10a;" horiz-adv-x="590" 
d="M351 812q3 19 17 31.5t33 12.5t29.5 -12.5t8.5 -31.5q-3 -19 -17 -31.5t-33 -12.5t-29.5 12.5t-8.5 31.5zM85 503q7 53 36 93.5t70 67.5t90.5 40.5t99.5 13.5q37 0 72.5 -8t65.5 -23.5t52 -39.5t33 -56l-57 -26v-1q-8 24 -25.5 41.5t-41 29.5t-52 18t-58.5 6
q-38 0 -76.5 -10t-70 -29.5t-53 -48.5t-26.5 -68l-41 -298q-5 -39 8.5 -68.5t39 -49t61 -29t73.5 -9.5q30 0 60 6t57 18t49.5 29.5t37.5 41.5l50 -26q-20 -32 -49.5 -56t-64 -40t-73 -24t-76.5 -8q-49 0 -94.5 13.5t-78.5 40.5t-50 67t-9 94z" />
    <glyph glyph-name="cdotaccent" unicode="&#x10b;" horiz-adv-x="461" 
d="M250 632q3 19 17 31.5t33 12.5t29.5 -12.5t8.5 -31.5q-3 -19 -17 -31.5t-33 -12.5t-29.5 12.5t-8.5 31.5zM393 409q-13 32 -46.5 47.5t-74.5 15.5q-26 0 -52 -6.5t-48 -20t-37 -34.5t-19 -49l-28 -203q-4 -28 5 -49t26.5 -34.5t42 -20t50.5 -6.5q22 0 45 4.5t42.5 13.5
t35 23.5t24.5 35.5l48 -23q-14 -29 -36.5 -50t-49.5 -35t-57 -21t-60 -7q-36 0 -70 10.5t-58.5 31.5t-37 52.5t-6.5 73.5l28 202q6 42 27.5 73.5t52 52.5t67.5 31.5t73 10.5q54 0 99 -22t65 -67z" />
    <glyph glyph-name="Ccaron" unicode="&#x10c;" horiz-adv-x="590" 
d="M260 869h66l68 -76l85 76h67l-124 -113h-70zM85 503q7 53 36 93.5t70 67.5t90.5 40.5t99.5 13.5q37 0 72.5 -8t65.5 -23.5t52 -39.5t33 -56l-57 -26v-1q-8 24 -25.5 41.5t-41 29.5t-52 18t-58.5 6q-38 0 -76.5 -10t-70 -29.5t-53 -48.5t-26.5 -68l-41 -298
q-5 -39 8.5 -68.5t39 -49t61 -29t73.5 -9.5q30 0 60 6t57 18t49.5 29.5t37.5 41.5l50 -26q-20 -32 -49.5 -56t-64 -40t-73 -24t-76.5 -8q-49 0 -94.5 13.5t-78.5 40.5t-50 67t-9 94z" />
    <glyph glyph-name="ccaron" unicode="&#x10d;" horiz-adv-x="461" 
d="M159 689h66l68 -76l85 76h67l-124 -113h-70zM393 409q-13 32 -46.5 47.5t-74.5 15.5q-26 0 -52 -6.5t-48 -20t-37 -34.5t-19 -49l-28 -203q-4 -28 5 -49t26.5 -34.5t42 -20t50.5 -6.5q22 0 45 4.5t42.5 13.5t35 23.5t24.5 35.5l48 -23q-14 -29 -36.5 -50t-49.5 -35
t-57 -21t-60 -7q-36 0 -70 10.5t-58.5 31.5t-37 52.5t-6.5 73.5l28 202q6 42 27.5 73.5t52 52.5t67.5 31.5t73 10.5q54 0 99 -22t65 -67z" />
    <glyph glyph-name="Dcaron" unicode="&#x10e;" horiz-adv-x="640" 
d="M250 869h66l68 -76l85 76h67l-124 -113h-70zM135 708h236q50 0 96 -12t79.5 -37t50.5 -64t10 -94l-42 -295q-8 -54 -36 -93t-68.5 -64t-89.5 -37t-99 -12h-236zM280 59q39 0 77 8t69.5 26t53 46t26.5 67l42 295q6 40 -8 68t-40.5 46t-62 26t-74.5 8h-177l-83 -590h177z
" />
    <glyph glyph-name="dcaron" unicode="&#x10f;" horiz-adv-x="526" 
d="M408 25q-51 -17 -102.5 -26t-102.5 -9q-36 1 -69.5 11.5t-58 31.5t-37 52t-6.5 73l28 201q6 41 27 72.5t52 53t68 32t74 10.5q72 0 136 -31l30 214h56zM570 555h-49l39 153h60zM410 444q-32 14 -67 21t-71 7q-26 0 -52 -6.5t-48 -20t-36.5 -34.5t-18.5 -49l-28 -206
q-4 -28 4.5 -48.5t26 -34.5t41 -21t49.5 -7q36 0 73.5 3.5t73.5 15.5z" />
    <glyph glyph-name="Dcroat" unicode="&#x110;" horiz-adv-x="643" 
d="M138 708h236q50 0 96 -12t79.5 -37t50.5 -64t10 -94l-42 -295q-8 -54 -36 -93t-68.5 -64t-89.5 -37t-99 -12h-236l45 329h-63l7 47h63zM283 59q39 0 77 8t69.5 26t53 46t26.5 67l42 295q6 40 -8 68t-40.5 46t-62 26t-74.5 8h-177l-39 -273h155l-7 -47h-155l-37 -270h177z
" />
    <glyph glyph-name="dcroat" unicode="&#x111;" horiz-adv-x="514" 
d="M487 593l-79 -568q-51 -17 -102.5 -26t-102.5 -9q-36 1 -69.5 11.5t-58 31.5t-37 52t-6.5 73l28 201q6 41 27 72.5t52 53t68 32t74 10.5q72 0 136 -31l14 97h-147l6 43h147l10 74h56l-10 -74h61l-6 -43h-61zM410 444q-32 14 -67 21t-71 7q-26 0 -52 -6.5t-48 -20
t-36.5 -34.5t-18.5 -49l-28 -206q-4 -28 4.5 -48.5t26 -34.5t41 -21t49.5 -7q36 0 73.5 3.5t73.5 15.5z" />
    <glyph glyph-name="Emacron" unicode="&#x112;" horiz-adv-x="567" 
d="M262 848h230l-8 -49h-230zM148 384h355l-8 -60h-355l-37 -265h385l-8 -59h-444l99 708h444l-8 -59h-385z" />
    <glyph glyph-name="emacron" unicode="&#x113;" horiz-adv-x="484" 
d="M187 668h230l-8 -49h-230zM88 159q-4 -30 5.5 -50.5t27.5 -34t42 -19.5t50 -6q42 0 81.5 16t60.5 51l46 -25q-15 -25 -37 -44t-48 -31.5t-54.5 -19t-56.5 -6.5q-37 0 -71 10.5t-58.5 31.5t-37 53t-6.5 74l27 195q6 44 28 76.5t53 54.5t68 32.5t74 10.5t70.5 -10.5
t58 -31.5t36.5 -53t6 -75q-6 -44 -26.5 -75.5t-50 -52t-66 -30.5t-74 -11t-74 6.5t-66.5 22.5zM103 270q22 -9 50.5 -16.5t59.5 -10t61.5 1t56 16.5t43 36.5t23.5 60.5q4 30 -5 51.5t-26.5 35.5t-41.5 20.5t-50 6.5q-27 0 -53.5 -7.5t-48.5 -23t-37.5 -38.5t-19.5 -54z" />
    <glyph glyph-name="Edotaccent" unicode="&#x116;" horiz-adv-x="567" 
d="M327 812q3 19 17 31.5t33 12.5t29.5 -12.5t8.5 -31.5q-3 -19 -17 -31.5t-33 -12.5t-29.5 12.5t-8.5 31.5zM148 384h355l-8 -60h-355l-37 -265h385l-8 -59h-444l99 708h444l-8 -59h-385z" />
    <glyph glyph-name="edotaccent" unicode="&#x117;" horiz-adv-x="484" 
d="M252 632q3 19 17 31.5t33 12.5t29.5 -12.5t8.5 -31.5q-3 -19 -17 -31.5t-33 -12.5t-29.5 12.5t-8.5 31.5zM88 159q-4 -30 5.5 -50.5t27.5 -34t42 -19.5t50 -6q42 0 81.5 16t60.5 51l46 -25q-15 -25 -37 -44t-48 -31.5t-54.5 -19t-56.5 -6.5q-37 0 -71 10.5t-58.5 31.5
t-37 53t-6.5 74l27 195q6 44 28 76.5t53 54.5t68 32.5t74 10.5t70.5 -10.5t58 -31.5t36.5 -53t6 -75q-6 -44 -26.5 -75.5t-50 -52t-66 -30.5t-74 -11t-74 6.5t-66.5 22.5zM103 270q22 -9 50.5 -16.5t59.5 -10t61.5 1t56 16.5t43 36.5t23.5 60.5q4 30 -5 51.5t-26.5 35.5
t-41.5 20.5t-50 6.5q-27 0 -53.5 -7.5t-48.5 -23t-37.5 -38.5t-19.5 -54z" />
    <glyph glyph-name="Eogonek" unicode="&#x118;" horiz-adv-x="566" 
d="M147 384h355l-8 -60h-355l-37 -265h385l-8 -59q-45 -45 -66 -85.5t-21 -63.5q0 -17 8.5 -27.5t22 -13.5t31 3t35.5 21l12 -45q-17 -14 -39 -23.5t-50 -9.5q-38 0 -57.5 24.5t-15.5 62.5q2 16 10.5 36.5t21.5 41.5t30 41.5t35 37.5h-401l99 708h444l-8 -59h-385z" />
    <glyph glyph-name="eogonek" unicode="&#x119;" horiz-adv-x="484" 
d="M268 -2q-32 -8 -63 -8q-37 0 -71 10.5t-58.5 31.5t-37 53t-6.5 74l27 195q6 44 28 76.5t53 54.5t68 32.5t74 10.5t70.5 -10.5t58 -31.5t36.5 -53t6 -75q-6 -44 -26.5 -75.5t-50 -52t-66 -30.5t-74 -11t-74 6.5t-66.5 22.5l-8 -59q-4 -30 5.5 -50.5t27.5 -34t42 -19.5
t50 -6q42 0 81.5 16t60.5 51l46 -25q-7 -12 -14.5 -22.5t-16.5 -20.5t-21 -21.5t-28 -26.5q-47 -43 -67 -84.5t-20 -64.5q0 -17 8.5 -27.5t22 -13.5t31 3t35.5 21l12 -45q-17 -14 -39 -23.5t-50 -9.5q-38 0 -57.5 24.5t-15.5 62.5q4 32 28.5 74.5t61.5 76.5zM397 358
q4 30 -5 51.5t-26.5 35.5t-41.5 20.5t-50 6.5q-27 0 -53.5 -7.5t-48.5 -23t-37.5 -38.5t-19.5 -54l-12 -79q22 -9 50.5 -16.5t59.5 -10t61.5 1t56 16.5t43 36.5t23.5 60.5z" />
    <glyph glyph-name="Ecaron" unicode="&#x11a;" horiz-adv-x="567" 
d="M236 869h66l68 -76l85 76h67l-124 -113h-70zM148 384h355l-8 -60h-355l-37 -265h385l-8 -59h-444l99 708h444l-8 -59h-385z" />
    <glyph glyph-name="ecaron" unicode="&#x11b;" horiz-adv-x="484" 
d="M161 689h66l68 -76l85 76h67l-124 -113h-70zM88 159q-4 -30 5.5 -50.5t27.5 -34t42 -19.5t50 -6q42 0 81.5 16t60.5 51l46 -25q-15 -25 -37 -44t-48 -31.5t-54.5 -19t-56.5 -6.5q-37 0 -71 10.5t-58.5 31.5t-37 53t-6.5 74l27 195q6 44 28 76.5t53 54.5t68 32.5t74 10.5
t70.5 -10.5t58 -31.5t36.5 -53t6 -75q-6 -44 -26.5 -75.5t-50 -52t-66 -30.5t-74 -11t-74 6.5t-66.5 22.5zM103 270q22 -9 50.5 -16.5t59.5 -10t61.5 1t56 16.5t43 36.5t23.5 60.5q4 30 -5 51.5t-26.5 35.5t-41.5 20.5t-50 6.5q-27 0 -53.5 -7.5t-48.5 -23t-37.5 -38.5
t-19.5 -54z" />
    <glyph glyph-name="Gbreve" unicode="&#x11e;" horiz-adv-x="633" 
d="M531 869q-11 -53 -45.5 -84t-94.5 -31q-55 0 -84 31t-18 84h47q-6 -31 10.5 -50t49.5 -19t57.5 19t30.5 50h47zM87 505q7 53 35.5 93t70 66.5t90.5 40t99 13.5q38 0 73.5 -7.5t65.5 -23t52 -39.5t33 -56l-57 -26q-8 24 -25.5 41.5t-41 29t-52 17t-58.5 5.5
q-38 0 -76.5 -10t-70 -29.5t-53 -48.5t-26.5 -68l-41 -296q-6 -39 7.5 -69t40 -49.5t62 -29.5t74.5 -10t77.5 10t70.5 29.5t54 49.5t27 69l12 89h-217l8 59h276l-20 -147q-8 -54 -36 -95t-69.5 -68.5t-91 -41t-99.5 -13.5t-95.5 13.5t-79 41t-51 68.5t-9.5 95z" />
    <glyph glyph-name="gbreve" unicode="&#x11f;" horiz-adv-x="509" 
d="M447 690q-11 -53 -45.5 -84t-94.5 -31q-55 0 -84 31t-18 84h47q-6 -31 10.5 -50t49.5 -19t57.5 19t30.5 50h47zM55 -117q16 -25 49 -38t71 -13q28 0 54.5 7t48.5 20.5t37 34.5t20 50l12 77q-35 -17 -71 -24t-72 -7q-37 0 -70.5 10.5t-58 31.5t-37 52.5t-6.5 72.5l28 205
q6 41 27 72t50.5 52t65.5 31.5t72 10.5q35 0 88 -10t104 -33l-77 -540q-6 -42 -26.5 -73t-50 -51t-66 -29.5t-74.5 -9.5q-50 0 -93 17t-68 49zM407 448q-22 10 -59 18t-79 8q-26 0 -51.5 -7t-46.5 -21t-36 -34.5t-18 -48.5l-29 -205q-5 -27 2.5 -48.5t24 -36.5t40.5 -22.5
t53 -7.5q35 1 72.5 9t73.5 25z" />
    <glyph glyph-name="Gdotaccent" unicode="&#x120;" horiz-adv-x="633" 
d="M349 812q3 19 17 31.5t33 12.5t29.5 -12.5t8.5 -31.5q-3 -19 -17 -31.5t-33 -12.5t-29.5 12.5t-8.5 31.5zM87 505q7 53 35.5 93t70 66.5t90.5 40t99 13.5q38 0 73.5 -7.5t65.5 -23t52 -39.5t33 -56l-57 -26q-8 24 -25.5 41.5t-41 29t-52 17t-58.5 5.5q-38 0 -76.5 -10
t-70 -29.5t-53 -48.5t-26.5 -68l-41 -296q-6 -39 7.5 -69t40 -49.5t62 -29.5t74.5 -10t77.5 10t70.5 29.5t54 49.5t27 69l12 89h-217l8 59h276l-20 -147q-8 -54 -36 -95t-69.5 -68.5t-91 -41t-99.5 -13.5t-95.5 13.5t-79 41t-51 68.5t-9.5 95z" />
    <glyph glyph-name="gdotaccent" unicode="&#x121;" horiz-adv-x="509" 
d="M265 633q3 19 17 31.5t33 12.5t29.5 -12.5t8.5 -31.5q-3 -19 -17 -31.5t-33 -12.5t-29.5 12.5t-8.5 31.5zM55 -117q16 -25 49 -38t71 -13q28 0 54.5 7t48.5 20.5t37 34.5t20 50l12 77q-35 -17 -71 -24t-72 -7q-37 0 -70.5 10.5t-58 31.5t-37 52.5t-6.5 72.5l28 205
q6 41 27 72t50.5 52t65.5 31.5t72 10.5q35 0 88 -10t104 -33l-77 -540q-6 -42 -26.5 -73t-50 -51t-66 -29.5t-74.5 -9.5q-50 0 -93 17t-68 49zM407 448q-22 10 -59 18t-79 8q-26 0 -51.5 -7t-46.5 -21t-36 -34.5t-18 -48.5l-29 -205q-5 -27 2.5 -48.5t24 -36.5t40.5 -22.5
t53 -7.5q35 1 72.5 9t73.5 25z" />
    <glyph glyph-name="Gcommaaccent" unicode="&#x122;" horiz-adv-x="633" 
d="M87 505q7 53 35.5 93t70 66.5t90.5 40t99 13.5q38 0 73.5 -7.5t65.5 -23t52 -39.5t33 -56l-57 -26q-8 24 -25.5 41.5t-41 29t-52 17t-58.5 5.5q-38 0 -76.5 -10t-70 -29.5t-53 -48.5t-26.5 -68l-41 -296q-6 -39 7.5 -69t40 -49.5t62 -29.5t74.5 -10t77.5 10t70.5 29.5
t54 49.5t27 69l12 89h-217l8 59h276l-20 -147q-8 -54 -36 -95t-69.5 -68.5t-91 -41t-99.5 -13.5t-95.5 13.5t-79 41t-51 68.5t-9.5 95zM230 -244h-49l60 166h60z" />
    <glyph glyph-name="gcommaaccent" unicode="&#x123;" horiz-adv-x="509" 
d="M321 679h49l-42 -115h-60zM55 -117q16 -25 49 -38t71 -13q28 0 54.5 7t48.5 20.5t37 34.5t20 50l12 77q-35 -17 -71 -24t-72 -7q-37 0 -70.5 10.5t-58 31.5t-37 52.5t-6.5 72.5l28 205q6 41 27 72t50.5 52t65.5 31.5t72 10.5q35 0 88 -10t104 -33l-77 -540
q-6 -42 -26.5 -73t-50 -51t-66 -29.5t-74.5 -9.5q-50 0 -93 17t-68 49zM407 448q-22 10 -59 18t-79 8q-26 0 -51.5 -7t-46.5 -21t-36 -34.5t-18 -48.5l-29 -205q-5 -27 2.5 -48.5t24 -36.5t40.5 -22.5t53 -7.5q35 1 72.5 9t73.5 25z" />
    <glyph glyph-name="Hbar" unicode="&#x126;" horiz-adv-x="698" 
d="M644 524l-73 -524h-59l45 324h-413l-45 -324h-59l73 524h-65l7 47h65l19 137h59l-19 -137h413l19 137h59l-19 -137h70l-7 -47h-70zM172 524l-20 -141h413l20 141h-413z" />
    <glyph glyph-name="hbar" unicode="&#x127;" horiz-adv-x="525" 
d="M294 528q37 1 71 -10t58.5 -32t37 -52.5t6.5 -72.5l-49 -361h-56l49 361v1q4 28 -5.5 48.5t-27 34t-41.5 20.5t-50 7q-72 0 -145 -28l-60 -444h-56l83 594h-59l6 40h59l10 74h56l-11 -74h140l-6 -40h-140l-14 -97q71 31 144 31z" />
    <glyph glyph-name="Imacron" unicode="&#x12a;" horiz-adv-x="216" 
d="M83 849h204l-8 -51h-204zM95 0h-59l99 708h59z" />
    <glyph glyph-name="imacron" unicode="&#x12b;" horiz-adv-x="194" 
d="M45 659h204l-8 -53h-204zM155 518l-73 -518h-56l73 518h56z" />
    <glyph glyph-name="Iogonek" unicode="&#x12e;" horiz-adv-x="216" 
d="M8 -149q0 -17 8.5 -27.5t22 -13.5t31 3t35.5 21l12 -45q-17 -14 -39 -23.5t-50 -9.5q-38 0 -57.5 24.5t-15.5 62.5q2 16 10.5 36.5t21.5 41.5t30 41.5t35 37.5h-16l99 708h59l-99 -708q-45 -45 -66 -85.5t-21 -63.5z" />
    <glyph glyph-name="iogonek" unicode="&#x12f;" horiz-adv-x="194" 
d="M149 690q19 0 30.5 -13t8.5 -32q-2 -19 -17 -32t-34 -13t-30 13t-9 32q3 19 17.5 32t33.5 13zM82 0q-45 -45 -66 -85.5t-21 -63.5q0 -17 8.5 -27.5t22 -13.5t31 3t35.5 21l12 -45q-17 -14 -39 -23.5t-50 -9.5q-38 0 -57.5 24.5t-15.5 62.5q2 16 10.5 36.5t21.5 41.5
t30 41.5t35 37.5h-13l73 518h56z" />
    <glyph glyph-name="Idotaccent" unicode="&#x130;" horiz-adv-x="216" 
d="M135 812q3 19 17 31.5t33 12.5t29.5 -12.5t8.5 -31.5q-3 -19 -17 -31.5t-33 -12.5t-29.5 12.5t-8.5 31.5zM95 0h-59l99 708h59z" />
    <glyph glyph-name="dotlessi" unicode="&#x131;" horiz-adv-x="194" 
d="M155 518l-73 -518h-56l73 518h56z" />
    <glyph glyph-name="IJ" unicode="&#x132;" horiz-adv-x="806" 
d="M95 0h-59l99 708h59zM494 708h295l-71 -504q-8 -53 -34.5 -93t-64.5 -67t-84.5 -40.5t-94.5 -13.5q-42 0 -82.5 10.5t-72.5 32.5t-52 54.5t-22 76.5l55 10q2 -35 17.5 -59t40.5 -39.5t56 -22.5t64 -7q36 0 72 10t66 29.5t50.5 49.5t26.5 69l63 445h-236z" />
    <glyph glyph-name="ij" unicode="&#x133;" horiz-adv-x="388" 
d="M98 645q3 19 17.5 32t33.5 13t30.5 -13t8.5 -32q-2 -19 -17 -32t-34 -13t-30 13t-9 32zM155 518l-73 -518h-56l73 518h56zM294 645q3 19 17.5 32t33.5 13t30.5 -13t8.5 -32q-2 -19 -17 -32t-34 -13t-30 13t-9 32zM89 -136q53 0 86.5 30t41.5 84l76 540h56l-76 -540
q-11 -79 -63 -124.5t-128 -45.5z" />
    <glyph glyph-name="Kcommaaccent" unicode="&#x136;" horiz-adv-x="614" 
d="M139 319l451 389h76l-389 -341l288 -367h-76l-260 325l-101 -89l-33 -236h-59l99 708h59zM238 -244h-49l60 166h60z" />
    <glyph glyph-name="kcommaaccent" unicode="&#x137;" horiz-adv-x="483" 
d="M116 246l311 272h70l-265 -234l191 -284h-69l-166 244l-82 -72l-24 -172h-56l99 708h56zM158 -244h-49l60 166h60z" />
    <glyph glyph-name="Lacute" unicode="&#x139;" horiz-adv-x="503" 
d="M193 756h-58l84 113h80zM36 0l99 708h59l-91 -649h354l-8 -59h-413z" />
    <glyph glyph-name="lacute" unicode="&#x13a;" horiz-adv-x="228" 
d="M177 756h-58l84 113h80zM180 -10q-76 0 -111 43t-24 121l76 555h56l-76 -555q-7 -52 13.5 -80t73.5 -28z" />
    <glyph glyph-name="Lcommaaccent" unicode="&#x13b;" horiz-adv-x="503" 
d="M36 0l99 708h59l-91 -649h354l-8 -59h-413zM205 -244h-49l60 166h60z" />
    <glyph glyph-name="lcommaaccent" unicode="&#x13c;" horiz-adv-x="228" 
d="M180 -10q-76 0 -111 43t-24 121l76 555h56l-76 -555q-7 -52 13.5 -80t73.5 -28zM70 -244h-49l60 166h60z" />
    <glyph glyph-name="Lcaron" unicode="&#x13d;" horiz-adv-x="503" 
d="M36 0l99 708h59l-91 -649h354l-8 -59h-413zM474 705l-67 -157h-46l58 157h55z" />
    <glyph glyph-name="lcaron" unicode="&#x13e;" horiz-adv-x="239" 
d="M180 -10q-76 0 -111 43t-24 121l76 555h56l-76 -555q-7 -52 13.5 -80t73.5 -28zM249 552h-46l40 156h57z" />
    <glyph glyph-name="Ldot" unicode="&#x13f;" horiz-adv-x="506" 
d="M36 0l99 708h59l-91 -649h354l-8 -59h-413zM271 355q3 20 19 34t36 14t32 -14t9 -34t-19 -34t-36 -14t-32 14t-9 34z" />
    <glyph glyph-name="ldot" unicode="&#x140;" horiz-adv-x="247" 
d="M180 -10q-76 0 -111 43t-24 121l76 555h56l-76 -555q-7 -52 13.5 -80t73.5 -28zM180 328q2 17 16 29.5t32 12.5q17 0 27.5 -12.5t7.5 -29.5q-2 -18 -16 -30t-32 -12q-17 0 -27.5 12t-7.5 30z" />
    <glyph glyph-name="Lslash" unicode="&#x141;" horiz-adv-x="515" 
d="M461 0h-413l38 275l-75 -26l-14 39l96 33l54 387h59l-51 -365l133 46l14 -39l-154 -53l-33 -238h354z" />
    <glyph glyph-name="lslash" unicode="&#x142;" horiz-adv-x="244" 
d="M108 154q-7 -52 13.5 -80t73.5 -28l-8 -56q-76 0 -111 43t-24 121l17 127l-54 -24l-14 38l75 33l52 381h56l-49 -355l90 39l13 -39l-109 -47z" />
    <glyph glyph-name="Nacute" unicode="&#x143;" horiz-adv-x="688" 
d="M429 756h-58l84 113h80zM517 65l90 643h59l-99 -708h-88l-298 617l-86 -617h-59l99 708h72z" />
    <glyph glyph-name="nacute" unicode="&#x144;" 
d="M324 576h-58l84 113h80zM92 487q51 17 102 29t102 12q36 -1 69 -11.5t57 -31t36.5 -51.5t6.5 -73l-50 -361h-56l50 361q4 28 -5 49t-26.5 35t-41 20.5t-48.5 6.5q-42 0 -82 -10t-65 -20l-61 -442h-56z" />
    <glyph glyph-name="Ncommaaccent" unicode="&#x145;" horiz-adv-x="688" 
d="M517 65l90 643h59l-99 -708h-88l-298 617l-86 -617h-59l99 708h72zM239 -244h-49l60 166h60z" />
    <glyph glyph-name="ncommaaccent" unicode="&#x146;" 
d="M92 487q51 17 102 29t102 12q36 -1 69 -11.5t57 -31t36.5 -51.5t6.5 -73l-50 -361h-56l50 361q4 28 -5 49t-26.5 35t-41 20.5t-48.5 6.5q-42 0 -82 -10t-65 -20l-61 -442h-56zM182 -244h-49l60 166h60z" />
    <glyph glyph-name="Ncaron" unicode="&#x147;" horiz-adv-x="688" 
d="M290 869h66l68 -76l85 76h67l-124 -113h-70zM517 65l90 643h59l-99 -708h-88l-298 617l-86 -617h-59l99 708h72z" />
    <glyph glyph-name="ncaron" unicode="&#x148;" 
d="M175 689h66l68 -76l85 76h67l-124 -113h-70zM92 487q51 17 102 29t102 12q36 -1 69 -11.5t57 -31t36.5 -51.5t6.5 -73l-50 -361h-56l50 361q4 28 -5 49t-26.5 35t-41 20.5t-48.5 6.5q-42 0 -82 -10t-65 -20l-61 -442h-56z" />
    <glyph glyph-name="Eng" unicode="&#x14a;" horiz-adv-x="677" 
d="M553 -22q-5 -39 -20.5 -71.5t-40 -55.5t-57.5 -34.5t-73 -8.5l7 56q58 -5 89 27.5t39 86.5l3 22h-12l-305 621l-89 -621h-59l99 708h72l303 -618l87 618h59z" />
    <glyph glyph-name="eng" unicode="&#x14b;" horiz-adv-x="521" 
d="M294 528q36 -1 69 -11.5t57 -31t36.5 -51.5t6.5 -73l-54 -383q-11 -78 -63 -124t-128 -46l7 56q53 0 86.5 30t41.5 84l54 383q4 28 -5 49t-26.5 35t-41 20.5t-48.5 6.5q-42 0 -82 -10t-65 -20l-61 -442h-56l68 487q51 17 102 29t102 12z" />
    <glyph glyph-name="Omacron" unicode="&#x14c;" horiz-adv-x="675" 
d="M301 848h230l-8 -49h-230zM85 500q7 54 37 95t73.5 68.5t95.5 41t105 13.5t101.5 -13.5t84 -41t53.5 -68.5t11 -95l-41 -292q-8 -54 -37.5 -95t-73 -68.5t-96 -41t-104.5 -13.5q-53 0 -101 13.5t-84 41t-54.5 68.5t-10.5 95zM103 208q-6 -40 9 -69.5t43.5 -49.5t66.5 -30
t80 -10q41 0 82.5 10t75.5 30t57 49.5t29 69.5l41 292q6 42 -9 72t-44 49.5t-67.5 28.5t-80.5 9q-41 0 -82 -9.5t-74.5 -29t-56.5 -49.5t-29 -71z" />
    <glyph glyph-name="omacron" unicode="&#x14d;" horiz-adv-x="497" 
d="M185 668h230l-8 -49h-230zM60 359q6 42 27 74t52 53t67.5 31.5t73.5 10.5t70.5 -10.5t58.5 -31.5t37.5 -53t6.5 -74l-29 -201q-6 -42 -27.5 -73.5t-52 -52.5t-67 -31.5t-73.5 -10.5t-71 10.5t-58.5 31.5t-37 52.5t-6.5 73.5zM272 472q-26 0 -52 -6.5t-47.5 -20t-37 -34.5
t-19.5 -51l-29 -198q-4 -30 5.5 -51t27.5 -35t42 -20.5t50 -6.5q25 0 51 6.5t48 20.5t37.5 35t19.5 51l29 198q4 30 -5.5 51t-27.5 34.5t-42.5 20t-49.5 6.5z" />
    <glyph glyph-name="Ohungarumlaut" unicode="&#x150;" horiz-adv-x="675" 
d="M351 756h-50l56 113h80zM497 756h-50l56 113h80zM85 500q7 54 37 95t73.5 68.5t95.5 41t105 13.5t101.5 -13.5t84 -41t53.5 -68.5t11 -95l-41 -292q-8 -54 -37.5 -95t-73 -68.5t-96 -41t-104.5 -13.5q-53 0 -101 13.5t-84 41t-54.5 68.5t-10.5 95zM103 208
q-6 -40 9 -69.5t43.5 -49.5t66.5 -30t80 -10q41 0 82.5 10t75.5 30t57 49.5t29 69.5l41 292q6 42 -9 72t-44 49.5t-67.5 28.5t-80.5 9q-41 0 -82 -9.5t-74.5 -29t-56.5 -49.5t-29 -71z" />
    <glyph glyph-name="ohungarumlaut" unicode="&#x151;" horiz-adv-x="497" 
d="M235 576h-50l56 113h80zM381 576h-50l56 113h80zM60 359q6 42 27 74t52 53t67.5 31.5t73.5 10.5t70.5 -10.5t58.5 -31.5t37.5 -53t6.5 -74l-29 -201q-6 -42 -27.5 -73.5t-52 -52.5t-67 -31.5t-73.5 -10.5t-71 10.5t-58.5 31.5t-37 52.5t-6.5 73.5zM272 472
q-26 0 -52 -6.5t-47.5 -20t-37 -34.5t-19.5 -51l-29 -198q-4 -30 5.5 -51t27.5 -35t42 -20.5t50 -6.5q25 0 51 6.5t48 20.5t37.5 35t19.5 51l29 198q4 30 -5.5 51t-27.5 34.5t-42.5 20t-49.5 6.5z" />
    <glyph glyph-name="OE" unicode="&#x152;" horiz-adv-x="922" 
d="M582 649l-38 -267h313l-8 -59h-313l-37 -264h344l-9 -60h-403l3 17q-35 -17 -73 -22t-75 -4q-52 1 -99 15t-81.5 41t-52.5 67.5t-10 93.5l42 294q8 54 37.5 94.5t72 68t94.5 41t104 13.5q36 0 72 -6.5t63 -26.5l3 23h403l-8 -59h-344zM520 631q-27 15 -62 22t-72 6
q-41 0 -82 -9t-74.5 -28.5t-56.5 -49.5t-29 -71l-42 -294q-6 -40 9 -69.5t43 -49t66.5 -29.5t79.5 -10q37 0 73.5 6.5t68.5 22.5z" />
    <glyph glyph-name="oe" unicode="&#x153;" horiz-adv-x="821" 
d="M61 363q6 42 27 73.5t52 52.5t67.5 32t73.5 11q25 0 50 -6t46.5 -17t37.5 -27t24 -36q26 33 64 52.5t79 25.5t81 -1.5t70.5 -28.5t46.5 -55t10 -81q-6 -44 -26.5 -75.5t-50 -52t-66 -30.5t-74 -11t-74 6.5t-66.5 22.5l-8 -60l-1 -5q-3 -28 7 -48t28 -33t42 -19t49 -6
q42 0 81.5 17t60.5 52l46 -25q-15 -25 -37 -44t-48 -31.5t-54.5 -18.5t-56.5 -6q-25 0 -49 5t-45 15.5t-37.5 27t-25.5 39.5q-15 -26 -35.5 -42.5t-44.5 -27t-49.5 -15t-50.5 -4.5q-37 0 -71 10.5t-58.5 31.5t-37 53t-6.5 74zM440 270q22 -9 50.5 -16.5t59.5 -10t61.5 1
t56 16.5t43 36.5t23.5 60.5q6 40 -11 67t-46.5 40.5t-66 13t-70 -14t-58 -41t-30.5 -68.5zM273 475q-26 0 -52 -6.5t-47.5 -20t-37 -34.5t-19.5 -51l-29 -205q-4 -30 5.5 -51t27.5 -35t42 -20.5t50 -6.5q25 0 51 6.5t48 20.5t37.5 35t19.5 51l29 205q4 30 -5.5 51
t-27.5 34.5t-42.5 20t-49.5 6.5z" />
    <glyph glyph-name="Racute" unicode="&#x154;" horiz-adv-x="614" 
d="M382 756h-58l84 113h80zM272 300h-135l-42 -300h-59l99 708h267q50 0 91 -11.5t69.5 -36.5t41.5 -64t6 -94q-8 -55 -32.5 -93.5t-60 -62.5t-79.5 -35t-92 -11h-2l195 -300h-71zM353 354q41 0 74.5 7.5t59 24.5t42 45.5t22.5 70.5t-3 70t-30 45t-52.5 24.5t-70.5 7.5h-209
l-42 -295h209z" />
    <glyph glyph-name="racute" unicode="&#x155;" horiz-adv-x="303" 
d="M253 576h-58l84 113h80zM282 528q9 0 18.5 -0.5t19.5 -1.5l-8 -56q-17 3 -33 3q-21 0 -45.5 -5.5t-46.5 -19t-38.5 -35t-20.5 -52.5l-49 -361h-56l49 361q6 45 28.5 76.5t53 51.5t64.5 29.5t64 9.5z" />
    <glyph glyph-name="Rcommaaccent" unicode="&#x156;" horiz-adv-x="614" 
d="M272 300h-135l-42 -300h-59l99 708h267q50 0 91 -11.5t69.5 -36.5t41.5 -64t6 -94q-8 -55 -32.5 -93.5t-60 -62.5t-79.5 -35t-92 -11h-2l195 -300h-71zM353 354q41 0 74.5 7.5t59 24.5t42 45.5t22.5 70.5t-3 70t-30 45t-52.5 24.5t-70.5 7.5h-209l-42 -295h209zM225 -244
h-49l60 166h60z" />
    <glyph glyph-name="rcommaaccent" unicode="&#x157;" horiz-adv-x="303" 
d="M282 528q9 0 18.5 -0.5t19.5 -1.5l-8 -56q-17 3 -33 3q-21 0 -45.5 -5.5t-46.5 -19t-38.5 -35t-20.5 -52.5l-49 -361h-56l49 361q6 45 28.5 76.5t53 51.5t64.5 29.5t64 9.5zM13 -244h-49l60 166h60z" />
    <glyph glyph-name="Rcaron" unicode="&#x158;" horiz-adv-x="614" 
d="M233 869h66l68 -76l85 76h67l-124 -113h-70zM272 300h-135l-42 -300h-59l99 708h267q50 0 91 -11.5t69.5 -36.5t41.5 -64t6 -94q-8 -55 -32.5 -93.5t-60 -62.5t-79.5 -35t-92 -11h-2l195 -300h-71zM353 354q41 0 74.5 7.5t59 24.5t42 45.5t22.5 70.5t-3 70t-30 45
t-52.5 24.5t-70.5 7.5h-209l-42 -295h209z" />
    <glyph glyph-name="rcaron" unicode="&#x159;" horiz-adv-x="303" 
d="M104 689h66l68 -76l85 76h67l-124 -113h-70zM282 528q9 0 18.5 -0.5t19.5 -1.5l-8 -56q-17 3 -33 3q-21 0 -45.5 -5.5t-46.5 -19t-38.5 -35t-20.5 -52.5l-49 -361h-56l49 361q6 45 28.5 76.5t53 51.5t64.5 29.5t64 9.5z" />
    <glyph glyph-name="Sacute" unicode="&#x15a;" horiz-adv-x="587" 
d="M379 756h-58l84 113h80zM138 536q-8 -38 3.5 -61.5t36 -38.5t59 -24t72.5 -16q45 -9 88.5 -22.5t76 -38.5t48 -64.5t3.5 -100.5q-9 -47 -36.5 -81t-65.5 -56t-84 -32.5t-92 -10.5q-40 0 -78 8.5t-70 26t-55 43t-33 59.5l56 24h1q7 -26 25.5 -45t44 -31.5t56.5 -19
t63 -6.5q35 0 69.5 7.5t63.5 23.5t49.5 40.5t28.5 57.5q10 44 -2 72t-38 45.5t-63 27.5t-77 19q-42 9 -84 20t-72.5 32t-46 55t-5.5 89q8 45 34.5 78.5t63.5 56t82 34t91 11.5q39 0 76.5 -8.5t68.5 -25t53.5 -41.5t32.5 -58l-56 -24q-8 25 -26 43.5t-42.5 30.5t-54.5 18
t-61 6q-34 0 -67.5 -7.5t-61.5 -23t-48 -38.5t-27 -54z" />
    <glyph glyph-name="sacute" unicode="&#x15b;" horiz-adv-x="440" 
d="M283 576h-58l84 113h80zM51 124q24 -40 62.5 -57.5t83.5 -17.5q21 0 42.5 4.5t39.5 15t31 27.5t16 42q4 26 -5 43t-24.5 28t-36 16.5t-39.5 9.5q-31 6 -62 14.5t-54.5 24.5t-36.5 41.5t-7 65.5q6 39 26.5 67t50 46t63 26t64.5 8q40 0 77 -13t61 -39l-42 -42
q-19 23 -45.5 30.5t-57.5 7.5q-20 0 -43 -4t-44 -14.5t-36 -28t-19 -44.5q-3 -26 8.5 -42.5t30 -26.5t41.5 -15t42 -9q30 -6 58 -16t48.5 -27t31.5 -43t6 -64q-5 -37 -23.5 -65t-45 -46.5t-58.5 -27.5t-65 -9q-62 0 -110.5 26.5t-74.5 80.5z" />
    <glyph glyph-name="Scedilla" unicode="&#x15e;" horiz-adv-x="587" 
d="M309 396q45 -9 88.5 -22.5t76 -38.5t48 -64.5t3.5 -100.5q-9 -45 -34 -78t-60.5 -55t-78 -33.5t-86.5 -13.5l-26 -59q17 0 32.5 -5.5t26 -16t15.5 -27t2 -37.5q-4 -24 -16.5 -41t-30 -27.5t-37.5 -15.5t-39 -5q-46 0 -86 20l18 37q17 -9 33 -13t37 -4q25 0 47 13t27 40
q3 18 -3.5 28.5t-17.5 15t-24 3.5t-24 -6l-12 13l41 87q-38 2 -73 11.5t-64.5 26.5t-50.5 42t-30 57l56 24h1q7 -26 25.5 -45t44 -31.5t56.5 -19t63 -6.5q35 0 69.5 7.5t63.5 23.5t49.5 40.5t28.5 57.5q10 44 -2 72t-38 45.5t-63 27.5t-77 19q-42 9 -84 20t-72.5 32t-46 55
t-5.5 89q8 45 34.5 78.5t63.5 56t82 34t91 11.5q39 0 76.5 -8.5t68.5 -25t53.5 -41.5t32.5 -58l-56 -24q-8 25 -26 43.5t-42.5 30.5t-54.5 18t-61 6q-34 0 -67.5 -7.5t-61.5 -23t-48 -38.5t-27 -54q-8 -38 3.5 -61.5t36 -38.5t59 -24t72.5 -16z" />
    <glyph glyph-name="scedilla" unicode="&#x15f;" horiz-adv-x="440" 
d="M238 288q30 -6 58 -16t48.5 -27t31.5 -43t6 -64q-5 -35 -21 -61t-40 -44.5t-53 -29t-59 -12.5l-26 -60q17 0 32.5 -5.5t26 -16t15.5 -27t2 -37.5q-4 -24 -16.5 -41t-30 -27.5t-37.5 -15.5t-39 -5q-46 0 -86 20l18 37q17 -9 33 -13t37 -4q25 0 47 13t27 40q3 18 -3.5 28.5
t-17.5 15t-24 3.5t-24 -6l-12 13l41 88q-56 4 -99.5 29.5t-67.5 76.5l46 27q24 -40 62.5 -57.5t83.5 -17.5q21 0 42.5 4.5t39.5 15t31 27.5t16 42q4 26 -5 43t-24.5 28t-36 16.5t-39.5 9.5q-31 6 -62 14.5t-54.5 24.5t-36.5 41.5t-7 65.5q6 39 26.5 67t50 46t63 26t64.5 8
q40 0 77 -13t61 -39l-42 -42q-19 23 -45.5 30.5t-57.5 7.5q-20 0 -43 -4t-44 -14.5t-36 -28t-19 -44.5q-3 -26 8.5 -42.5t30 -26.5t41.5 -15t42 -9z" />
    <glyph glyph-name="Scaron" unicode="&#x160;" horiz-adv-x="587" 
d="M230 869h66l68 -76l85 76h67l-124 -113h-70zM138 536q-8 -38 3.5 -61.5t36 -38.5t59 -24t72.5 -16q45 -9 88.5 -22.5t76 -38.5t48 -64.5t3.5 -100.5q-9 -47 -36.5 -81t-65.5 -56t-84 -32.5t-92 -10.5q-40 0 -78 8.5t-70 26t-55 43t-33 59.5l56 24h1q7 -26 25.5 -45
t44 -31.5t56.5 -19t63 -6.5q35 0 69.5 7.5t63.5 23.5t49.5 40.5t28.5 57.5q10 44 -2 72t-38 45.5t-63 27.5t-77 19q-42 9 -84 20t-72.5 32t-46 55t-5.5 89q8 45 34.5 78.5t63.5 56t82 34t91 11.5q39 0 76.5 -8.5t68.5 -25t53.5 -41.5t32.5 -58l-56 -24q-8 25 -26 43.5
t-42.5 30.5t-54.5 18t-61 6q-34 0 -67.5 -7.5t-61.5 -23t-48 -38.5t-27 -54z" />
    <glyph glyph-name="scaron" unicode="&#x161;" horiz-adv-x="440" 
d="M132 684h66l68 -76l85 76h67l-124 -113h-70zM51 124q24 -40 62.5 -57.5t83.5 -17.5q21 0 42.5 4.5t39.5 15t31 27.5t16 42q4 26 -5 43t-24.5 28t-36 16.5t-39.5 9.5q-31 6 -62 14.5t-54.5 24.5t-36.5 41.5t-7 65.5q6 39 26.5 67t50 46t63 26t64.5 8q40 0 77 -13t61 -39
l-42 -42q-19 23 -45.5 30.5t-57.5 7.5q-20 0 -43 -4t-44 -14.5t-36 -28t-19 -44.5q-3 -26 8.5 -42.5t30 -26.5t41.5 -15t42 -9q30 -6 58 -16t48.5 -27t31.5 -43t6 -64q-5 -37 -23.5 -65t-45 -46.5t-58.5 -27.5t-65 -9q-62 0 -110.5 26.5t-74.5 80.5z" />
    <glyph glyph-name="Tcommaaccent" unicode="&#x162;" horiz-adv-x="557" 
d="M62 0zM593 649h-236l-91 -649h-59l91 649h-236l8 59h531zM190 -244h-49l60 166h60z" />
    <glyph glyph-name="tcommaaccent" unicode="&#x163;" horiz-adv-x="261" 
d="M13 0zM62 -244h-49l60 166h60zM205 -8q-7 -1 -14 -1.5t-14 -0.5q-33 0 -60 11.5t-45 32.5t-25.5 51.5t-2.5 69.5l69 482h48l-10 -119h112l-7 -45h-112l-45 -318q-7 -48 15 -81t73 -34q6 0 12 0.5t13 1.5z" />
    <glyph glyph-name="Tcaron" unicode="&#x164;" horiz-adv-x="557" 
d="M215 869h66l68 -76l85 76h67l-124 -113h-70zM593 649h-236l-91 -649h-59l91 649h-236l8 59h531z" />
    <glyph glyph-name="tcaron" unicode="&#x165;" horiz-adv-x="261" 
d="M266 575h-49l46 133h60zM206 -8q-7 -1 -14 -1.5t-14 -0.5q-33 0 -60 11.5t-45 32.5t-25.5 51.5t-2.5 69.5l69 482h48l-10 -119h112l-7 -45h-112l-45 -318q-7 -48 15 -81t73 -34q6 0 12 0.5t13 1.5z" />
    <glyph glyph-name="Tbar" unicode="&#x166;" horiz-adv-x="559" 
d="M325 418h105l-8 -46h-104l-52 -372h-59l52 372h-103l8 46h102l32 231h-236l8 59h531l-8 -59h-236z" />
    <glyph glyph-name="tbar" unicode="&#x167;" horiz-adv-x="267" 
d="M211 -8q-7 -1 -14 -1.5t-14 -0.5q-33 0 -60 11.5t-45 32.5t-25.5 51.5t-2.5 69.5l19 132h-61l7 45h60l44 305h48l-10 -119h112l-7 -45h-112l-20 -141h99l-6 -45h-100l-18 -132q-7 -48 15 -81t73 -34q6 0 12 0.5t13 1.5z" />
    <glyph glyph-name="Umacron" unicode="&#x16a;" horiz-adv-x="677" 
d="M300 848h230l-8 -49h-230zM119 211q-6 -40 7.5 -70.5t39.5 -50.5t61.5 -30.5t74.5 -10.5t77.5 10.5t70.5 30.5t54 50.5t28 70.5l69 497h59l-69 -497q-8 -55 -36.5 -96.5t-69.5 -69t-91 -41.5t-100 -14t-95.5 14t-79 41.5t-50.5 69t-9 96.5l69 497h59z" />
    <glyph glyph-name="umacron" unicode="&#x16b;" 
d="M196 658h230l-8 -49h-230zM359 14q-35 -10 -73 -17t-73 -7q-36 0 -69 11t-57 32t-36 52t-6 73l50 360h56l-51 -362q-4 -27 5 -47.5t26 -34.5t40.5 -21t49.5 -7q42 0 82 10.5t65 20.5l62 441h56l-68 -487z" />
    <glyph glyph-name="Uring" unicode="&#x16e;" horiz-adv-x="677" 
d="M313 788q3 19 12.5 36.5t24 30.5t32.5 20.5t38 7.5q19 0 35 -8t26.5 -21.5t15.5 -30.5t2 -36q-3 -18 -12.5 -35t-24 -30t-32.5 -21t-37 -8q-20 0 -35.5 7.5t-26.5 20.5t-16 30.5t-2 36.5zM455 788q3 21 -9 36t-33 15t-37 -15.5t-19 -36.5t9.5 -35.5t32.5 -14.5
q21 0 37 15t19 36zM119 211q-6 -40 7.5 -70.5t39.5 -50.5t61.5 -30.5t74.5 -10.5t77.5 10.5t70.5 30.5t54 50.5t28 70.5l69 497h59l-69 -497q-8 -55 -36.5 -96.5t-69.5 -69t-91 -41.5t-100 -14t-95.5 14t-79 41.5t-50.5 69t-9 96.5l69 497h59z" />
    <glyph glyph-name="uring" unicode="&#x16f;" horiz-adv-x="520" 
d="M208 613q3 19 12.5 36.5t24 30.5t32.5 20.5t38 7.5q19 0 35 -8t26.5 -21.5t15.5 -30.5t2 -36q-3 -18 -12.5 -35t-24 -30t-32.5 -21t-37 -8q-20 0 -35.5 7.5t-26.5 20.5t-16 30.5t-2 36.5zM350 613q3 21 -9 36t-33 15t-37 -15.5t-19 -36.5t9.5 -35.5t32.5 -14.5
q21 0 37 15t19 36zM358 14q-35 -10 -73 -17t-73 -7q-36 0 -69 11t-57 32t-36 52t-6 73l50 360h56l-51 -362q-4 -27 5 -47.5t26 -34.5t40.5 -21t49.5 -7q42 0 82 10.5t65 20.5l62 441h56l-68 -487z" />
    <glyph glyph-name="Uhungarumlaut" unicode="&#x170;" horiz-adv-x="677" 
d="M350 756h-50l56 113h80zM496 756h-50l56 113h80zM119 211q-6 -40 7.5 -70.5t39.5 -50.5t61.5 -30.5t74.5 -10.5t77.5 10.5t70.5 30.5t54 50.5t28 70.5l69 497h59l-69 -497q-8 -55 -36.5 -96.5t-69.5 -69t-91 -41.5t-100 -14t-95.5 14t-79 41.5t-50.5 69t-9 96.5l69 497
h59z" />
    <glyph glyph-name="uhungarumlaut" unicode="&#x171;" 
d="M246 566h-50l56 113h80zM392 566h-50l56 113h80zM359 14q-35 -10 -73 -17t-73 -7q-36 0 -69 11t-57 32t-36 52t-6 73l50 360h56l-51 -362q-4 -27 5 -47.5t26 -34.5t40.5 -21t49.5 -7q42 0 82 10.5t65 20.5l62 441h56l-68 -487z" />
    <glyph glyph-name="Uogonek" unicode="&#x172;" horiz-adv-x="677" 
d="M403 7q-54 -17 -109 -17q-50 0 -95.5 14t-79 41.5t-50.5 69t-9 96.5l69 497h59l-69 -497q-6 -40 7.5 -70.5t39.5 -50.5t61.5 -30.5t74.5 -10.5t77.5 10.5t70.5 30.5t54 50.5t28 70.5l69 497h59l-69 -497q-4 -28 -9.5 -48t-20 -42t-41 -50t-71.5 -73t-67 -84.5t-22 -62.5
q0 -17 8.5 -27.5t22 -13.5t31 3t35.5 21l12 -45q-17 -14 -39 -23.5t-50 -9.5q-38 0 -57.5 24.5t-15.5 62.5q2 17 10.5 37.5t22 41.5t31 42t36.5 38z" />
    <glyph glyph-name="uogonek" unicode="&#x173;" horiz-adv-x="524" 
d="M347 11q-33 -9 -67.5 -15t-66.5 -6q-36 0 -69 11t-57 32t-36 52t-6 73l50 360h56l-51 -362q-4 -27 5 -47.5t26 -34.5t40.5 -21t49.5 -7q42 0 82 10.5t65 20.5l62 441h56l-68 -487l-31 -31q-45 -45 -66 -85.5t-21 -63.5q0 -17 8.5 -27.5t22 -13.5t31 3t35.5 21l12 -45
q-17 -14 -39 -23.5t-50 -9.5q-38 0 -57.5 24.5t-15.5 62.5q2 17 11 38t23 43t31.5 43t37.5 38l1 1z" />
    <glyph glyph-name="Wcircumflex" unicode="&#x174;" horiz-adv-x="939" 
d="M672 756h-63l-63 78l-82 -78h-64l119 113h66zM920 708h62l-304 -708h-86l-92 522l-239 -522h-86l-106 708h62l93 -664l260 571h57l100 -571z" />
    <glyph glyph-name="wcircumflex" unicode="&#x175;" horiz-adv-x="722" 
d="M537 566h-63l-63 78l-82 -78h-64l119 113h66zM131 0l-84 518h59l73 -460l176 460h71l48 -460l201 460h59l-228 -518h-80l-45 443l-170 -443h-80z" />
    <glyph glyph-name="Ycircumflex" unicode="&#x176;" horiz-adv-x="556" 
d="M481 756h-63l-63 78l-82 -78h-64l119 113h66zM265 0h-59l38 277l-185 431h69l155 -372l258 372h70l-308 -431z" />
    <glyph glyph-name="ycircumflex" unicode="&#x177;" horiz-adv-x="536" 
d="M442 566h-63l-63 78l-82 -78h-64l119 113h66zM68 -113q20 -26 53 -38t72 -13q28 0 56.5 6.5t51.5 21t39.5 37t20.5 52.5l10 73q-36 -21 -73.5 -28t-75.5 -7t-72.5 11.5t-59.5 33t-38 54t-7 74.5l49 354h58l-50 -356q-4 -29 5 -50.5t27 -36t42.5 -22t51.5 -7.5
q37 0 74.5 8t76.5 26l61 438h57l-79 -565q-6 -44 -27.5 -76t-52 -53t-67.5 -31.5t-75 -10.5q-51 0 -97.5 17.5t-73.5 52.5z" />
    <glyph glyph-name="Ydieresis" unicode="&#x178;" horiz-adv-x="556" 
d="M219 812q2 17 16 29t31 12t27 -12t8 -29t-16 -29t-31 -12t-27 12t-8 29zM399 812q2 17 16 29t31 12t27 -12t8 -29t-16 -29t-31 -12t-27 12t-8 29zM265 0h-59l38 277l-185 431h69l155 -372l258 372h70l-308 -431z" />
    <glyph glyph-name="Zacute" unicode="&#x179;" horiz-adv-x="572" 
d="M371 756h-58l84 113h80zM96 708h486l15 -45l-526 -604h431l-8 -59h-497l-12 45l526 604h-423z" />
    <glyph glyph-name="zacute" unicode="&#x17a;" horiz-adv-x="463" 
d="M286 566h-58l84 113h80zM74 518h351l28 -41l-379 -418h318l-8 -59h-366l-30 40l386 424h-308z" />
    <glyph glyph-name="Zdotaccent" unicode="&#x17b;" horiz-adv-x="572" 
d="M313 812q3 19 17 31.5t33 12.5t29.5 -12.5t8.5 -31.5q-3 -19 -17 -31.5t-33 -12.5t-29.5 12.5t-8.5 31.5zM96 708h486l15 -45l-526 -604h431l-8 -59h-497l-12 45l526 604h-423z" />
    <glyph glyph-name="zdotaccent" unicode="&#x17c;" horiz-adv-x="463" 
d="M228 622q3 19 17 31.5t33 12.5t29.5 -12.5t8.5 -31.5q-3 -19 -17 -31.5t-33 -12.5t-29.5 12.5t-8.5 31.5zM74 518h351l28 -41l-379 -418h318l-8 -59h-366l-30 40l386 424h-308z" />
    <glyph glyph-name="Zcaron" unicode="&#x17d;" horiz-adv-x="572" 
d="M222 869h66l68 -76l85 76h67l-124 -113h-70zM96 708h486l15 -45l-526 -604h431l-8 -59h-497l-12 45l526 604h-423z" />
    <glyph glyph-name="zcaron" unicode="&#x17e;" horiz-adv-x="463" 
d="M137 679h66l68 -76l85 76h67l-124 -113h-70zM74 518h351l28 -41l-379 -418h318l-8 -59h-366l-30 40l386 424h-308z" />
    <glyph glyph-name="florin" unicode="&#x192;" horiz-adv-x="475" 
d="M134 -20q-20 -58 -58 -91t-103 -33q-21 0 -40.5 5t-33.5 19l35 47q11 -9 24 -13t27 -4q40 0 62.5 28.5t39.5 82.5l113 345h-108l7 53h117l51 154q9 26 22.5 52.5t33 47.5t46.5 34t62 13q49 0 85 -30l-38 -45q-11 9 -25 15t-30 6q-38 0 -61 -26.5t-35 -63.5l-51 -157h108
l-7 -53h-117z" />
    <glyph glyph-name="Scommaaccent" unicode="&#x218;" horiz-adv-x="587" 
d="M138 536q-8 -38 3.5 -61.5t36 -38.5t59 -24t72.5 -16q45 -9 88.5 -22.5t76 -38.5t48 -64.5t3.5 -100.5q-9 -47 -36.5 -81t-65.5 -56t-84 -32.5t-92 -10.5q-40 0 -78 8.5t-70 26t-55 43t-33 59.5l56 24h1q7 -26 25.5 -45t44 -31.5t56.5 -19t63 -6.5q35 0 69.5 7.5
t63.5 23.5t49.5 40.5t28.5 57.5q10 44 -2 72t-38 45.5t-63 27.5t-77 19q-42 9 -84 20t-72.5 32t-46 55t-5.5 89q8 45 34.5 78.5t63.5 56t82 34t91 11.5q39 0 76.5 -8.5t68.5 -25t53.5 -41.5t32.5 -58l-56 -24q-8 25 -26 43.5t-42.5 30.5t-54.5 18t-61 6q-34 0 -67.5 -7.5
t-61.5 -23t-48 -38.5t-27 -54zM209 -244h-49l60 166h60z" />
    <glyph glyph-name="scommaaccent" unicode="&#x219;" horiz-adv-x="440" 
d="M51 124q24 -40 62.5 -57.5t83.5 -17.5q21 0 42.5 4.5t39.5 15t31 27.5t16 42q4 26 -5 43t-24.5 28t-36 16.5t-39.5 9.5q-31 6 -62 14.5t-54.5 24.5t-36.5 41.5t-7 65.5q6 39 26.5 67t50 46t63 26t64.5 8q40 0 77 -13t61 -39l-42 -42q-19 23 -45.5 30.5t-57.5 7.5
q-20 0 -43 -4t-44 -14.5t-36 -28t-19 -44.5q-3 -26 8.5 -42.5t30 -26.5t41.5 -15t42 -9q30 -6 58 -16t48.5 -27t31.5 -43t6 -64q-5 -37 -23.5 -65t-45 -46.5t-58.5 -27.5t-65 -9q-62 0 -110.5 26.5t-74.5 80.5zM152 -244h-49l60 166h60z" />
    <glyph glyph-name="uni021A" unicode="&#x21a;" horiz-adv-x="557" 
d="M593 649h-236l-91 -649h-59l91 649h-236l8 59h531zM190 -244h-49l60 166h60z" />
    <glyph glyph-name="uni021B" unicode="&#x21b;" horiz-adv-x="261" 
d="M62 -244h-49l60 166h60zM205 -8q-7 -1 -14 -1.5t-14 -0.5q-33 0 -60 11.5t-45 32.5t-25.5 51.5t-2.5 69.5l69 482h48l-10 -119h112l-7 -45h-112l-45 -318q-7 -48 15 -81t73 -34q6 0 12 0.5t13 1.5z" />
    <glyph glyph-name="circumflex" unicode="&#x2c6;" horiz-adv-x="262" 
d="M272 756h-63l-63 78l-82 -78h-64l119 113h66z" />
    <glyph glyph-name="caron" unicode="&#x2c7;" horiz-adv-x="257" 
d="M81 869h66l68 -76l85 76h67l-124 -113h-70z" />
    <glyph glyph-name="uni02C9" unicode="&#x2c9;" horiz-adv-x="240" 
d="M83 683h264l-7 -53h-264z" />
    <glyph glyph-name="breve" unicode="&#x2d8;" horiz-adv-x="240" 
d="M329 869q-11 -53 -45.5 -84t-94.5 -31q-55 0 -84 31t-18 84h47q-6 -31 10.5 -50t49.5 -19t57.5 19t30.5 50h47z" />
    <glyph glyph-name="dotaccent" unicode="&#x2d9;" horiz-adv-x="240" 
d="M170 812q3 19 17 31.5t33 12.5t29.5 -12.5t8.5 -31.5q-3 -19 -17 -31.5t-33 -12.5t-29.5 12.5t-8.5 31.5z" />
    <glyph glyph-name="ring" unicode="&#x2da;" horiz-adv-x="240" 
d="M46 788q3 19 12.5 36.5t24 30.5t32.5 20.5t38 7.5q19 0 35 -8t26.5 -21.5t15.5 -30.5t2 -36q-3 -18 -12.5 -35t-24 -30t-32.5 -21t-37 -8q-20 0 -35.5 7.5t-26.5 20.5t-16 30.5t-2 36.5zM188 788q3 21 -9 36t-33 15t-37 -15.5t-19 -36.5t9.5 -35.5t32.5 -14.5q21 0 37 15
t19 36z" />
    <glyph glyph-name="ogonek" unicode="&#x2db;" horiz-adv-x="240" 
d="M193 -211q-17 -14 -39 -23.5t-50 -9.5q-38 0 -57.5 24.5t-15.5 62.5q2 17 11 38t23 43t31.5 43t37.5 38l37 -5q-45 -45 -66 -85.5t-21 -63.5q0 -17 8.5 -27.5t22 -13.5t31 3t35.5 21z" />
    <glyph glyph-name="tilde" unicode="&#x2dc;" horiz-adv-x="271" 
d="M-16 794q13 35 38 55t58 20q16 0 28.5 -7.5t24 -16.5t22.5 -16.5t23 -7.5q29 0 45 37l36 -15q-16 -34 -39.5 -53.5t-51.5 -19.5q-17 0 -30 7.5t-24 16.5t-22.5 16.5t-25.5 7.5t-24.5 -10t-20.5 -28z" />
    <glyph glyph-name="hungarumlaut" unicode="&#x2dd;" horiz-adv-x="273" 
d="M174 756h-50l56 113h80zM320 756h-50l56 113h80z" />
    <glyph glyph-name="uni0326" unicode="&#x326;" horiz-adv-x="0" 
d="M121 -244h-49l60 166h60z" />
    <glyph glyph-name="uni03A9" unicode="&#x3a9;" horiz-adv-x="774" 
d="M175 57q-28 25 -51.5 58t-39 73.5t-21 88t2.5 101.5q11 77 46 139.5t87 106.5t117 68t135 24q73 0 129.5 -26.5t93.5 -71.5t52 -106t5 -130q-8 -57 -27.5 -106t-46.5 -90.5t-58.5 -74t-64.5 -54.5l-1 -3h165l-7 -54h-268l5 37q45 24 85.5 58.5t73 78.5t55 96.5
t30.5 111.5q7 50 -4 100.5t-40 90.5t-75.5 65t-110.5 25q-60 0 -113.5 -21.5t-96 -60t-70.5 -91t-37 -114.5q-8 -56 1 -105.5t30 -92t52.5 -78.5t69.5 -63l-5 -37h-272l7 54h166z" />
    <glyph glyph-name="uni03BC" unicode="&#x3bc;" horiz-adv-x="536" 
d="M368 0q2 26 4 45.5t2 26.5h-3q-24 -38 -68.5 -61t-101.5 -23q-41 0 -66.5 14.5t-42.5 42.5l-39 -273h-59l104 740h60l-45 -322q-4 -28 -3 -54.5t11 -47.5t30.5 -33.5t56.5 -12.5q33 0 64 11.5t56 35t42.5 59t24.5 83.5l39 281h60l-68 -512h-58z" />
    <glyph glyph-name="pi" unicode="&#x3c0;" horiz-adv-x="553" 
d="M457 -1q-33 1 -53 12t-30.5 29t-12 43t2.5 56l47 333h-208l-66 -472h-55l66 472q-46 0 -69.5 -4t-38.5 -9l-5 40q19 11 49.5 18t83.5 7h391l-13 -52h-77l-46 -327q-7 -50 1 -72.5t40 -20.5z" />
    <glyph glyph-name="uni0401" unicode="&#x401;" horiz-adv-x="567" 
d="M241 812q2 17 16 29t31 12t27 -12t8 -29t-16 -29t-31 -12t-27 12t-8 29zM421 812q2 17 16 29t31 12t27 -12t8 -29t-16 -29t-31 -12t-27 12t-8 29zM148 384h355l-8 -60h-355l-37 -265h385l-8 -59h-444l99 708h444l-8 -59h-385z" />
    <glyph glyph-name="uni0410" unicode="&#x410;" horiz-adv-x="606" 
d="M559 0h-62l-52 236h-304l-116 -236h-62l353 708h86zM170 295h262l-79 369z" />
    <glyph glyph-name="uni0411" unicode="&#x411;" horiz-adv-x="611" 
d="M360 409q112 0 165.5 -48.5t37.5 -160.5q-8 -56 -31.5 -94.5t-58 -62t-79 -33.5t-93.5 -10h-266l100 708h446l-8 -58h-387l-34 -241h208zM312 58q38 0 70.5 6.5t58 23t42 44t22.5 69.5q11 79 -27 116t-128 37h-206l-42 -296h210z" />
    <glyph glyph-name="uni0412" unicode="&#x412;" horiz-adv-x="625" 
d="M483 377q59 -22 76.5 -69t8.5 -111q-9 -55 -32.5 -92.5t-58.5 -61t-79 -33.5t-94 -10h-268l99 708h269q41 0 76.5 -11t60 -33t35.5 -56t5 -79q-7 -48 -29.5 -88t-68.5 -64zM361 405q31 0 58.5 6.5t49 21.5t36 38.5t19.5 57.5q4 34 -4 57t-25.5 37t-43 20t-55.5 6h-210
l-35 -244h210zM313 59q39 -1 72 5t59 22t42.5 43t22.5 69t-2.5 70.5t-29 46t-52 24.5t-72.5 7h-210l-40 -287h210z" />
    <glyph glyph-name="uni0413" unicode="&#x413;" horiz-adv-x="512" 
d="M35 0l100 708h420l-9 -58h-361l-92 -650h-58z" />
    <glyph glyph-name="uni0414" unicode="&#x414;" horiz-adv-x="679" 
d="M526 -139l19 139h-521l-19 -139h-59l28 197h22q39 5 67.5 29.5t51 72.5t42 122t40.5 178l51 248h388l-92 -650h68l-27 -197h-59zM250 410q-29 -143 -63.5 -228.5t-80.5 -123.5h379l83 592h-269z" />
    <glyph glyph-name="uni0415" unicode="&#x415;" horiz-adv-x="567" 
d="M148 384h355l-8 -60h-355l-37 -265h385l-8 -59h-444l99 708h444l-8 -59h-385z" />
    <glyph glyph-name="uni0416" unicode="&#x416;" horiz-adv-x="893" 
d="M552 333l-83 -78l-36 -255h-58l36 255l-61 78l-308 -333h-77l346 372l-250 336h78l283 -380l53 380h58l-53 -380l388 380h79l-344 -336l239 -372h-76z" />
    <glyph glyph-name="uni0417" unicode="&#x417;" horiz-adv-x="532" 
d="M316 718q93 0 138.5 -51t33.5 -139q-8 -51 -32 -88t-76 -62q31 -12 51 -30.5t31 -42.5t13.5 -51.5t-1.5 -56.5q-9 -56 -32.5 -95t-58.5 -64t-79 -36.5t-93 -11.5q-77 0 -134 28t-87 91l57 28q50 -89 175 -89q37 0 70 8t58.5 26t42.5 46.5t23 69.5t-2 69.5t-28 46.5
t-51 26.5t-71 8.5h-92l7 53h93q61 0 105 29.5t53 95.5q10 67 -26.5 100t-98.5 33q-54 0 -95.5 -16.5t-76.5 -53.5l-46 26q46 55 103 78.5t126 23.5z" />
    <glyph glyph-name="uni0418" unicode="&#x418;" horiz-adv-x="681" 
d="M588 613h-2l-49 -65l-426 -548h-76l100 708h58l-76 -543l-15 -85h3l484 628h70l-100 -708h-58l75 534z" />
    <glyph glyph-name="uni0419" unicode="&#x419;" horiz-adv-x="681" 
d="M590 921q-19 -67 -68.5 -104.5t-111.5 -37.5q-31 0 -56.5 9.5t-44.5 28t-29 45t-10 59.5h58q3 -40 24 -63.5t66 -23.5t72 23.5t42 63.5h58zM589 613h-3l-67 -89l-408 -524h-76l100 708h58l-76 -546l-14 -82h2l484 628h70l-100 -708h-58l72 514z" />
    <glyph glyph-name="uni041A" unicode="&#x41a;" horiz-adv-x="614" 
d="M139 319l451 389h76l-389 -341l288 -367h-76l-260 325l-101 -89l-33 -236h-59l99 708h59z" />
    <glyph glyph-name="uni041B" unicode="&#x41b;" horiz-adv-x="664" 
d="M301 650l-51 -250q-18 -84 -38.5 -157t-52 -127t-78.5 -85t-118 -31l8 58q51 0 85.5 26.5t59 75.5t42.5 117.5t35 152.5l58 278h391l-100 -708h-58l91 650h-274z" />
    <glyph glyph-name="uni041C" unicode="&#x41c;" horiz-adv-x="802" 
d="M182 626l-87 -626h-59l99 708h86l162 -535l311 535h86l-99 -708h-59l87 626l-309 -529h-56z" />
    <glyph glyph-name="uni041D" unicode="&#x41d;" horiz-adv-x="677" 
d="M135 708h58l-46 -326h404l46 326h58l-100 -708h-58l45 325h-403l-46 -325h-58z" />
    <glyph glyph-name="uni041E" unicode="&#x41e;" horiz-adv-x="664" 
d="M86 506q7 53 36.5 92.5t71.5 66t93 40t103 13.5q51 0 98.5 -13.5t82.5 -40t53 -66t11 -92.5l-43 -302q-7 -53 -36 -93t-71.5 -67t-94 -40.5t-102.5 -13.5q-52 0 -99.5 13.5t-82 40.5t-52.5 67t-11 93zM101 204q-5 -39 9.5 -68.5t42 -49t65 -29t78.5 -9.5q40 0 80.5 9.5
t73.5 29t56 49t28 68.5l43 301q6 41 -8.5 70.5t-43 48.5t-66.5 28t-78 9q-41 0 -81 -9.5t-73 -28.5t-55.5 -48.5t-28.5 -69.5z" />
    <glyph glyph-name="uni041F" unicode="&#x41f;" horiz-adv-x="669" 
d="M135 708h512l-100 -708h-58l91 650h-395l-92 -650h-58z" />
    <glyph glyph-name="uni0420" unicode="&#x420;" horiz-adv-x="611" 
d="M36 0l99 708h267q78 0 125.5 -33t67 -82t11 -106.5t-41 -106.5t-89 -82t-134.5 -33h-209l-37 -265h-59zM348 324q59 0 101.5 24t67 60t30 78.5t-9 78.5t-50 60t-93.5 24h-208l-46 -325h208z" />
    <glyph glyph-name="uni0421" unicode="&#x421;" horiz-adv-x="594" 
d="M85 503q7 53 36 93.5t70 67.5t90.5 40.5t99.5 13.5q37 0 72.5 -8t65.5 -23.5t52 -39.5t33 -56l-57 -26v-1q-8 24 -25.5 41.5t-41 29.5t-52 18t-58.5 6q-38 0 -76.5 -10t-70 -29.5t-53 -48.5t-26.5 -68l-41 -298q-5 -39 8.5 -68.5t39 -49t61 -29t73.5 -9.5q30 0 60 6
t57 18t49.5 29.5t37.5 41.5l50 -26q-20 -32 -49.5 -56t-64 -40t-73 -24t-76.5 -8q-49 0 -94.5 13.5t-78.5 40.5t-50 67t-9 94z" />
    <glyph glyph-name="uni0422" unicode="&#x422;" horiz-adv-x="557" 
d="M593 649h-236l-91 -649h-59l91 649h-236l8 59h531z" />
    <glyph glyph-name="uni0423" unicode="&#x423;" horiz-adv-x="506" 
d="M42 708h69l95 -284l43 -136h2l249 420h62l-419 -708h-63l132 221z" />
    <glyph glyph-name="uni0424" unicode="&#x424;" horiz-adv-x="717" 
d="M434 634q54 0 104 -8.5t87 -29.5t56.5 -56.5t11.5 -89.5l-27 -192q-8 -54 -37 -89.5t-72 -56.5t-95.5 -29t-106.5 -8l-11 -75h-59l12 75q-54 0 -104.5 8t-87.5 29t-57 56.5t-12 89.5l27 192q7 54 36.5 89.5t73 56.5t96 29.5t106.5 8.5l10 74h59zM368 580q-41 0 -83 -5
t-76.5 -19t-58 -39.5t-29.5 -66.5l-27 -192q-6 -41 11 -66t47.5 -39t70.5 -19t81 -5zM362 129q41 0 82.5 5t76 19t58.5 39t30 66l26 192q6 41 -10.5 66.5t-47 39.5t-71 19t-81.5 5z" />
    <glyph glyph-name="uni0425" unicode="&#x425;" horiz-adv-x="569" 
d="M519 0h-71l-163 307l-250 -307h-71l292 353l-191 355h69l164 -303l249 303h70l-291 -355z" />
    <glyph glyph-name="uni0426" unicode="&#x426;" horiz-adv-x="679" 
d="M526 -139l19 139h-511l100 708h58l-91 -650h384l92 650h59l-92 -650h68l-27 -197h-59z" />
    <glyph glyph-name="uni0427" unicode="&#x427;" horiz-adv-x="598" 
d="M462 313q-42 -35 -90 -58t-108 -23q-48 0 -88 13t-68 39.5t-40.5 67t-4.5 94.5l37 262h58l-36 -262q-6 -41 3.5 -70t30.5 -48.5t51 -28.5t65 -9q69 0 115.5 24t82.5 57l47 337h59l-100 -708h-59z" />
    <glyph glyph-name="uni0428" unicode="&#x428;" horiz-adv-x="876" 
d="M193 708l-91 -650h272l91 650h59l-92 -650h272l92 650h58l-100 -708h-719l100 708h58z" />
    <glyph glyph-name="uni0429" unicode="&#x429;" horiz-adv-x="897" 
d="M744 -139l19 139h-729l100 708h58l-91 -650h272l91 650h59l-92 -650h272l92 650h59l-92 -650h68l-28 -197h-58z" />
    <glyph glyph-name="uni042A" unicode="&#x42a;" horiz-adv-x="662" 
d="M416 425q111 0 164.5 -52t36.5 -170q-8 -56 -31.5 -94.5t-58.5 -62.5t-79 -35t-94 -11h-260l92 653h-127l7 55h186l-39 -283h203zM366 58q37 0 70 7t58 24.5t42 45.5t23 70q12 85 -26 125.5t-127 40.5h-201l-44 -313h205z" />
    <glyph glyph-name="uni042B" unicode="&#x42b;" horiz-adv-x="817" 
d="M356 425q112 0 165 -52t37 -170q-8 -56 -31.5 -94.5t-58.5 -62.5t-79.5 -35t-93.5 -11h-260l100 708h58l-40 -283h203zM795 708l-100 -708h-57l100 708h57zM306 58q38 0 70.5 7t58 24.5t42.5 45.5t23 70q12 85 -26 125.5t-128 40.5h-201l-43 -313h204z" />
    <glyph glyph-name="uni042C" unicode="&#x42c;" horiz-adv-x="603" 
d="M356 425q112 0 165 -52t37 -170q-8 -56 -31.5 -94.5t-58.5 -62.5t-79.5 -35t-93.5 -11h-260l100 708h58l-40 -283h203zM306 58q38 0 70.5 7t58 24.5t42.5 45.5t23 70q12 85 -26 125.5t-128 40.5h-201l-43 -313h204z" />
    <glyph glyph-name="uni042D" unicode="&#x42d;" horiz-adv-x="587" 
d="M325 718q50 0 95.5 -13.5t78 -40.5t49 -67t9.5 -92l-43 -302q-8 -53 -35.5 -92.5t-68 -65.5t-88.5 -39.5t-96 -13.5q-36 0 -71 8t-64.5 23.5t-52 39t-34.5 55.5l55 25q10 -23 27.5 -40.5t41 -29t50.5 -17.5t56 -6q37 0 74.5 9.5t68 28.5t52 47.5t27.5 67.5l16 122h-324
l8 58h325l17 122q6 39 -7.5 68t-39 48.5t-60 29t-71.5 9.5q-29 0 -58 -6t-55.5 -18t-49.5 -30t-39 -41l-48 28q21 31 50 54.5t62.5 39.5t70 23.5t72.5 7.5z" />
    <glyph glyph-name="uni042E" unicode="&#x42e;" horiz-adv-x="912" 
d="M637 718q51 0 99 -13t83 -39.5t53 -66t10 -93.5l-42 -302q-8 -54 -37 -94t-71.5 -66.5t-94 -40t-102.5 -13.5t-98.5 13.5t-82.5 40t-53 66.5t-10 94l18 126h-171l-47 -330h-58l100 708h58l-45 -322h171l16 120q7 53 36.5 93t71.5 66.5t93.5 39.5t102.5 13zM629 661
q-41 0 -81 -9.5t-73 -28.5t-55.5 -48.5t-28.5 -69.5l-43 -301q-5 -39 9.5 -68.5t42 -49t65.5 -29t79 -9.5q40 0 80.5 9.5t73.5 29t55.5 49t28.5 68.5l42 301q6 41 -8.5 70.5t-42.5 48.5t-66 28t-78 9z" />
    <glyph glyph-name="uni042F" unicode="&#x42f;" horiz-adv-x="615" 
d="M346 298l-296 -298h-77l294 297q-45 0 -84.5 13t-67 38.5t-41 62.5t-6.5 86q16 101 86 156t182 55h257l-100 -708h-59l44 298h-132zM324 651q-86 1 -136 -40.5t-61 -113.5q-6 -39 5.5 -67t34 -45t54 -25t67.5 -8h197l41 299h-202z" />
    <glyph glyph-name="uni0430" unicode="&#x430;" horiz-adv-x="517" 
d="M357 52q-28 -27 -72 -44.5t-90 -17.5q-35 0 -66.5 10t-55 31t-34.5 53t-5 76l27 197q7 48 29 81t54.5 53t71.5 28.5t80 8.5q51 0 98 -13t81 -30l-67 -485h-50zM412 445q-21 11 -52.5 19t-66.5 8q-30 0 -59.5 -5.5t-54 -19t-41 -35.5t-20.5 -54l-27 -194q-4 -30 4 -51.5
t24 -36t38.5 -21t47.5 -6.5q22 0 44.5 4t43.5 11.5t39.5 18t31.5 23.5z" />
    <glyph glyph-name="uni0431" unicode="&#x431;" horiz-adv-x="502" 
d="M469 678q-35 -21 -77 -31t-89 -15q-27 -3 -52 -8.5t-45.5 -16t-34.5 -29t-18 -46.5l-15 -102q29 22 67 38t85 16q37 0 69 -10t54 -30t32 -50.5t4 -71.5l-23 -169q-6 -41 -26.5 -71.5t-50.5 -51t-65.5 -30.5t-70.5 -10q-36 0 -69 10t-57.5 30.5t-37 51t-6.5 71.5l54 379
q6 41 26 69t49.5 45.5t64.5 27t70 12.5q48 5 83.5 14t65.5 25zM278 431q-41 0 -75.5 -13.5t-72.5 -39.5l-32 -225q-4 -29 5.5 -49.5t27 -33.5t41 -19.5t48.5 -6.5q24 0 49 6.5t46.5 19.5t36.5 33.5t19 49.5l24 169q4 30 -4.5 50.5t-25 33.5t-39.5 19t-48 6z" />
    <glyph glyph-name="uni0432" unicode="&#x432;" horiz-adv-x="497" 
d="M302 528q73 0 113.5 -33t31.5 -99q-6 -42 -29.5 -72.5t-52.5 -47.5q81 -31 66 -131q-7 -44 -25.5 -74t-46.5 -48t-64.5 -25.5t-79.5 -7.5q-55 0 -99.5 10.5t-89.5 30.5l64 456q51 20 102.5 30.5t109.5 10.5zM292 478q-47 0 -80.5 -5.5t-71.5 -18.5l-24 -163h151
q44 0 80.5 25t43.5 74t-22 68.5t-77 19.5zM85 63q34 -13 67 -18.5t81 -4.5q26 0 50 4.5t43 16.5t32.5 32.5t18.5 53.5q8 57 -22.5 79t-91.5 22h-152z" />
    <glyph glyph-name="uni0433" unicode="&#x433;" horiz-adv-x="436" 
d="M252 528q34 0 63 -8t48.5 -24t28.5 -41t5 -59q-5 -36 -22 -60t-42.5 -40.5t-57.5 -27.5t-67 -21q-61 -18 -97 -40.5t-43 -68.5q-7 -54 20.5 -76.5t84.5 -22.5q54 0 96 17.5t74 46.5l30 -32q-39 -39 -92 -60t-115 -21q-80 0 -121.5 36.5t-31.5 108.5q5 33 19.5 57.5
t37.5 43t55 31.5t72 24q27 8 52 16.5t44.5 20t33 28t16.5 39.5q11 80 -96 80q-41 0 -77 -13.5t-65 -38.5l-31 36q42 35 87.5 52t90.5 17z" />
    <glyph glyph-name="uni0434" unicode="&#x434;" horiz-adv-x="498" 
d="M303 718q38 0 71 -10t55.5 -30t33.5 -50.5t5 -71.5l-56 -400q-6 -41 -26.5 -72t-49.5 -52t-64 -31.5t-71 -10.5t-69 10t-57 30t-36 50.5t-6 71.5l26 182q6 40 26.5 71t50 51.5t65 30.5t71.5 10q37 0 71.5 -12t55.5 -35l14 104q4 29 -4 50.5t-25.5 35.5t-41.5 20.5
t-52 6.5q-39 0 -69 -8.5t-59 -26.5l-30 39q22 15 42 24t40.5 14t42 7t46.5 2zM263 445q-25 0 -50 -7t-46 -20.5t-35.5 -34t-18.5 -48.5l-25 -183q-4 -29 5 -49t27 -33.5t41.5 -19.5t47.5 -6t48.5 6.5t45 20t35.5 34t19 49.5l34 245q-23 20 -56.5 33t-71.5 13z" />
    <glyph glyph-name="uni0435" unicode="&#x435;" horiz-adv-x="484" 
d="M88 159q-4 -30 5.5 -50.5t27.5 -34t42 -19.5t50 -6q42 0 81.5 16t60.5 51l46 -25q-15 -25 -37 -44t-48 -31.5t-54.5 -19t-56.5 -6.5q-37 0 -71 10.5t-58.5 31.5t-37 53t-6.5 74l27 195q6 44 28 76.5t53 54.5t68 32.5t74 10.5t70.5 -10.5t58 -31.5t36.5 -53t6 -75
q-6 -44 -26.5 -75.5t-50 -52t-66 -30.5t-74 -11t-74 6.5t-66.5 22.5zM103 270q22 -9 50.5 -16.5t59.5 -10t61.5 1t56 16.5t43 36.5t23.5 60.5q4 30 -5 51.5t-26.5 35.5t-41.5 20.5t-50 6.5q-27 0 -53.5 -7.5t-48.5 -23t-37.5 -38.5t-19.5 -54z" />
    <glyph glyph-name="uni0436" unicode="&#x436;" horiz-adv-x="721" 
d="M430 251l-56 -49l-29 -202h-55l29 202l-42 49l-233 -251h-68l265 286l-194 232h71l211 -253l34 253h55l-35 -253l281 253h70l-258 -232l183 -286h-68z" />
    <glyph glyph-name="uni0437" unicode="&#x437;" horiz-adv-x="438" 
d="M241 528q42 0 71.5 -10.5t47.5 -29.5t24 -44.5t2 -56.5q-6 -42 -31.5 -70t-55.5 -41q42 -12 62 -46.5t12 -85.5q-6 -39 -25.5 -68t-47 -48t-61.5 -28.5t-69 -9.5q-62 0 -103.5 21.5t-67.5 69.5l50 24q20 -32 50 -48.5t72 -16.5q27 0 52 5.5t44.5 17.5t33 32t17.5 50
q8 59 -22 81.5t-92 22.5h-81l6 43h78q45 0 80.5 23t42.5 72q8 48 -19 69.5t-79 21.5q-44 0 -75.5 -14t-58.5 -44l-38 22q35 44 82.5 65t98.5 21z" />
    <glyph glyph-name="uni0438" unicode="&#x438;" 
d="M359 14q-35 -10 -73 -17t-73 -7q-36 0 -69 11t-57 32t-36 52t-6 73l50 360h56l-51 -362q-4 -27 5 -47.5t26 -34.5t40.5 -21t49.5 -7q42 0 82 10.5t65 20.5l62 441h56l-68 -487z" />
    <glyph glyph-name="uni0439" unicode="&#x439;" horiz-adv-x="512" 
d="M425 688q-8 -26 -22 -45.5t-31.5 -33t-38 -20.5t-39.5 -7q-40 0 -70.5 27t-30.5 79h51q3 -26 20 -40t37 -14q21 0 41 14t31 40h52zM406 25q-63 -21 -111 -28t-87 -7q-35 0 -67.5 10.5t-55.5 30.5t-35 50.5t-6 71.5l51 365h55l-51 -366q-4 -27 5 -47t25.5 -34t39 -21.5
t46.5 -7.5q38 0 75.5 5.5t66.5 16.5l63 454h55z" />
    <glyph glyph-name="uni043A" unicode="&#x43a;" horiz-adv-x="475" 
d="M185 244l-79 -70l-25 -174h-55l73 518h55l-38 -271l303 271h70l-260 -235l186 -283h-69z" />
    <glyph glyph-name="uni043B" unicode="&#x43b;" horiz-adv-x="519" 
d="M222 464l-42 -197q-13 -59 -25.5 -108t-33.5 -84t-56 -55t-93 -20l8 55q39 0 62 13t38.5 42t26.5 75t25 112l47 221h301l-73 -518h-55l66 464h-196z" />
    <glyph glyph-name="uni043C" unicode="&#x43c;" horiz-adv-x="629" 
d="M523 429l-219 -350h-41l-84 241l-39 109l-16 -119l-43 -310h-55l73 518h70l124 -365l227 365h70l-73 -518h-55l47 332z" />
    <glyph glyph-name="uni043D" unicode="&#x43d;" horiz-adv-x="519" 
d="M116 244l-35 -244h-55l73 518h55l-31 -220h271l31 220h55l-73 -518h-55l35 244h-271z" />
    <glyph glyph-name="uni043E" unicode="&#x43e;" horiz-adv-x="497" 
d="M60 359q6 42 27 74t52 53t67.5 31.5t73.5 10.5t70.5 -10.5t58.5 -31.5t37.5 -53t6.5 -74l-29 -201q-6 -42 -27.5 -73.5t-52 -52.5t-67 -31.5t-73.5 -10.5t-71 10.5t-58.5 31.5t-37 52.5t-6.5 73.5zM272 472q-26 0 -52 -6.5t-47.5 -20t-37 -34.5t-19.5 -51l-29 -198
q-4 -30 5.5 -51t27.5 -35t42 -20.5t50 -6.5q25 0 51 6.5t48 20.5t37.5 35t19.5 51l29 198q4 30 -5.5 51t-27.5 34.5t-42.5 20t-49.5 6.5z" />
    <glyph glyph-name="uni043F" unicode="&#x43f;" 
d="M92 487q51 17 102 29t102 12q36 -1 69 -11.5t57 -31t36.5 -51.5t6.5 -73l-50 -361h-56l50 361q4 28 -5 49t-26.5 35t-41 20.5t-48.5 6.5q-42 0 -82 -10t-65 -20l-61 -442h-56z" />
    <glyph glyph-name="uni0440" unicode="&#x440;" horiz-adv-x="514" 
d="M94 493q51 17 102.5 26t102.5 9q36 0 69.5 -10.5t57.5 -31.5t36.5 -52.5t6.5 -73.5l-28 -201q-6 -41 -26.5 -72.5t-50.5 -53t-67.5 -32.5t-76.5 -11q-37 0 -71 8.5t-65 23.5l-30 -213h-56zM91 75q32 -14 67 -21.5t71 -7.5q26 0 52 7t48 21t36.5 34.5t18.5 48.5l28 205
q4 28 -4.5 49t-25.5 34.5t-41 20t-50 6.5q-36 0 -73 -2.5t-74 -14.5z" />
    <glyph glyph-name="uni0441" unicode="&#x441;" horiz-adv-x="465" 
d="M393 409q-13 32 -46.5 47.5t-74.5 15.5q-26 0 -52 -6.5t-48 -20t-37 -34.5t-19 -49l-28 -203q-4 -28 5 -49t26.5 -34.5t42 -20t50.5 -6.5q22 0 45 4.5t42.5 13.5t35 23.5t24.5 35.5l48 -23q-14 -29 -36.5 -50t-49.5 -35t-57 -21t-60 -7q-36 0 -70 10.5t-58.5 31.5
t-37 52.5t-6.5 73.5l28 202q6 42 27.5 73.5t52 52.5t67.5 31.5t73 10.5q54 0 99 -22t65 -67z" />
    <glyph glyph-name="uni0442" unicode="&#x442;" horiz-adv-x="813" 
d="M92 484q37 19 84 31.5t94 12.5q48 0 89 -16t65 -54q34 35 77 52.5t84 17.5q39 0 72.5 -10.5t57 -32.5t34.5 -54.5t5 -76.5l-49 -354h-57l49 354q4 32 -4 54.5t-24.5 36.5t-40 20.5t-49.5 6.5q-21 0 -43.5 -6t-42 -18t-34 -30t-17.5 -42l-53 -376h-55l53 376q3 25 -7 43
t-29 30t-44.5 17.5t-52.5 5.5q-32 0 -61.5 -7.5t-49.5 -21.5l-62 -443h-57z" />
    <glyph glyph-name="uni0443" unicode="&#x443;" horiz-adv-x="536" 
d="M25 0zM68 -113q20 -26 53 -38t72 -13q28 0 56.5 6.5t51.5 21t39.5 37t20.5 52.5l10 73q-36 -21 -73.5 -28t-75.5 -7t-72.5 11.5t-59.5 33t-38 54t-7 74.5l49 354h58l-50 -356q-4 -29 5 -50.5t27 -36t42.5 -22t51.5 -7.5q37 0 74.5 8t76.5 26l61 438h57l-79 -565
q-6 -44 -27.5 -76t-52 -53t-67.5 -31.5t-75 -10.5q-51 0 -97.5 17.5t-73.5 52.5z" />
    <glyph glyph-name="uni0444" unicode="&#x444;" horiz-adv-x="688" 
d="M401 514q6 3 16.5 5.5t22 4.5t23.5 3t21 1q31 0 62 -10.5t54 -30.5t35 -51t6 -71l-29 -212q-6 -41 -26.5 -71.5t-49.5 -50.5t-63 -30.5t-65 -10.5q-9 0 -20.5 1t-22.5 3t-20.5 4.5t-15.5 5.5l-27 -190h-55l26 190q-12 -6 -38 -10t-45 -4q-31 0 -61.5 10.5t-54 30.5
t-35.5 50.5t-7 71.5l30 212q6 40 27 71t50 51t62.5 30.5t64.5 10.5q9 0 20.5 -1t23 -3t21 -4.5t15.5 -5.5l27 194h55zM269 475q-24 0 -49 -7t-46.5 -21t-37 -34.5t-19.5 -47.5l-29 -212q-4 -27 5.5 -47.5t27 -34.5t41 -21t47.5 -7q16 0 37 3.5t35 8.5l57 408q-12 5 -32 8.5
t-37 3.5zM466 475q-17 0 -38 -3.5t-35 -8.5l-57 -408q12 -5 32 -8.5t37 -3.5q24 0 49.5 7t47 21t36.5 34.5t18 47.5l30 212q4 27 -5 47.5t-26.5 34.5t-41 21t-47.5 7z" />
    <glyph glyph-name="uni0445" unicode="&#x445;" horiz-adv-x="462" 
d="M258 259l142 -259h-68l-113 218l-174 -218h-68l214 259l-142 259h68l114 -219l173 219h68z" />
    <glyph glyph-name="uni0446" unicode="&#x446;" horiz-adv-x="534" 
d="M477 76q-9 -57 -21 -106.5t-25 -92.5h-45l24 147l-23 -1q-38 -16 -85 -24.5t-92 -8.5q-35 0 -67.5 10.5t-56.5 30.5t-36 50.5t-6 71.5l51 365h55l-51 -366q-4 -27 5 -47t26 -34t39.5 -21.5t46.5 -7.5q35 0 71.5 4.5t65.5 16.5l64 455h55l-62 -442h67z" />
    <glyph glyph-name="uni0447" unicode="&#x447;" horiz-adv-x="477" 
d="M339 202q-67 -44 -139 -44q-35 0 -66 9.5t-53.5 30t-33.5 51.5t-5 74l27 195h55l-27 -194q-4 -30 3.5 -51.5t23.5 -35t38 -19.5t46 -6q35 0 70.5 9.5t67.5 30.5l38 266h54l-73 -518h-54z" />
    <glyph glyph-name="uni0448" unicode="&#x448;" horiz-adv-x="783" 
d="M679 34q-38 -20 -83 -32t-87 -12q-45 0 -85.5 16t-63.5 54q-36 -39 -75 -54.5t-81 -15.5q-38 0 -70 10t-54 30.5t-32 52t-4 73.5l50 362h56l-51 -360q-4 -31 3.5 -53t23 -35.5t37 -19.5t46.5 -6q21 0 43.5 6.5t41.5 18t32.5 28.5t16.5 40l53 381h54l-53 -381
q-3 -24 6 -42t26 -29.5t40.5 -17.5t49.5 -6q30 0 59 7t50 20l63 449h55z" />
    <glyph glyph-name="uni0449" unicode="&#x449;" horiz-adv-x="809" 
d="M751 76q-8 -57 -20 -106.5t-26 -91.5h-44l24 146l-24 -1q-35 -16 -74.5 -24.5t-78.5 -8.5q-44 0 -84.5 16t-63.5 54q-36 -39 -74.5 -54.5t-80.5 -15.5q-38 0 -70.5 10t-54.5 30.5t-32 52t-4 73.5l51 362h55l-50 -360q-5 -31 2.5 -53t23 -35.5t37 -19.5t46.5 -6
q21 0 43.5 7t41.5 19t32.5 29t16.5 38l53 381h54l-54 -381q-3 -24 6 -42t26.5 -29.5t41 -17.5t49.5 -6q30 0 59 6t50 17l63 453h56l-62 -442h66z" />
    <glyph glyph-name="uni044A" unicode="&#x44a;" horiz-adv-x="515" 
d="M158 292q32 14 73.5 27t83.5 13q40 0 71 -13t51 -36.5t28 -56t2 -71.5q-6 -41 -26.5 -72t-50.5 -51.5t-65.5 -31t-70.5 -10.5q-36 0 -69 10.5t-57.5 30.5t-37 50.5t-6.5 71.5l45 315h-95l7 50h149zM297 281q-18 0 -37.5 -3.5t-39 -9t-37 -12.5t-31.5 -13l-13 -90
q-4 -29 5 -49.5t27 -34t41.5 -20t48.5 -6.5q24 0 49 7t46.5 20.5t36.5 34.5t19 50q4 31 -3 55t-22.5 39.5t-39 23.5t-50.5 8z" />
    <glyph glyph-name="uni044B" unicode="&#x44b;" horiz-adv-x="674" 
d="M118 292q31 14 73 27t84 13q40 0 71 -13t50.5 -36.5t27.5 -56t3 -71.5q-6 -41 -26.5 -72t-50.5 -51.5t-65.5 -31t-71.5 -10.5t-69 10.5t-57 30.5t-36.5 50.5t-6.5 71.5l51 365h54zM636 518l-73 -518h-55l73 518h55zM257 281q-18 0 -37.5 -3.5t-39 -9t-37.5 -12.5t-32 -13
l-12 -90q-4 -29 5 -49.5t27 -34t41.5 -20t48.5 -6.5q24 0 49 7t46.5 20.5t36.5 34.5t19 50q4 31 -3 55t-22.5 39.5t-39 23.5t-50.5 8z" />
    <glyph glyph-name="uni044C" unicode="&#x44c;" horiz-adv-x="475" 
d="M118 292q31 14 73 27t84 13q40 0 71 -13t50.5 -36.5t27.5 -56t3 -71.5q-6 -41 -26.5 -72t-50.5 -51.5t-65.5 -31t-71.5 -10.5t-69 10.5t-57 30.5t-36.5 50.5t-6.5 71.5l51 365h54zM257 281q-18 0 -37.5 -3.5t-39 -9t-37.5 -12.5t-32 -13l-12 -90q-4 -29 5 -49.5t27 -34
t41.5 -20t48.5 -6.5q24 0 49 7t46.5 20.5t36.5 34.5t19 50q4 31 -3 55t-22.5 39.5t-39 23.5t-50.5 8z" />
    <glyph glyph-name="uni044D" unicode="&#x44d;" horiz-adv-x="457" 
d="M245 527q36 0 68.5 -10t56.5 -30.5t36 -51t6 -71.5l-29 -209q-6 -41 -27 -72t-50.5 -51.5t-65 -30.5t-71.5 -10q-28 0 -55 7t-49.5 20.5t-39 34t-23.5 47.5l55 25q9 -41 44 -60t76 -19q25 0 50.5 6.5t46.5 19.5t35.5 33.5t18.5 47.5l11 84h-216l7 48h216l12 80
q4 27 -5 47.5t-26.5 34t-41 20t-48.5 6.5q-40 0 -75.5 -13.5t-60.5 -46.5l-41 27q35 45 84.5 66t100.5 21z" />
    <glyph glyph-name="uni044E" unicode="&#x44e;" horiz-adv-x="705" 
d="M493 528q36 0 68.5 -10.5t56.5 -31t35.5 -51t5.5 -70.5l-29 -212q-6 -41 -26.5 -71.5t-50 -50.5t-65 -30.5t-71.5 -10.5t-69 10.5t-57 30.5t-36.5 50.5t-6.5 71.5l13 94h-148l-35 -247h-55l73 518h55l-30 -219h148l8 66q6 40 27 70.5t51 51t66 31t72 10.5zM485 473
q-25 0 -50.5 -6t-47 -19.5t-36.5 -34t-19 -48.5l-29 -212q-4 -29 5 -49.5t27 -33.5t41.5 -19.5t47.5 -6.5t49.5 6.5t46.5 19.5t36 33.5t19 49.5l30 212q4 28 -5 48.5t-26.5 34t-41 19.5t-47.5 6z" />
    <glyph glyph-name="uni044F" unicode="&#x44f;" horiz-adv-x="488" 
d="M249 217l-204 -217h-67l203 217q-32 1 -57.5 11t-43 29t-25.5 45.5t-3 60.5q11 80 61 117.5t128 37.5h208l-73 -518h-55l31 217h-103zM236 466q-54 0 -87.5 -23.5t-41.5 -80.5q-4 -27 2.5 -46t21.5 -31t37 -17.5t49 -5.5h141l29 204h-151z" />
    <glyph glyph-name="uni0451" unicode="&#x451;" horiz-adv-x="484" 
d="M166 632q2 17 16 29t31 12t27 -12t8 -29t-16 -29t-31 -12t-27 12t-8 29zM346 632q2 17 16 29t31 12t27 -12t8 -29t-16 -29t-31 -12t-27 12t-8 29zM88 159q-4 -30 5.5 -50.5t27.5 -34t42 -19.5t50 -6q42 0 81.5 16t60.5 51l46 -25q-15 -25 -37 -44t-48 -31.5t-54.5 -19
t-56.5 -6.5q-37 0 -71 10.5t-58.5 31.5t-37 53t-6.5 74l27 195q6 44 28 76.5t53 54.5t68 32.5t74 10.5t70.5 -10.5t58 -31.5t36.5 -53t6 -75q-6 -44 -26.5 -75.5t-50 -52t-66 -30.5t-74 -11t-74 6.5t-66.5 22.5zM103 270q22 -9 50.5 -16.5t59.5 -10t61.5 1t56 16.5t43 36.5
t23.5 60.5q4 30 -5 51.5t-26.5 35.5t-41.5 20.5t-50 6.5q-27 0 -53.5 -7.5t-48.5 -23t-37.5 -38.5t-19.5 -54z" />
    <glyph glyph-name="Wgrave" unicode="&#x1e80;" horiz-adv-x="939" 
d="M429 869h80l55 -113h-58zM920 708h62l-304 -708h-86l-92 522l-239 -522h-86l-106 708h62l93 -664l260 571h57l100 -571z" />
    <glyph glyph-name="wgrave" unicode="&#x1e81;" horiz-adv-x="722" 
d="M294 679h80l55 -113h-58zM131 0l-84 518h59l73 -460l176 460h71l48 -460l201 460h59l-228 -518h-80l-45 443l-170 -443h-80z" />
    <glyph glyph-name="Wacute" unicode="&#x1e82;" horiz-adv-x="939" 
d="M554 756h-58l84 113h80zM920 708h62l-304 -708h-86l-92 522l-239 -522h-86l-106 708h62l93 -664l260 571h57l100 -571z" />
    <glyph glyph-name="wacute" unicode="&#x1e83;" horiz-adv-x="722" 
d="M419 566h-58l84 113h80zM131 0l-84 518h59l73 -460l176 460h71l48 -460l201 460h59l-228 -518h-80l-45 443l-170 -443h-80z" />
    <glyph glyph-name="Wdieresis" unicode="&#x1e84;" horiz-adv-x="939" 
d="M410 812q2 17 16 29t31 12t27 -12t8 -29t-16 -29t-31 -12t-27 12t-8 29zM590 812q2 17 16 29t31 12t27 -12t8 -29t-16 -29t-31 -12t-27 12t-8 29zM920 708h62l-304 -708h-86l-92 522l-239 -522h-86l-106 708h62l93 -664l260 571h57l100 -571z" />
    <glyph glyph-name="wdieresis" unicode="&#x1e85;" horiz-adv-x="722" 
d="M275 622q2 17 16 29t31 12t27 -12t8 -29t-16 -29t-31 -12t-27 12t-8 29zM455 622q2 17 16 29t31 12t27 -12t8 -29t-16 -29t-31 -12t-27 12t-8 29zM131 0l-84 518h59l73 -460l176 460h71l48 -460l201 460h59l-228 -518h-80l-45 443l-170 -443h-80z" />
    <glyph glyph-name="Ygrave" unicode="&#x1ef2;" horiz-adv-x="556" 
d="M238 869h80l55 -113h-58zM265 0h-59l38 277l-185 431h69l155 -372l258 372h70l-308 -431z" />
    <glyph glyph-name="ygrave" unicode="&#x1ef3;" horiz-adv-x="536" 
d="M199 679h80l55 -113h-58zM68 -113q20 -26 53 -38t72 -13q28 0 56.5 6.5t51.5 21t39.5 37t20.5 52.5l10 73q-36 -21 -73.5 -28t-75.5 -7t-72.5 11.5t-59.5 33t-38 54t-7 74.5l49 354h58l-50 -356q-4 -29 5 -50.5t27 -36t42.5 -22t51.5 -7.5q37 0 74.5 8t76.5 26l61 438h57
l-79 -565q-6 -44 -27.5 -76t-52 -53t-67.5 -31.5t-75 -10.5q-51 0 -97.5 17.5t-73.5 52.5z" />
    <glyph glyph-name="endash" unicode="&#x2013;" horiz-adv-x="588" 
d="M521 271h-464l8 57h464z" />
    <glyph glyph-name="emdash" unicode="&#x2014;" horiz-adv-x="1020" 
d="M953 271h-896l8 57h896z" />
    <glyph glyph-name="quoteleft" unicode="&#x2018;" horiz-adv-x="221" 
d="M179 708h60l-96 -228h-72z" />
    <glyph glyph-name="quoteright" unicode="&#x2019;" horiz-adv-x="219" 
d="M131 480h-59l95 228h73z" />
    <glyph glyph-name="quotesinglbase" unicode="&#x201a;" horiz-adv-x="210" 
d="M12 -138h-59l93 213h73z" />
    <glyph glyph-name="quotedblleft" unicode="&#x201c;" horiz-adv-x="373" 
d="M180 708h59l-95 -228h-73zM333 708h59l-95 -228h-73z" />
    <glyph glyph-name="quotedblright" unicode="&#x201d;" horiz-adv-x="368" 
d="M131 480h-59l95 228h73zM281 480h-59l95 228h73z" />
    <glyph glyph-name="quotedblbase" unicode="&#x201e;" horiz-adv-x="374" 
d="M12 -138h-59l92 209h73zM176 -138h-59l92 209h73z" />
    <glyph glyph-name="dagger" unicode="&#x2020;" horiz-adv-x="498" 
d="M56 514h192l27 194h60l-27 -194h192l-8 -53h-192l-82 -587h-60l82 587h-192z" />
    <glyph glyph-name="daggerdbl" unicode="&#x2021;" horiz-adv-x="557" 
d="M32 121h192l47 340h-192l8 52h192l27 195h60l-27 -195h192l-8 -52h-192l-47 -340h192l-8 -51h-192l-27 -196h-60l27 196h-192z" />
    <glyph glyph-name="bullet" unicode="&#x2022;" horiz-adv-x="419" 
d="M71 354q4 30 19.5 56.5t38 46t50.5 31t58 11.5t54.5 -11.5t41.5 -31t24.5 -46t3.5 -56.5t-19 -56.5t-37.5 -46t-50.5 -31t-58 -11.5t-55 11.5t-42 31t-24.5 46t-3.5 56.5z" />
    <glyph glyph-name="ellipsis" unicode="&#x2026;" horiz-adv-x="619" 
d="M17 42q3 20 19 34t36 14t32 -14t9 -34q-2 -20 -18 -34t-36 -14t-32 14t-10 34zM226 42q3 20 19 34t36 14t32 -14t9 -34q-2 -20 -18 -34t-36 -14t-32 14t-10 34zM434 42q3 20 19 34t36 14t32 -14t9 -34q-2 -20 -18 -34t-36 -14t-32 14t-10 34z" />
    <glyph glyph-name="perthousand" unicode="&#x2030;" horiz-adv-x="1077" 
d="M43 -40l610 790l45 -30l-609 -790zM359 517q-6 -44 -22 -79.5t-39.5 -60t-52.5 -37.5t-61 -13q-71 0 -102.5 49t-18.5 143q6 43 22 78t39.5 60t52.5 38t61 13q69 0 101.5 -50t19.5 -141zM301 517q10 70 -9.5 102t-62.5 32q-45 0 -70.5 -31t-36.5 -101q-10 -72 7.5 -103
t63.5 -31q45 0 71.5 31.5t36.5 100.5zM698 186q-6 -44 -22 -79t-39.5 -59.5t-52 -37.5t-60.5 -13q-72 0 -103.5 48.5t-17.5 142.5q6 44 21.5 79t38.5 59.5t52 37.5t62 13q69 0 101.5 -49.5t19.5 -141.5zM1033 186q-6 -44 -22 -79t-39.5 -59.5t-52 -37.5t-60.5 -13
q-72 0 -103.5 48.5t-17.5 142.5q6 44 21.5 79t38.5 59.5t52 37.5t62 13q69 0 101.5 -49.5t19.5 -141.5zM640 186q10 70 -9.5 102.5t-62.5 32.5q-45 0 -71 -31.5t-36 -101.5q-10 -72 7 -103t64 -31q44 0 71 31.5t37 100.5zM975 186q10 70 -9.5 102.5t-62.5 32.5
q-45 0 -71 -31.5t-36 -101.5q-10 -72 7 -103t64 -31q44 0 71 31.5t37 100.5z" />
    <glyph glyph-name="guilsinglleft" unicode="&#x2039;" horiz-adv-x="269" 
d="M243 469l-143 -174l95 -174l-53 -29l-108 203l165 203z" />
    <glyph glyph-name="guilsinglright" unicode="&#x203a;" horiz-adv-x="269" 
d="M22 121l143 174l-95 174l52 29l109 -203l-166 -203z" />
    <glyph glyph-name="fraction" unicode="&#x2044;" horiz-adv-x="516" 
d="M5 -34l-41 28l560 748l42 -28z" />
    <glyph glyph-name="Euro" unicode="&#x20ac;" horiz-adv-x="609" 
d="M124 501q7 54 34 94.5t65 68t83.5 41t91.5 13.5q34 0 67 -8t60.5 -24t48.5 -40t32 -56l-56 -27q-17 49 -62 72.5t-98 23.5q-35 0 -70 -10t-64 -30t-49 -49.5t-25 -68.5l-11 -76h271l-16 -45h-261l-8 -54h272l-15 -44h-263l-11 -75q-6 -39 5.5 -69t34.5 -49.5t54.5 -29.5
t66.5 -10q54 0 106.5 24t83.5 72l49 -26q-20 -32 -48 -56.5t-61 -40.5t-68.5 -24t-70.5 -8q-45 0 -86.5 13.5t-71.5 40.5t-45 68t-7 95l11 75h-66l16 44h56l8 54h-63l16 45h53z" />
    <glyph glyph-name="uni2113" unicode="&#x2113;" horiz-adv-x="439" 
d="M392 111q-36 -57 -83 -87.5t-103 -30.5q-41 0 -67.5 15.5t-41 42t-18.5 62t1 75.5l1 10q-14 -11 -30 -21.5t-31 -22.5l-15 36q23 18 44.5 37t41.5 37l39 278q9 69 28 114.5t42.5 72.5t50 38t51.5 11q28 0 47.5 -12t31 -33t14 -50t-1.5 -62q-14 -97 -81 -192t-169 -186
l-4 -29q-6 -48 -2 -80t15.5 -51.5t29.5 -27.5t40 -8q42 0 77.5 28t57.5 67zM152 312q73 74 124.5 149t62.5 157q3 21 3 40t-5 33.5t-16 23.5t-30 9q-14 0 -29.5 -8.5t-30 -28.5t-27 -54.5t-19.5 -85.5z" />
    <glyph glyph-name="trademark" unicode="&#x2122;" horiz-adv-x="833" 
d="M207 659h-130l7 49h312l-7 -49h-130l-48 -341h-52zM445 708h60l88 -279l166 279h61l-55 -390h-53l47 304l-153 -257h-44l-80 253l-40 -300h-52z" />
    <glyph glyph-name="Omega" unicode="&#x2126;" horiz-adv-x="781" 
d="M177 57q-28 25 -51.5 58t-39 73.5t-21 88t2.5 101.5q11 77 46 139.5t87 106.5t117 68t135 24q73 0 129.5 -26.5t93.5 -71.5t52 -106t5 -130q-8 -57 -27.5 -106t-46.5 -90.5t-58.5 -74t-64.5 -54.5l-1 -3h165l-7 -54h-268l5 37q45 24 85.5 58.5t73 78.5t55 96.5
t30.5 111.5q7 50 -4 100.5t-40 90.5t-75.5 65t-110.5 25q-60 0 -113.5 -21.5t-96 -60t-70.5 -91t-37 -114.5q-8 -56 1 -105.5t30 -92t52.5 -78.5t69.5 -63l-5 -37h-272l7 54h166z" />
    <glyph glyph-name="estimated" unicode="&#x212e;" horiz-adv-x="887" 
d="M207 344q-5 0 -5 -5v-199q0 -12 8 -23q48 -50 112 -79t137 -29q79 0 146.5 33t115.5 88h59q-55 -64 -139 -102.5t-183 -38.5q-84 0 -158 28.5t-129 78t-87 116t-32 142.5t32 142.5t87 116t129 78.5t158 29t158.5 -29t129.5 -78.5t87 -116t32 -142.5v-10h-658zM716 570
q0 14 -10 24q-48 48 -111 76t-136 28q-72 0 -136 -29t-112 -78q-9 -11 -9 -25v-196q0 -2 1.5 -4.5t3.5 -2.5h505q2 0 3 2.5t1 4.5v200z" />
    <glyph glyph-name="partialdiff" unicode="&#x2202;" horiz-adv-x="510" 
d="M132 702q27 19 66 35t94 16q44 0 83 -21t65.5 -65.5t37 -112.5t-2.5 -162q-12 -87 -38 -160t-63.5 -126.5t-86.5 -83t-109 -29.5q-45 0 -75.5 18t-48.5 48t-23.5 69.5t0.5 82.5q8 57 31 102.5t55.5 77.5t71.5 49t78 17q33 0 58 -10t43 -24t28.5 -29.5t15.5 -26.5h1
q15 68 12 129t-20.5 106.5t-49.5 72t-75 26.5q-44 0 -76.5 -13.5t-55.5 -30.5zM187 47q34 0 68 20.5t62.5 55t49 80t28.5 95.5q-3 17 -14 36t-28 34.5t-40.5 26t-50.5 10.5q-30 0 -58.5 -15t-52 -41t-40 -61t-22.5 -75q-10 -75 16 -120.5t81 -45.5h1z" />
    <glyph glyph-name="Delta" unicode="&#x2206;" horiz-adv-x="597" 
d="M392 725l143 -681l-6 -44h-544l6 43l335 682h66zM342 633l-282 -577h402l-116 577h-4z" />
    <glyph glyph-name="product" unicode="&#x220f;" horiz-adv-x="653" 
d="M412 -70l101 723h-279l-101 -723h-57l101 723h-103l8 56h600l-8 -56h-104l-101 -723h-57z" />
    <glyph glyph-name="summation" unicode="&#x2211;" horiz-adv-x="539" 
d="M296 307l-205 357l6 43h449l-8 -53h-368v-4l192 -339l-304 -343l-1 -4h400l-7 -52h-477l6 42z" />
    <glyph glyph-name="minus" unicode="&#x2212;" horiz-adv-x="638" 
d="M570 279h-510l7 55h510z" />
    <glyph glyph-name="uni2215" unicode="&#x2215;" horiz-adv-x="512" 
d="M3 -34l-41 28l560 748l42 -28z" />
    <glyph glyph-name="uni2219" unicode="&#x2219;" horiz-adv-x="219" 
d="M63 318q3 20 19 34t36 14t32 -14t9 -34t-19 -34t-36 -14t-32 14t-9 34z" />
    <glyph glyph-name="radical" unicode="&#x221a;" horiz-adv-x="522" 
d="M96 311l-74 -26l-12 50l131 48l75 -439l308 893h58l-348 -991h-54z" />
    <glyph glyph-name="infinity" unicode="&#x221e;" horiz-adv-x="739" 
d="M690 292q-5 -35 -21.5 -63t-40 -47.5t-52 -30.5t-57.5 -11q-23 0 -42.5 6.5t-38 20t-37 34t-39.5 47.5q-21 -20 -43.5 -39.5t-46 -34.5t-49.5 -24.5t-55 -9.5q-30 0 -55 11.5t-41.5 31.5t-24.5 47t-3 59q4 33 19.5 61t39 48.5t53 32t62.5 11.5q27 0 49.5 -9.5t41.5 -25
t35.5 -35.5t32.5 -41l2 3q21 20 43 39.5t45 34.5t48.5 24.5t54.5 9.5q63 -1 96 -42t24 -107v-1zM182 192q19 0 37.5 8t36.5 20t35 27t32 30l14 12q-13 18 -26.5 36.5t-29.5 32.5t-35.5 23t-43.5 9q-21 0 -39 -8.5t-31 -22.5t-21.5 -32.5t-11.5 -38.5q-5 -40 16.5 -68
t65.5 -28h1zM556 390q-18 0 -36.5 -7.5t-36 -19.5t-33.5 -26.5t-30 -27.5l-18 -17q39 -48 66 -74t62 -26q22 0 40 8.5t31.5 22t21.5 31t11 35.5q7 49 -15.5 75t-61.5 26h-1z" />
    <glyph glyph-name="integral" unicode="&#x222b;" horiz-adv-x="325" 
d="M371 798q-24 16 -46 16.5t-39 -12.5t-29 -37t-16 -57q-5 -39 -12 -96.5t-15 -124.5t-16.5 -138.5t-16.5 -139t-15.5 -125.5t-12.5 -98q-7 -48 -29 -79.5t-51.5 -47.5t-63 -16t-63.5 14l18 44q25 -11 47.5 -9t40.5 14t29.5 33t15.5 48q5 40 12.5 99t15.5 126.5t17 140
t17 139.5t15 125t13 97q7 51 29 85t51.5 50.5t62 15.5t59.5 -20z" />
    <glyph glyph-name="approxequal" unicode="&#x2248;" horiz-adv-x="539" 
d="M487 370q-23 -29 -52 -48t-66 -19q-29 0 -52 10.5t-54 30.5q-20 12 -39.5 21.5t-41.5 9.5q-23 0 -43 -14t-38 -35l-33 31q27 33 59.5 51t67.5 18q29 0 51 -10.5t39 -21.5l14 -8h-1q3 -2 6.5 -4t7.5 -4q17 -11 32 -17.5t36 -6.5q38 0 76 46zM466 224q-23 -29 -52 -47.5
t-65 -18.5q-29 0 -52 10.5t-56 30.5q-19 12 -38 22t-41 10q-23 0 -43.5 -13.5t-37.5 -34.5l-34 30q28 34 60 52t68 18q30 0 52 -11t39 -21h-1l13 -8l7 -4q18 -12 35 -20t40 -8q20 0 37 10.5t35 31.5z" />
    <glyph glyph-name="notequal" unicode="&#x2260;" horiz-adv-x="554" 
d="M504 349h-169l-75 -126h226l-8 -53h-248q-15 -26 -34 -56.5t-33 -56.5l-41 22l54 91h-139l8 53h162q20 34 37 63t38 63h-219l7 53h242l67 111l40 -20l-55 -91h147z" />
    <glyph glyph-name="lessequal" unicode="&#x2264;" horiz-adv-x="487" 
d="M404 210l-9 -63l-324 198l6 45l381 201l-9 -64l-310 -160zM403 111l-7 -53h-379l7 53h379z" />
    <glyph glyph-name="greaterequal" unicode="&#x2265;" horiz-adv-x="484" 
d="M428 345l-380 -198l9 63l309 157l-264 160l9 64l323 -201zM409 111l-7 -53h-379l7 53h379z" />
    <glyph glyph-name="lozenge" unicode="&#x25ca;" horiz-adv-x="538" 
d="M30 355l272 388h59l160 -387l-272 -388h-60zM332 635q-4 9 -7 20.5t-5 21.5q-5 -8 -11.5 -19.5t-13.5 -22.5l-195 -278l119 -284q4 -11 6 -22.5t4 -21.5q4 10 11 23t13 21l198 282z" />
    <glyph glyph-name="i.loclTRK" horiz-adv-x="194" 
d="M97 622q3 19 17 31.5t33 12.5t29.5 -12.5t8.5 -31.5q-3 -19 -17 -31.5t-33 -12.5t-29.5 12.5t-8.5 31.5zM155 518l-73 -518h-56l73 518h56z" />
    <glyph glyph-name="f_i" horiz-adv-x="473" 
d="M-32 -149q25 16 36 42.5t15 52.5l84 599q6 42 24 73.5t44.5 52.5t60 31.5t70.5 10.5l-8 -56q-52 0 -89.5 -29t-45.5 -83l-16 -116h112l-8 -56h-112l-60 -427q-7 -47 -28 -80.5t-53 -53.5zM379 645q3 19 17.5 32t33.5 13t30.5 -13t8.5 -32q-2 -19 -17 -32t-34 -13t-30 13
t-9 32zM308 0l72 518h56l-72 -518h-56z" />
    <glyph glyph-name="f_l" horiz-adv-x="504" 
d="M-32 -149q25 16 36 42.5t15 52.5l84 599q6 42 24 73.5t44.5 52.5t60 31.5t70.5 10.5l-8 -56q-52 0 -89.5 -29t-45.5 -83l-16 -116h112l-8 -56h-112l-60 -427q-7 -47 -28 -80.5t-53 -53.5zM456 -10q-76 0 -111 43t-24 121l78 555h56l-78 -555q-8 -52 13 -80t74 -28z" />
    <glyph glyph-name="uni0414.loclBGR" horiz-adv-x="663" 
d="M533 -139l19 139h-525l-19 -139h-59l27 196h66l309 651h75l128 -651h66l-28 -196h-59zM104 57h388l-113 590z" />
    <glyph glyph-name="uni041B.loclBGR" horiz-adv-x="587" 
d="M345 652h-4l-26 -55l-289 -597h-62l348 708h78l150 -708h-62l-123 598z" />
    <glyph glyph-name="uni0432.loclBGR" horiz-adv-x="496" 
d="M315 717q80 0 121.5 -38t31.5 -118q-4 -29 -17 -54.5t-30.5 -46.5t-37 -36t-36.5 -24q21 0 40.5 -9.5t33 -26t20 -39.5t2.5 -51l-17 -121q-6 -41 -26.5 -71.5t-50 -51t-65 -30.5t-71.5 -10t-69 10t-57 30t-36.5 51t-6.5 72l57 402q5 38 23.5 68t47 51t65.5 32t78 11z
M308 665q-28 0 -54 -7t-46.5 -21t-34.5 -35.5t-18 -51.5l-26 -181q26 8 61 18.5l75 22.5q60 18 100 57.5t47 90.5q15 107 -104 107zM258 360q-38 -10 -71.5 -20.5t-63.5 -19.5l-24 -167q-4 -29 5 -49.5t27 -34t41.5 -19.5t48.5 -6q24 0 49 6.5t46 19.5t36 33.5t19 49.5
l17 121q4 26 -4.5 45.5t-26 31t-43 14t-56.5 -4.5z" />
    <glyph glyph-name="uni0433.loclBGR" horiz-adv-x="438" 
d="M253 528q34 0 63 -8t48.5 -24t28.5 -41t5 -59q-5 -36 -22.5 -60t-43 -40.5t-57.5 -27.5t-66 -21q-62 -18 -97.5 -40.5t-42.5 -68.5q-8 -53 20.5 -76t84.5 -23q54 0 96 17.5t74 46.5l30 -32q-39 -39 -92 -60t-116 -21q-79 0 -120.5 36.5t-31.5 108.5q5 33 19.5 57.5
t37.5 43t55 31.5t72 24q27 8 52 16.5t44.5 20t32.5 28t16 39.5q11 80 -96 80q-40 0 -76.5 -13.5t-65.5 -38.5l-30 36q42 35 87 52t91 17z" />
    <glyph glyph-name="uni0434.loclBGR" horiz-adv-x="508" 
d="M11 0zM54 -117q16 -25 49 -38t71 -13q28 0 54.5 7t48.5 20.5t37 34.5t20 50l12 77q-35 -17 -71 -24t-72 -7q-37 0 -70.5 10.5t-58 31.5t-37 52.5t-6.5 72.5l28 205q6 41 27 72t50.5 52t65.5 31.5t72 10.5q35 0 88 -10t104 -33l-77 -540q-6 -42 -26.5 -73t-50 -51
t-66 -29.5t-74.5 -9.5q-50 0 -93 17t-68 49zM406 448q-22 10 -59 18t-79 8q-26 0 -51.5 -7t-46.5 -21t-36 -34.5t-18 -48.5l-29 -205q-5 -27 2.5 -48.5t24 -36.5t40.5 -22.5t53 -7.5q35 1 72.5 9t73.5 25z" />
    <glyph glyph-name="uni0436.loclBGR" horiz-adv-x="719" 
d="M476 286l182 -286h-68l-159 248l-59 -50l-29 -198h-54l29 198l-45 50l-230 -248h-68l265 286l-194 232h70l211 -253l62 443h54l-61 -443l280 253h71z" />
    <glyph glyph-name="uni0438.loclBGR" 
d="M359 14q-35 -10 -73 -17t-73 -7q-36 0 -69 11t-57 32t-36 52t-6 73l50 360h56l-51 -362q-4 -27 5 -47.5t26 -34.5t40.5 -21t49.5 -7q42 0 82 10.5t65 20.5l62 441h56l-68 -487z" />
    <glyph glyph-name="uni0439.loclBGR" horiz-adv-x="512" 
d="M430 688q-15 -52 -53 -79t-78 -27t-70.5 27t-30.5 79h52q2 -26 19 -40t38 -14q20 0 40.5 14t31.5 40h51zM406 25q-63 -21 -111.5 -28t-86.5 -7q-35 0 -67.5 10.5t-56 30.5t-35.5 50.5t-6 71.5l52 365h55l-52 -366q-3 -27 6 -47t25.5 -34t39 -21.5t46.5 -7.5q38 0 75 5.5
t66 16.5l64 454h55z" />
    <glyph glyph-name="uni043A.loclBGR" horiz-adv-x="482" 
d="M116 246l311 272h70l-265 -234l191 -284h-69l-166 244l-82 -72l-24 -172h-56l99 708h56z" />
    <glyph glyph-name="uni043B.loclBGR" horiz-adv-x="440" 
d="M244 465h-3l-35 -88l-179 -377h-57l246 515h72l93 -515h-58l-67 378z" />
    <glyph glyph-name="uni043F.loclBGR" 
d="M92 487q51 17 102 29t102 12q36 -1 69 -11.5t57 -31t36.5 -51.5t6.5 -73l-50 -361h-56l50 361q4 28 -5 49t-26.5 35t-41 20.5t-48.5 6.5q-42 0 -82 -10t-65 -20l-61 -442h-56z" />
    <glyph glyph-name="uni0442.loclBGR" horiz-adv-x="813" 
d="M92 484q37 19 84 31.5t94 12.5q48 0 89 -16t65 -54q34 35 77 52.5t84 17.5q39 0 72.5 -10.5t57 -32.5t34.5 -54.5t5 -76.5l-49 -354h-57l49 354q4 32 -4 54.5t-24.5 36.5t-40 20.5t-49.5 6.5q-21 0 -43.5 -6t-42 -18t-34 -30t-17.5 -42l-53 -376h-55l53 376q3 25 -7 43
t-29 30t-44.5 17.5t-52.5 5.5q-32 0 -61.5 -7.5t-49.5 -21.5l-62 -443h-57z" />
    <glyph glyph-name="uni0446.loclBGR" horiz-adv-x="534" 
d="M476 76q-8 -57 -20 -106.5t-25 -91.5h-45l24 146h-24q-38 -17 -84.5 -25t-91.5 -8q-35 0 -67.5 10.5t-56.5 30.5t-36 50.5t-6 70.5l51 366h55l-51 -367q-4 -26 5 -46.5t26 -34.5t39.5 -21t46.5 -7q35 0 71.5 4.5t65.5 16.5l63 455h56l-62 -443h66z" />
    <glyph glyph-name="uni0448.loclBGR" horiz-adv-x="784" 
d="M679 34q-37 -20 -82 -32t-88 -12q-44 0 -84.5 16t-63.5 54q-37 -39 -75.5 -54.5t-80.5 -15.5q-38 0 -70.5 10t-54.5 30.5t-32 52t-4 73.5l51 362h55l-50 -360q-5 -31 2.5 -53t23 -35.5t37 -19.5t46.5 -6q21 0 43.5 6.5t41.5 18t32.5 28.5t16.5 40l54 381h54l-54 -381
q-3 -24 6 -42t26.5 -29.5t41 -17.5t49.5 -6q30 0 59 7t50 20l62 449h56z" />
    <glyph glyph-name="uni0449.loclBGR" horiz-adv-x="809" 
d="M751 76q-8 -57 -20 -106.5t-26 -91.5h-44l24 146l-26 -1q-35 -16 -74 -24.5t-77 -8.5q-44 0 -84.5 16t-63.5 54q-36 -39 -74.5 -54.5t-80.5 -15.5q-38 0 -70.5 10t-54.5 30.5t-32 52t-4 73.5l51 362h55l-50 -360q-5 -31 2.5 -53t23 -35.5t37 -19.5t46.5 -6q21 0 43.5 7
t41.5 19t32.5 29t16.5 38l53 381h54l-54 -381q-3 -24 6 -42t26.5 -29.5t41 -17.5t49.5 -6q30 0 59 6t50 17l63 453h56l-62 -442h66z" />
    <glyph glyph-name="uni044E.loclBGR" horiz-adv-x="707" 
d="M279 365q6 40 27 70.5t51 51t66 31t72 10.5t68.5 -10.5t56.5 -31t36 -51t6 -70.5l-30 -212q-6 -41 -26.5 -71.5t-50 -50.5t-65 -30.5t-71.5 -10.5t-69 10.5t-57 30.5t-36.5 50.5t-6.5 71.5l13 94h-148l-35 -247h-55l100 708h55l-57 -409h148zM487 473q-25 0 -50 -6
t-46.5 -19.5t-37 -34t-19.5 -48.5l-29 -212q-4 -29 5 -49.5t27 -33.5t41.5 -19.5t48.5 -6.5q24 0 49 6.5t46 19.5t36 33.5t19 49.5l30 212q4 28 -5 48.5t-26.5 34t-41 19.5t-47.5 6z" />
    <glyph glyph-name=".ttfautohint" horiz-adv-x="240" 
d="M0 0z" />
    </font>
</defs>
</svg>
