<?xml version="1.0" standalone="no"?>
<!DOCTYPE svg PUBLIC "-//W3C//DTD SVG 1.1//EN" "http://www.w3.org/Graphics/SVG/1.1/DTD/svg11.dtd" >
<svg xmlns="http://www.w3.org/2000/svg" xmlns:xlink="http://www.w3.org/1999/xlink" version="1.1">
<metadata>
Created by FontForge 20170731 at Fri May 16 14:46:34 2014
 By Aleksey,,,
Copyright (c) 2014 by (c) 2009 Designed by Svetoslav Simov (c) Fontfabric, Inc. All rights reserved.
</metadata>
<defs>
<font id="UniSansBoldItalic" horiz-adv-x="510" >
  <font-face 
    font-family="Uni Sans Bold Italic"
    font-weight="700"
    font-style="italic"
    font-stretch="normal"
    units-per-em="1000"
    panose-1="0 0 5 0 0 0 0 0 0 0"
    ascent="756"
    descent="-244"
    x-height="518"
    cap-height="708"
    bbox="-83 -264 1026.31 993"
    underline-thickness="50"
    underline-position="-150"
    unicode-range="U+0020-FB02"
  />
<missing-glyph horiz-adv-x="601" 
d="M540 0h-529l98 700h529zM340 458q11 14 20.5 26t19.5 24t20 25t23 29h-139zM272 363l-63 121l-37 -262l106 127zM376 349l70 -127l37 262l-97 -121zM363 139q-8 12 -20 36t-35 66l-84 -102h139z" />
    <glyph glyph-name="fi" unicode="fi" horiz-adv-x="558" 
d="M400 645q3 18 11.5 33t21 26t28.5 17.5t33 6.5q38 0 57.5 -24t14.5 -59t-31.5 -59.5t-64.5 -24.5q-17 0 -31 6.5t-23.5 18t-13.5 26.5t-2 33zM325 0l72 519h139l-72 -519h-139zM-37 -80q32 23 39 45t9 36l72 514q7 53 29.5 93t57 65.5t79.5 36t98 3.5l-20 -137
q-25 4 -44 0t-32 -13t-20.5 -22t-9.5 -26l-3 -24h92l-17 -125h-92l-52 -365q-8 -51 -39.5 -93t-91.5 -76z" />
    <glyph glyph-name="fl" unicode="fl" horiz-adv-x="592" 
d="M544 2q-58 -9 -98 4t-63.5 40t-32 65.5t-2.5 80.5l73 516h139l-73 -516q-4 -29 13.5 -50t60.5 -21zM-37 -80q32 23 39 45t9 36l72 514q7 53 29.5 93t57 65.5t79.5 36t98 3.5l-20 -137q-25 4 -44 0t-32 -13t-20.5 -22t-9.5 -26l-3 -24h92l-17 -125h-92l-52 -365
q-8 -51 -39.5 -93t-91.5 -76z" />
    <glyph glyph-name=".notdef" horiz-adv-x="601" 
d="M540 0h-529l98 700h529zM340 458q11 14 20.5 26t19.5 24t20 25t23 29h-139zM272 363l-63 121l-37 -262l106 127zM376 349l70 -127l37 262l-97 -121zM363 139q-8 12 -20 36t-35 66l-84 -102h139z" />
    <glyph glyph-name=".null" horiz-adv-x="0" 
 />
    <glyph glyph-name="nonmarkingreturn" horiz-adv-x="333" 
 />
    <glyph glyph-name="space" unicode=" " horiz-adv-x="196" 
 />
    <glyph glyph-name="exclam" unicode="!" horiz-adv-x="256" 
d="M114 708h141l-73 -517h-141zM10 76q3 18 11.5 34t21.5 27.5t29.5 18.5t34.5 7q37 0 58.5 -25.5t16.5 -61.5q-3 -18 -11.5 -33.5t-22 -27.5t-30.5 -18.5t-35 -6.5q-36 0 -57 25t-16 61z" />
    <glyph glyph-name="quotedbl" unicode="&#x22;" horiz-adv-x="415" 
d="M192 436h-122l38 271h142zM371 436h-123l38 271h142z" />
    <glyph glyph-name="numbersign" unicode="#" horiz-adv-x="728" 
d="M619 183h-149q-32 -75 -51 -118.5t-28 -65.5h-137l78 184h-72l-79 -184h-138l80 184h-115l45 133h128q6 12 10 20.5t12 27.5h-136l48 135h147q18 41 38 88t37 86h138l-75 -174h72l75 174h140l-77 -174h121l-57 -135h-125l-20 -48h137zM400 307l27 66h-97l-26 -66h96z" />
    <glyph glyph-name="dollar" unicode="$" horiz-adv-x="569" 
d="M195 -8q-60 7 -111 40t-83 93l123 85q14 -28 38.5 -45.5t53.5 -25.5l22 154q-39 7 -74 22t-60.5 41t-37.5 64.5t-3 94.5q9 43 31 77.5t53.5 59.5t70 41t79.5 22l9 61h95l-9 -60q57 -8 103.5 -36.5t75.5 -85.5l-132 -81q-25 45 -67 60l-21 -149q41 -9 77.5 -24.5
t61.5 -41.5t35.5 -65.5t0.5 -97.5q-10 -42 -32.5 -75.5t-54 -58.5t-70 -41.5t-78.5 -23.5l-9 -66h-95zM212 509q-4 -27 10 -41.5t37 -22.5l18 127q-26 -8 -43 -23t-22 -39v-1zM379 205q6 29 -8.5 44.5t-40.5 24.5l-19 -136q26 8 44.5 24.5t23.5 42.5z" />
    <glyph glyph-name="percent" unicode="%" horiz-adv-x="733" 
d="M606 745l100 -72l-595 -748l-99 68zM357 537q-6 -42 -22 -75.5t-39 -56.5t-52 -35.5t-61 -12.5q-71 0 -103 46t-20 136q6 41 21.5 74t38.5 56t52 35.5t61 12.5q72 0 104 -46.5t20 -133.5zM253 537q5 40 -4.5 58t-31.5 18q-21 0 -37.5 -18t-21.5 -57q-6 -42 5 -59t32 -17
q23 0 38 18.5t20 56.5zM689 176q-6 -42 -22 -75.5t-39 -56.5t-52 -35.5t-61 -12.5q-71 0 -103 46t-19 136q6 41 21.5 74t38.5 56t52 35.5t61 12.5q72 0 103.5 -46.5t19.5 -133.5zM585 176q6 40 -4 58t-32 18q-21 0 -37 -18t-22 -57q-5 -42 6 -59t32 -17q47 0 57 75z" />
    <glyph glyph-name="ampersand" unicode="&#x26;" horiz-adv-x="663" 
d="M593 268l-82 -83l115 -170h-171l-42 61q-43 -40 -88.5 -60t-107.5 -20q-48 0 -87.5 15.5t-66.5 44t-39 69t-5 91.5q5 34 18 62t31 50.5t40.5 40.5t46.5 33q-16 28 -25.5 60.5t-4.5 68.5q6 44 27.5 78t52.5 57.5t68.5 35.5t75.5 12q36 0 67 -12.5t53.5 -35t33 -54.5
t5.5 -71q-5 -32 -17 -57.5t-29 -46t-38 -36.5t-44 -29l65 -91l71 73zM327 588q-23 0 -41 -15.5t-21 -38.5q-3 -17 5 -38t22 -40q28 14 51.5 36t26.5 47q3 22 -9 35.5t-34 13.5zM234 299q-28 -17 -50 -37t-26 -46q-5 -32 10.5 -53.5t41 -29t57 1.5t60.5 38z" />
    <glyph glyph-name="quotesingle" unicode="'" horiz-adv-x="237" 
d="M196 436h-126l38 271h140z" />
    <glyph glyph-name="parenleft" unicode="(" horiz-adv-x="307" 
d="M350 725q-77 -83 -122.5 -179t-60 -197.5t3.5 -202.5t69 -193l-114 -71q-61 108 -82 230.5t-3.5 244.5t72.5 235t146 201z" />
    <glyph glyph-name="parenright" unicode=")" horiz-adv-x="306" 
d="M184 793q66 -88 89.5 -201t6.5 -235t-72.5 -244.5t-146.5 -230.5l-93 71q76 92 122 193t60 202.5t-5 197.5t-72 179z" />
    <glyph glyph-name="asterisk" unicode="*" horiz-adv-x="462" 
d="M464 510l-119 -22l67 -93l-114 -78l-51 108l-77 -108l-96 77l91 93l-110 25l54 126l108 -47l6 118h130l-28 -117l120 44z" />
    <glyph glyph-name="plus" unicode="+" horiz-adv-x="568" 
d="M257 581h140l-26 -184h182l-20 -141h-182l-26 -186h-140l26 186h-190l20 141h190z" />
    <glyph glyph-name="comma" unicode="," horiz-adv-x="269" 
d="M75 -122h-140l109 233h156z" />
    <glyph glyph-name="hyphen" unicode="-" horiz-adv-x="397" 
d="M334 222h-295l20 141h295z" />
    <glyph glyph-name="period" unicode="." horiz-adv-x="242" 
d="M5 81q5 36 33 61t64 25t57.5 -25t16.5 -61q-5 -37 -33.5 -62t-64.5 -25t-57 25t-16 62z" />
    <glyph glyph-name="slash" unicode="/" horiz-adv-x="476" 
d="M102 -54l-125 48l412 768l124 -46z" />
    <glyph glyph-name="zero" unicode="0" horiz-adv-x="604" 
d="M258 -8q-45 0 -89 12.5t-77 39t-50.5 66.5t-9.5 96l42 295q8 56 36.5 96.5t69 67t88 39t92.5 12.5t89 -12.5t77 -39t50.5 -67t9.5 -96.5l-42 -295q-8 -56 -36.5 -96t-69 -66.5t-88 -39t-92.5 -12.5zM173 206q-2 -26 13 -43t39 -25.5t52.5 -8.5t54.5 8.5t45.5 25.5
t25.5 43l42 295q2 26 -13 43.5t-38.5 26.5t-52 9t-55 -9t-46 -26.5t-25.5 -43.5z" />
    <glyph glyph-name="one" unicode="1" horiz-adv-x="357" 
d="M119 0l70 499l-76 -58l-81 78l208 191h116l-99 -710h-138z" />
    <glyph glyph-name="two" unicode="2" horiz-adv-x="557" 
d="M73 572q52 72 123 109t143 37q62 0 105.5 -19t69 -50.5t32.5 -73t-3.5 -86.5t-39 -91t-73.5 -86l-209 -176l1 -6l102 11l169 1l-19 -141h-458l-27 76l356 337q18 16 31.5 34t21.5 36t8.5 34t-7.5 29q-14 24 -42 32.5t-60 1.5t-65 -28.5t-58 -56.5z" />
    <glyph glyph-name="three" unicode="3" horiz-adv-x="570" 
d="M84 596q46 60 109 91t141 31q31 0 62 -8.5t57.5 -25t45.5 -42t27 -58.5q6 -24 6 -50t-8.5 -52.5t-27.5 -52.5t-51 -49q28 -15 45 -36.5t25 -46.5t9 -51t-3 -50q-8 -44 -31.5 -81.5t-60 -65t-83 -43t-100.5 -15.5q-26 0 -60.5 4t-70.5 19.5t-68.5 45.5t-52.5 82l121 80
q19 -42 54.5 -65.5t73.5 -23.5q59 0 92.5 26t39.5 58t-16 59.5t-75 30.5h-99l17 125h99q31 0 55 20t29 52q2 16 -3.5 29t-16 22.5t-26 14.5t-32.5 5q-30 0 -70 -11t-77 -50z" />
    <glyph glyph-name="four" unicode="4" horiz-adv-x="563" 
d="M508 159h-58l-22 -159h-141l22 159h-260l-53 99l405 451h126l-59 -421h58zM170 278h159l24 149q7 23 13 42q5 17 9.5 33t6.5 24l-5 1l-39 -55z" />
    <glyph glyph-name="five" unicode="5" horiz-adv-x="565" 
d="M137 210q18 -37 50 -55.5t64 -18.5q39 0 67.5 16.5t45.5 41t21.5 53.5t-4.5 53.5t-32.5 41t-62.5 17.5q-20 0 -36 -2t-33.5 -7.5t-38 -14.5t-47.5 -23l-82 -1l56 397h442l-20 -139h-306l-13 -97q33 13 65 17t61.5 2t55.5 -9.5t47 -18.5q49 -26 73 -71.5t25 -98
t-19.5 -106.5t-59 -98t-93.5 -71.5t-123 -27.5q-21 0 -52 4.5t-62.5 20t-60.5 45t-46 78.5z" />
    <glyph glyph-name="six" unicode="6" horiz-adv-x="597" 
d="M457 521q-9 27 -29.5 42.5t-46.5 21t-54 2t-51.5 -14.5t-40.5 -29t-20 -41l-14 -102q34 31 75.5 45t83 12.5t80 -16.5t66.5 -42.5t42.5 -66t8.5 -85.5l-5 -42q-6 -54 -33.5 -94t-67.5 -67t-89 -40.5t-98 -13.5q-50 0 -95 13t-78 40t-50 67.5t-9 94.5l42 298q7 54 35 94.5
t68.5 67.5t89.5 40t99 13q72 0 131 -33t92 -111zM416 246q3 25 -12 42t-40 25.5t-56 8.5t-58.5 -8.5t-47.5 -25.5t-23 -42l-5 -37q-4 -25 11.5 -42t40.5 -25.5t56 -8.5t58.5 8.5t47 25t23.5 42.5z" />
    <glyph glyph-name="seven" unicode="7" horiz-adv-x="535" 
d="M547 709l30 -82l-427 -627h-159l384 575h-307l19 134h460z" />
    <glyph glyph-name="eight" unicode="8" horiz-adv-x="617" 
d="M256 -10q-56 0 -102.5 15.5t-78 46t-46 75t-6.5 101.5q5 38 32 82t84 78q-26 18 -37.5 45.5t-12 57t8.5 58.5t23 51q19 29 45.5 51t57.5 37t65 22.5t69 7.5h16q45 0 86 -12t71 -37t45 -64t7 -94q-4 -29 -25 -63.5t-59 -56.5q25 -13 40.5 -31.5t24 -40t10 -45t-1.5 -46.5
q-9 -57 -36.5 -101.5t-67 -75t-90 -46t-106.5 -15.5h-16zM340 596q-18 0 -36 -5.5t-33 -15.5t-25.5 -24.5t-13.5 -32.5q-3 -21 4.5 -35.5t20.5 -23.5t30.5 -13.5t35.5 -4.5q19 0 39 4.5t37 13.5t29 23.5t15 35.5q3 18 -3 32t-18.5 24t-29.5 15.5t-35 6.5h-17zM291 128
q21 0 43 6t41 18t33 29t17 40q3 27 -4.5 45.5t-22.5 30t-35.5 16.5t-44.5 5h-16q-24 0 -46.5 -5t-41 -16.5t-31 -30t-15.5 -45.5q-3 -23 5.5 -40t24 -29t36 -18t41.5 -6h16z" />
    <glyph glyph-name="nine" unicode="9" horiz-adv-x="597" 
d="M153 187q9 -27 29.5 -42.5t46 -21t53.5 -2t52 14.5t40.5 29t20.5 41l15 102q-35 -30 -77 -44t-84 -13t-80.5 16.5t-66.5 42.5t-42 65t-7 86l6 42q7 54 34.5 94t67.5 67t88 40.5t98 13.5q49 0 94.5 -13t78.5 -40t49.5 -67.5t9.5 -94.5l-42 -298q-8 -54 -36 -94.5
t-68.5 -67.5t-89.5 -40t-98 -13q-72 0 -131.5 33t-91.5 111zM194 462q-3 -26 12.5 -42.5t40.5 -25t55.5 -8.5t58 8.5t47.5 25.5t23 42l5 40q3 25 -12.5 42t-40.5 25.5t-55.5 8.5t-58 -8.5t-47.5 -25.5t-23 -42z" />
    <glyph glyph-name="colon" unicode=":" horiz-adv-x="267" 
d="M61 404q5 36 33.5 60.5t64.5 24.5t57.5 -24.5t16.5 -60.5q-2 -18 -11 -34t-22.5 -27.5t-30 -18.5t-34.5 -7t-32.5 7t-24.5 18.5t-14.5 27.5t-2.5 34zM18 93q5 38 33.5 62t64.5 24t57.5 -24t16.5 -62q-3 -18 -12 -33.5t-22.5 -27.5t-30 -18.5t-34.5 -6.5q-36 0 -57 25
t-16 61z" />
    <glyph glyph-name="semicolon" unicode=";" horiz-adv-x="278" 
d="M67 392q5 36 33 60.5t66 24.5q37 0 57 -24.5t15 -60.5q-5 -37 -32.5 -62t-64.5 -25q-38 0 -58.5 25t-15.5 62zM88 -95h-124l88 232h153z" />
    <glyph glyph-name="less" unicode="&#x3c;" horiz-adv-x="427" 
d="M362 187l-23 -162l-323 224l13 92l386 227l-22 -161l-213 -112z" />
    <glyph glyph-name="equal" unicode="=" horiz-adv-x="531" 
d="M480 315h-427l19 137h427zM454 132h-427l19 136h427z" />
    <glyph glyph-name="greater" unicode="&#x3e;" horiz-adv-x="426" 
d="M394 249l-385 -224l23 162l212 108l-181 112l22 161l322 -227z" />
    <glyph glyph-name="question" unicode="?" horiz-adv-x="481" 
d="M65 613q52 57 107.5 81.5t107.5 24.5q68 0 113 -27.5t67.5 -70t22 -93t-23 -96t-68 -79.5t-113.5 -44l-26 -113h-121l20 207q20 -5 36.5 -6t24.5 -1q35 0 61 15t41 37.5t19 48t-5 46.5t-32 34t-60 10q-23 -2 -47 -14t-45 -36zM92 69q5 35 31 57t59 22t53 -22t15 -57
q-5 -33 -31 -56t-59 -23t-53 23t-15 56z" />
    <glyph glyph-name="at" unicode="@" horiz-adv-x="772" 
d="M531 227q39 20 66.5 50t43 65.5t18.5 74t-6 75.5q-11 43 -42 72t-77 42q-75 20 -138 4t-112 -55.5t-81.5 -94.5t-46 -113.5t-6 -112.5t39 -91t88.5 -50.5t143 10.5l10 -94q-88 -27 -167.5 -15t-135 57t-80.5 119.5t-5 173.5q11 53 35 105.5t60 98.5t82 83t100.5 59
t116.5 26.5t129 -13.5q68 -17 115 -58t68 -98q16 -43 15 -94.5t-17 -102t-46 -96.5t-71 -79q-20 -16 -48 -29t-57.5 -18t-57.5 -0.5t-49 22.5q-23 -15 -49 -20t-50.5 -1t-46.5 15t-37 28q-27 28 -36 65t-4 76.5t22 78.5t42.5 72.5t57.5 57.5t67 33t71 -0.5t69 -42.5l26 25
l76 -19zM486 404q-11 26 -28.5 37t-37 10t-39 -13t-35.5 -31q-13 -16 -22 -37t-12.5 -42.5t-0.5 -41.5t13 -34q9 -12 23.5 -17t30 -4t30.5 7.5t26 17.5z" />
    <glyph glyph-name="A" unicode="A" horiz-adv-x="634" 
d="M597 0h-154l-40 162h-211l-81 -162h-157l347 708h141zM248 297h136l-23 154l-6 101h-11l-34 -102z" />
    <glyph glyph-name="B" unicode="B" horiz-adv-x="624" 
d="M592 501q-2 -15 -8.5 -32.5t-17 -34.5t-25.5 -32t-34 -25q31 -16 48 -39t24 -49t5 -54t-9 -55q-10 -36 -30.5 -68.5t-53.5 -57t-79 -39.5t-107 -15h-285l99 709h280q46 0 84.5 -13t65 -39.5t38.5 -65.5t5 -90zM360 431q37 0 60.5 21t28.5 46t-11.5 46t-58.5 21h-133
l-19 -134h133zM320 143q34 0 59 12t39 30t17 39t-6 39t-30.5 30t-56.5 12h-133l-22 -162h133z" />
    <glyph glyph-name="C" unicode="C" horiz-adv-x="583" 
d="M548 139q-57 -75 -130.5 -112t-144.5 -37q-51 0 -98.5 15t-82.5 44.5t-52.5 73.5t-8.5 103l38 257q9 58 39 102t73 73.5t94.5 44.5t104.5 15q35 0 70 -9t65 -28t53.5 -47.5t36.5 -67.5l-128 -68q-15 39 -50 57.5t-74 18.5q-24 0 -47.5 -6.5t-42.5 -18.5t-32.5 -29.5
t-16.5 -40.5l-37 -253q-3 -22 4 -39.5t22 -29.5t36 -18t44 -6q40 0 81 18.5t67 58.5z" />
    <glyph glyph-name="D" unicode="D" horiz-adv-x="637" 
d="M379 708q52 0 99 -13.5t80.5 -41.5t50 -71.5t8.5 -103.5l-36 -252q-8 -60 -36.5 -102.5t-70 -70t-92 -40.5t-102.5 -13h-260l99 708h260zM300 148q24 0 46.5 4t41 13.5t30.5 24.5t15 36l36 252q3 22 -5 37.5t-23.5 25.5t-37 14.5t-45.5 4.5h-113l-58 -412h113z" />
    <glyph glyph-name="E" unicode="E" horiz-adv-x="584" 
d="M227 426h305l-20 -143h-305l-19 -140h332l-20 -143h-480l99 709h480l-20 -144h-332z" />
    <glyph glyph-name="F" unicode="F" horiz-adv-x="571" 
d="M225 409h290l-20 -145h-290l-37 -264h-148l99 708h479l-20 -143h-331z" />
    <glyph glyph-name="G" unicode="G" horiz-adv-x="620" 
d="M477 497q-11 40 -45 59t-75 19q-24 0 -48 -6t-44 -18.5t-33.5 -31t-16.5 -42.5l-36 -249q-3 -24 5.5 -41.5t25.5 -29.5t39.5 -18t47.5 -6t49.5 6t45 18t34.5 29.5t17 41.5l7 52h-161l17 124h295l-24 -176q-9 -60 -38 -104.5t-70.5 -74.5t-92.5 -44.5t-103 -14.5
q-51 0 -98 15.5t-81.5 45t-51.5 74t-9 103.5l36 257q8 58 37.5 101.5t72.5 73t94.5 44t103.5 14.5q36 0 71 -8t65 -25.5t54 -46t38 -70.5z" />
    <glyph glyph-name="H" unicode="H" horiz-adv-x="680" 
d="M167 0h-147l99 708h147l-39 -281h261l39 281h147l-99 -708h-147l39 280h-261z" />
    <glyph glyph-name="I" unicode="I" horiz-adv-x="272" 
d="M167 0h-147l99 708h147z" />
    <glyph glyph-name="J" unicode="J" horiz-adv-x="597" 
d="M596 708l-68 -486q-8 -58 -36 -101.5t-67.5 -72.5t-88 -43.5t-98.5 -14.5q-44 0 -88 14t-79 43.5t-56.5 73.5t-20.5 104l142 28q1 -30 11 -52t26 -37t35.5 -22.5t40.5 -7.5q22 0 44 5.5t40.5 17t31.5 30t16 45.5l47 337h-167l20 139h315z" />
    <glyph glyph-name="K" unicode="K" horiz-adv-x="633" 
d="M518 708h179l-353 -347l254 -361h-182l-185 263l-31 -27l-33 -236h-147l99 708h147l-41 -295z" />
    <glyph glyph-name="L" unicode="L" horiz-adv-x="529" 
d="M119 708h147l-79 -560h306l-20 -148h-453z" />
    <glyph glyph-name="M" unicode="M" horiz-adv-x="779" 
d="M416 93h-110l-66 228l-21 97h-10l-3 -137l-39 -281h-147l99 708h154l115 -407l231 407h154l-99 -708h-147l39 282l37 137h-11l-48 -99z" />
    <glyph glyph-name="N" unicode="N" horiz-adv-x="680" 
d="M527 708h147l-99 -708h-157l-164 372l-30 96h-4l-4 -123l-48 -345h-148l99 708h145l170 -386l35 -126h3l4 150z" />
    <glyph glyph-name="O" unicode="O" horiz-adv-x="668" 
d="M68 481q8 60 39.5 104.5t77.5 74t101 44t110 13.5q54 -1 103 -16t84.5 -44.5t54 -73.5t10.5 -102l-35 -255q-8 -59 -39.5 -103.5t-77 -74t-100 -44t-109.5 -14.5q-54 0 -103 15t-85.5 44.5t-55 73.5t-10.5 103zM177 222q-3 -23 6.5 -39.5t28 -27.5t43.5 -16.5t52 -5.5
t53.5 5.5t48.5 17t37 28t18 38.5l39 263q3 23 -6.5 40t-28 28t-43 16.5t-51.5 5.5t-54 -5.5t-49 -17t-37 -28.5t-18 -39z" />
    <glyph glyph-name="P" unicode="P" horiz-adv-x="618" 
d="M119 708h279q59 0 102 -18.5t70 -49t39 -70.5t10 -82q-3 -56 -23.5 -105t-57 -85.5t-89 -57.5t-119.5 -21h-134l-30 -219h-146zM349 357q28 0 50.5 9.5t38.5 25.5t24.5 35.5t9.5 39.5q2 36 -21 64.5t-74 28.5h-133l-28 -203h133z" />
    <glyph glyph-name="Q" unicode="Q" horiz-adv-x="668" 
d="M613 226q-5 -38 -20.5 -71t-38.5 -59l61 -72l-78 -60l-59 71q-41 -23 -87 -34t-94 -11q-55 0 -106.5 14.5t-89 43.5t-57 73.5t-11.5 104.5l35 255q8 60 39.5 104.5t76.5 74t99.5 44t109.5 14.5q54 0 103.5 -15.5t86 -45t55 -74t10.5 -102.5zM464 222l39 263q3 23 -6.5 40
t-28 28t-43 16.5t-51.5 5.5t-54 -5.5t-49 -17t-37 -28.5t-18 -39l-39 -263q-3 -22 6.5 -38.5t27.5 -28t42.5 -17t51.5 -5.5q52 0 84 9l-54 65l79 57l47 -56z" />
    <glyph glyph-name="R" unicode="R" horiz-adv-x="633" 
d="M256 259h-52l-36 -259h-148l99 708h279q53 0 97 -12.5t74 -40t43.5 -70.5t6.5 -103q-14 -98 -63 -148t-128 -65l174 -269h-181zM354 393q49 0 80 20.5t38 67.5q3 22 -2.5 37.5t-18.5 24.5t-32 13t-42 4h-131l-23 -167h131z" />
    <glyph glyph-name="S" unicode="S" horiz-adv-x="569" 
d="M119 213q12 -20 29 -35t37.5 -25t42 -15.5t41.5 -5.5q45 0 73 18t36 55q4 23 -4.5 37.5t-26 24t-42 14.5t-51.5 9q-41 6 -79 22.5t-66 44t-42 67t-5 91.5q9 54 35.5 92t64 63t83 36.5t93.5 11.5q69 0 127 -28t102 -95l-121 -77q-23 31 -53 44.5t-65 13.5q-21 0 -40.5 -3
t-35.5 -10.5t-27 -20.5t-14 -33q-4 -21 4.5 -34.5t24.5 -21.5t37.5 -13t44.5 -10q45 -9 86.5 -22.5t71 -40.5t43 -70.5t2.5 -110.5q-9 -56 -35.5 -93.5t-65.5 -60t-87.5 -32.5t-101.5 -10q-35 0 -69 8.5t-65 25.5t-57 42t-44 59z" />
    <glyph glyph-name="T" unicode="T" horiz-adv-x="583" 
d="M400 561l-78 -561h-148l78 561h-203l21 148h554l-21 -148h-203z" />
    <glyph glyph-name="U" unicode="U" horiz-adv-x="671" 
d="M195 232q-4 -25 5 -44t25.5 -31t39.5 -18t48 -6q24 0 48 6t43.5 18.5t33.5 31t17 43.5l67 476h148l-67 -476q-9 -61 -39.5 -106.5t-74 -75.5t-95.5 -45t-104 -15t-99.5 15.5t-82 45.5t-52 75.5t-9.5 105.5l67 476h148z" />
    <glyph glyph-name="V" unicode="V" horiz-adv-x="643" 
d="M548 708h157l-355 -707h-142l-157 707h157l79 -392l8 -146h11l48 146z" />
    <glyph glyph-name="W" unicode="W" horiz-adv-x="920" 
d="M59 708h152l49 -370l-1 -165h9l47 166l128 271h119l48 -273l5 -171h9l43 171l155 371h151l-303 -708h-144l-53 273l-4 85h-8q-8 -24 -15 -43q-6 -17 -11 -30.5t-5 -12.5l-121 -272h-144z" />
    <glyph glyph-name="X" unicode="X" horiz-adv-x="632" 
d="M411 0l-107 250l-166 -250h-181l258 353l-157 355h179l96 -252l178 252h179l-274 -356l175 -352h-180z" />
    <glyph glyph-name="Y" unicode="Y" horiz-adv-x="627" 
d="M197 0l38 271l-185 437h169l108 -296l192 296h171l-308 -437l-38 -271h-147z" />
    <glyph glyph-name="Z" unicode="Z" horiz-adv-x="594" 
d="M590 708l32 -67l-425 -508h339l-18 -133h-510l-25 67l424 508h-334l18 133h499z" />
    <glyph glyph-name="bracketleft" unicode="[" horiz-adv-x="310" 
d="M158 26h75l-19 -135h-217l116 822h217l-19 -136h-75z" />
    <glyph glyph-name="backslash" unicode="\" horiz-adv-x="479" 
d="M78 715l140 47l196 -774l-140 -45z" />
    <glyph glyph-name="bracketright" unicode="]" horiz-adv-x="307" 
d="M148 581h-73l19 133h216l-116 -822h-215l19 132h72z" />
    <glyph glyph-name="asciicircum" unicode="^" horiz-adv-x="615" 
d="M601 394h-167l-97 144l-134 -144h-161l276 299h85z" />
    <glyph glyph-name="underscore" unicode="_" horiz-adv-x="600" 
d="M490 -131h-502l20 139h502z" />
    <glyph glyph-name="grave" unicode="`" horiz-adv-x="257" 
d="M33 906h171l71 -150h-139z" />
    <glyph glyph-name="a" unicode="a" 
d="M291 42q-21 -25 -50.5 -38.5t-57.5 -13.5q-35 0 -67 11.5t-55 34.5t-34 56.5t-5 77.5l24 170q7 52 30.5 88t57.5 58.5t75 32t83 9.5q48 0 98.5 -14.5t91.5 -36.5l-65 -477h-114zM334 393q-16 10 -40 12.5t-47 -3.5t-41 -21t-21 -40l-23 -164q-4 -29 16 -44.5t47 -15.5
q23 0 41 5.5t32 13.5z" />
    <glyph glyph-name="b" unicode="b" 
d="M221 510q43 18 89 18q36 -1 68.5 -13t56 -34.5t35.5 -55t6 -73.5l-25 -185q-11 -50 -34.5 -84t-55.5 -54.5t-70.5 -29.5t-79.5 -9q-49 0 -100.5 10.5t-96.5 28.5l96 678h140zM166 102q16 -9 39.5 -10.5t45.5 4.5t39 20.5t21 37.5l27 199q1 22 -13 35.5t-34 19t-43.5 2.5
t-41.5 -12z" />
    <glyph glyph-name="c" unicode="c" horiz-adv-x="466" 
d="M425 131q-19 -39 -45.5 -66t-56 -43.5t-60.5 -24t-59 -7.5q-39 0 -74.5 11.5t-62 34t-39.5 57t-7 80.5l24 171q6 46 29 80.5t55.5 57.5t71.5 34.5t78 11.5q28 0 57 -7t54 -23.5t42.5 -43t22.5 -66.5l-124 -40q-5 27 -24 39.5t-43 12.5q-27 0 -51.5 -15t-28.5 -43
l-23 -166q-4 -28 15 -44t45 -16q24 0 49 13.5t39 43.5z" />
    <glyph glyph-name="d" unicode="d" horiz-adv-x="511" 
d="M419 29q-50 -18 -104 -28.5t-103 -10.5q-41 0 -78.5 8t-64.5 28.5t-40.5 55t-6.5 87.5l25 183q6 46 27 79.5t51 54.5t66 31.5t72 10.5q46 0 84 -18l28 197h140zM332 404q-11 6 -23.5 9.5t-29.5 3.5q-15 0 -30.5 -4t-28.5 -12.5t-22.5 -22t-12.5 -31.5l-26 -176
q-3 -22 2.5 -37t16.5 -24t27 -13t33 -4q28 0 52 11z" />
    <glyph glyph-name="e" unicode="e" horiz-adv-x="478" 
d="M411 97q-48 -59 -103 -83t-106 -24q-38 0 -73.5 11.5t-61.5 35t-39 58t-7 80.5l23 162q7 47 29.5 83t55 60t71.5 36t78 12t74.5 -12t60.5 -36t37.5 -59t5.5 -81q-8 -54 -40.5 -88.5t-76.5 -51t-92 -16t-86 15.5l-4 -25q-2 -16 3 -27.5t15.5 -19.5t25 -12t30.5 -4
q28 0 56 11t45 31zM174 297q33 -11 70 -11q27 0 52.5 14.5t28.5 40.5q2 16 -3 27.5t-14.5 18.5t-21.5 10.5t-25 3.5q-27 0 -52 -17.5t-29 -45.5z" />
    <glyph glyph-name="f" unicode="f" horiz-adv-x="306" 
d="M-37 -80q32 23 39 45t9 36l72 514q7 53 29.5 93t57 65.5t79.5 36t98 3.5l-20 -137q-25 4 -44 0t-32 -13t-20.5 -22t-9.5 -26l-3 -24h92l-17 -125h-92l-52 -365q-8 -51 -39.5 -93t-91.5 -76z" />
    <glyph glyph-name="g" unicode="g" horiz-adv-x="505" 
d="M410 8q-10 -63 -33 -104t-55.5 -66t-71.5 -35t-81 -10q-54 0 -103 21.5t-79 63.5l81 73q15 -17 41 -26t53 -9q39 0 68.5 19t37.5 68q-21 -6 -41.5 -9.5t-40.5 -3.5q-37 0 -70 10.5t-56 31.5t-34.5 52.5t-5.5 73.5l29 196q7 48 29.5 81t55.5 54t73 30t82 9
q53 1 102.5 -11.5t87.5 -32.5zM329 412q-21 10 -51 10q-36 0 -63 -16t-32 -49l-28 -190q-5 -35 17 -50t57 -15q31 0 57 13z" />
    <glyph glyph-name="h" unicode="h" horiz-adv-x="517" 
d="M222 512q42 16 87 16q37 0 69.5 -12t55.5 -35t34 -58t5 -81l-48 -342h-138l48 343q2 16 -3 27t-15 18t-24 10.5t-29 3.5q-34 0 -59 -14l-55 -388h-139l99 708h139z" />
    <glyph glyph-name="i" unicode="i" horiz-adv-x="246" 
d="M86 644q3 18 11.5 33t21 26t28.5 17.5t33 6.5q38 0 57.5 -24t14.5 -59t-31.5 -59.5t-64.5 -24.5q-17 0 -31 6.5t-23.5 18t-13.5 26.5t-2 33zM222 519l-72 -519h-139l72 519h139z" />
    <glyph glyph-name="j" unicode="j" horiz-adv-x="247" 
d="M87 643q3 18 11.5 33.5t21.5 26.5t29 17.5t33 6.5q35 0 56 -24t16 -60q-3 -17 -11.5 -32.5t-21.5 -26.5t-29 -17.5t-34 -6.5q-35 0 -55.5 24t-15.5 59zM-68 -76q23 -2 37.5 4t23 16.5t12 23t5.5 23.5l74 528h139l-74 -528q-6 -42 -23 -79t-46 -61.5t-69.5 -34.5t-93.5 1z
" />
    <glyph glyph-name="k" unicode="k" horiz-adv-x="508" 
d="M372 518h162l-241 -250q40 -65 85.5 -135t84.5 -133h-161l-117 189l-10 -8l-25 -181h-139l99 707h139l-54 -385z" />
    <glyph glyph-name="l" unicode="l" horiz-adv-x="277" 
d="M228 -8q-58 -9 -98 4t-64 40t-32 65.5t-2 80.5l75 526h139l-75 -526q-5 -29 13 -50t61 -21z" />
    <glyph glyph-name="m" unicode="m" horiz-adv-x="753" 
d="M75 464q38 29 91 46.5t103 17.5q19 0 38.5 -2.5t37.5 -10t32 -20t22 -32.5q29 34 67.5 49.5t75.5 15.5q36 0 69 -11t57 -33t36 -55.5t6 -77.5l-49 -351h-138l49 354q4 23 -14 34.5t-41 11.5t-43.5 -11.5t-23.5 -33.5l-50 -355h-133l49 351q3 23 -15.5 35.5t-44.5 13.5
q-15 0 -30.5 -4.5t-26.5 -15.5l-53 -380h-136z" />
    <glyph glyph-name="n" unicode="n" horiz-adv-x="515" 
d="M78 483q46 21 96 33t98 12q44 0 83 -10.5t67.5 -33t42 -58.5t6.5 -87l-48 -339h-138l46 331q5 35 -16.5 52t-51.5 17q-32 0 -60 -14l-54 -386h-139z" />
    <glyph glyph-name="o" unicode="o" horiz-adv-x="494" 
d="M45 343q6 46 29 80.5t55.5 57.5t71.5 35t78 12t74.5 -12t61 -35t38.5 -57.5t7 -80.5l-24 -169q-7 -47 -29.5 -81.5t-55 -57t-71 -34t-77.5 -11.5t-74.5 11.5t-62 34t-39.5 57t-6 81.5zM260 400q-25 0 -48.5 -13t-27.5 -38l-24 -176q-2 -12 2.5 -22.5t13.5 -18t21 -11.5
t24 -4t24.5 4t23.5 11.5t18.5 18t9.5 22.5l24 176q2 12 -3 21.5t-14 16t-20.5 10t-23.5 3.5z" />
    <glyph glyph-name="p" unicode="p" 
d="M77 489q51 18 105 28.5t103 10.5q41 0 77 -9t62 -30t40 -55.5t11 -84.5l-24 -184q-6 -43 -24.5 -76t-48.5 -55t-69.5 -33t-85.5 -11q-38 0 -72 17l-28 -197h-139zM166 108q19 -12 50 -12q38 0 64.5 16.5t31.5 52.5l26 197q3 32 -20.5 47.5t-53.5 15.5q-15 0 -29.5 -2.5
t-27.5 -8.5z" />
    <glyph glyph-name="q" unicode="q" horiz-adv-x="509" 
d="M274 8q-42 -18 -86 -18q-41 0 -74.5 12t-56 34.5t-33 55t-4.5 74.5l25 184q11 50 34.5 84.5t55.5 55.5t70.5 30t79.5 9q49 0 100 -10.5t96 -28.5l-95 -680h-140zM331 415q-22 11 -50 11q-16 0 -32 -4t-29.5 -11.5t-22.5 -19.5t-11 -28l-27 -196q-5 -36 19 -53t56 -17
q31 0 55 12z" />
    <glyph glyph-name="r" unicode="r" horiz-adv-x="339" 
d="M281 528q15 0 36 -3t38 -8l-16 -118q-21 6 -45 7.5t-45 -5t-36.5 -22t-19.5 -42.5l-47 -337h-139l48 342q6 46 26.5 81t50.5 58t68.5 35t80.5 12z" />
    <glyph glyph-name="s" unicode="s" horiz-adv-x="424" 
d="M70 168q20 -22 45.5 -35.5t49.5 -18t42.5 0t24.5 18.5q9 23 1.5 40.5t-42.5 25.5q-47 10 -77 30.5t-46 47t-19 57t4 60.5q14 60 64 96.5t128 37.5q35 1 79 -10.5t79 -43.5l-83 -95q-10 11 -29.5 19.5t-40.5 10.5t-38.5 -5.5t-22.5 -28.5q-5 -23 8 -38t51 -25
q24 -6 49 -18t44.5 -31t29.5 -47.5t5 -67.5q-6 -42 -24 -72t-46 -49t-64 -28t-77 -9q-54 0 -99 19.5t-75 68.5z" />
    <glyph glyph-name="t" unicode="t" horiz-adv-x="317" 
d="M253 6q-48 -15 -87 -15q-36 0 -63.5 12t-45.5 36t-24.5 59.5t0.5 82.5l65 462h126l-7 -125h94l-17 -125h-94l-29 -211q-7 -45 19 -65t78 -10z" />
    <glyph glyph-name="u" unicode="u" horiz-adv-x="517" 
d="M425 28q-46 -16 -100 -27t-107 -11q-42 0 -79.5 9.5t-63.5 31.5t-38.5 58.5t-4.5 90.5l48 338h139l-45 -324q-4 -36 21 -56.5t61 -20.5q11 0 22.5 1.5t22.5 5.5l55 394h138z" />
    <glyph glyph-name="v" unicode="v" horiz-adv-x="501" 
d="M381 518h149l-257 -518h-131l-112 518h148l42 -260l6 -135h2l39 136z" />
    <glyph glyph-name="w" unicode="w" horiz-adv-x="697" 
d="M248 0h-126l-89 518h137l26 -219l3 -125h1l31 126l96 218h101l34 -217l-3 -127h1l38 126l83 218h139l-228 -518h-127l-17 187l4 141h-3l-34 -141z" />
    <glyph glyph-name="x" unicode="x" horiz-adv-x="519" 
d="M471 0h-165l-52 108l-13 53h-7l-31 -55l-81 -106h-157l204 259l-132 259h157l56 -118l12 -49h6l25 49l85 118h163l-208 -258z" />
    <glyph glyph-name="y" unicode="y" horiz-adv-x="515" 
d="M420 8q-10 -63 -33 -104t-55.5 -66t-71.5 -35t-81 -10q-54 0 -103 21.5t-79 63.5l81 73q15 -17 41 -26t53 -9q39 0 68.5 18.5t37.5 67.5q-21 -6 -42.5 -9.5t-41.5 -3.5q-37 0 -69.5 10.5t-56 31.5t-34.5 52.5t-5 73.5l51 361h134l-49 -343q-2 -15 3 -25.5t15.5 -17.5
t24.5 -11t29 -4q16 0 31.5 3t28.5 10l55 388h140z" />
    <glyph glyph-name="z" unicode="z" horiz-adv-x="450" 
d="M413 518l34 -49l-265 -352h209l-16 -117h-359l-32 50l264 351h-196l14 117h347z" />
    <glyph glyph-name="braceleft" unicode="{" horiz-adv-x="333" 
d="M268 563l-19 -132q-3 -20 -10.5 -39.5t-19.5 -37t-27 -31.5t-31 -21q38 -17 48 -51.5t4 -76.5l-19 -135q-1 -13 -6 -15h68l-19 -132h-76q-39 0 -62.5 10t-35.5 29t-14 46t3 60l17 120q2 15 1 29.5t-6 25.5t-15 17.5t-27 6.5l18 133q34 0 49.5 24.5t19.5 54.5l17 120
q5 33 15.5 60t29.5 46t47 29.5t68 10.5h67l-19 -133h-64z" />
    <glyph glyph-name="bar" unicode="|" horiz-adv-x="249" 
d="M-8 -146l121 858h139l-121 -858h-139z" />
    <glyph glyph-name="braceright" unicode="}" horiz-adv-x="326" 
d="M150 714q48 0 75 -10.5t39 -29.5t12.5 -46t-4.5 -60l-17 -120q-2 -15 -1.5 -29t6 -25.5t15.5 -18t28 -6.5l-18 -133q-35 0 -50.5 -24t-19.5 -55l-17 -120q-5 -33 -15 -60t-28.5 -46t-48 -29t-74.5 -10h-50l19 132h49q5 0 7 15l19 135q5 40 26.5 76t63.5 53
q-27 19 -43.5 54t-10.5 74l19 132q2 18 -1 18h-52l19 133h53z" />
    <glyph glyph-name="asciitilde" unicode="~" horiz-adv-x="485" 
d="M451 305q-31 -44 -71 -75t-90 -31q-28 0 -50 11.5t-39 28.5q-20 20 -41 18.5t-52 -35.5l-77 73q16 19 33.5 36.5t37 31t40 21.5t43.5 8q35 0 59.5 -15.5t41.5 -30.5q23 -20 45 -13.5t51 38.5z" />
    <glyph glyph-name="uni00A0" unicode="&#xa0;" horiz-adv-x="196" 
 />
    <glyph glyph-name="exclamdown" unicode="&#xa1;" horiz-adv-x="249" 
d="M229 442q-3 -18 -11.5 -34t-21.5 -27.5t-29.5 -18.5t-34.5 -7q-37 0 -58.5 25.5t-16.5 61.5q3 18 11.5 33.5t22 27.5t30.5 18.5t35 6.5q36 0 57 -25t16 -61zM125 -190h-141l73 517h141z" />
    <glyph glyph-name="cent" unicode="&#xa2;" horiz-adv-x="473" 
d="M329 518q22 -5 43 -15.5t38 -26.5t28.5 -39t14.5 -53l-124 -37q-5 24 -19 35l-35 -247q21 15 33 40l116 -40q-15 -30 -34 -53t-41 -39.5t-45.5 -27t-46.5 -15.5l-8 -53h-90l7 50q-33 4 -62 17.5t-49.5 36t-30.5 54t-4 72.5l23 163q6 40 24.5 72t45.5 54.5t59.5 36
t67.5 18.5l6 48h90zM160 178q-3 -18 4 -30.5t20 -20.5l37 263q-15 -8 -25.5 -20t-13.5 -29z" />
    <glyph glyph-name="sterling" unicode="&#xa3;" horiz-adv-x="526" 
d="M122 297h-85l19 132h85l11 73q5 34 21 72.5t44.5 70t72 52.5t104.5 21q42 0 80.5 -20t66.5 -68l-91 -75q-17 24 -41 30.5t-47.5 -1t-42 -27.5t-25.5 -50l-12 -78h134l-19 -132h-134l-22 -162h224l-18 -135h-450l18 135h85z" />
    <glyph glyph-name="currency" unicode="&#xa4;" horiz-adv-x="612" 
d="M73 213q-24 56 -14 124q5 34 18 66t32 58l-1 2l-42 46l106 100l47 -54q30 17 60 24t65 7q66 0 118 -32l62 54l77 -99l-57 -49q14 -28 17.5 -58.5t-1.5 -64.5q-5 -35 -18 -66.5t-33 -58.5l2 -2v1l42 -46l-105 -99l-47 54q-31 -17 -61.5 -24.5t-65.5 -7.5q-31 0 -61.5 7.5
t-56.5 23.5l-4 -5l-56 -47l-77 97zM196 336q-3 -23 3 -43.5t19 -36t32.5 -24.5t42.5 -9t44.5 9t39 24.5t29.5 36t15 43.5q3 24 -3 45t-19 36.5t-32 24.5t-42 9t-45 -9t-39.5 -24.5t-29.5 -36.5t-15 -45z" />
    <glyph glyph-name="yen" unicode="&#xa5;" horiz-adv-x="683" 
d="M245 708l108 -296l192 296h171l-237 -336h70l-34 -100h-107v-1l-6 -37h127l-32 -98h-108l-19 -136h-147l19 136h-126l33 98h106l6 37l-1 1h-125l34 100h49l-142 336h169z" />
    <glyph glyph-name="brokenbar" unicode="&#xa6;" horiz-adv-x="254" 
d="M60 324l49 348h140l-49 -348h-140zM-2 -119l53 381h140l-53 -381h-140z" />
    <glyph glyph-name="section" unicode="&#xa7;" horiz-adv-x="477" 
d="M106 89q15 -40 41.5 -52.5t49.5 -12.5q21 0 40 12t22 35q2 12 -4.5 22.5t-18.5 20t-28.5 18t-33.5 17.5q-26 12 -52 26t-45.5 33t-29.5 45.5t-5 63.5q5 38 26.5 66.5t61.5 44.5q-26 18 -34 45t-5 53q6 42 27 75.5t51.5 56.5t67 35t73.5 12q49 0 87 -23t64 -83l-109 -54
q-11 24 -29.5 31t-37.5 2.5t-34 -19t-18 -33.5q-3 -21 21.5 -38t58.5 -34q25 -12 50 -26.5t44 -33.5t29 -45t5 -61q-5 -31 -25.5 -59t-52.5 -45q26 -32 33.5 -66.5t-0.5 -67t-28.5 -62t-50 -51t-65.5 -34.5t-74 -13q-30 0 -59 9t-53.5 26.5t-44 43.5t-30.5 61zM279 239
q24 13 31.5 26t4 25t-16.5 23t-29 19v1l-48 30q-18 -8 -34 -19t-18 -22q-2 -16 9.5 -26.5t25.5 -18.5z" />
    <glyph glyph-name="dieresis" unicode="&#xa8;" horiz-adv-x="393" 
d="M75 830q5 35 31.5 58t60.5 23q33 0 53 -23t15 -58q-2 -17 -10.5 -31t-20.5 -25t-27.5 -17t-31.5 -6q-35 0 -55 23t-15 56zM297 830q5 35 31.5 58t60.5 23q35 0 54.5 -23t14.5 -58q-5 -33 -31 -56t-60 -23q-35 0 -54.5 23t-15.5 56z" />
    <glyph glyph-name="copyright" unicode="&#xa9;" horiz-adv-x="785" 
d="M40 351q10 74 48 139.5t93.5 114t125 77t143.5 28.5t135 -28.5t103 -77t61 -114t9 -139.5q-11 -74 -48.5 -139.5t-93 -114.5t-124.5 -77t-143 -28t-135.5 28t-103.5 77t-61.5 114.5t-8.5 139.5zM143 351q-8 -53 5.5 -100t43.5 -82t74 -55t98 -20q53 0 102 20t88.5 55
t66 82t34.5 100q7 54 -6 100.5t-43 81t-73.5 54.5t-96.5 20q-54 0 -103.5 -20t-89 -54.5t-66.5 -81t-34 -100.5zM215 404q6 42 27 73.5t51 52t66 30.5t72 10q28 0 56.5 -7t52.5 -22t40.5 -39t21.5 -59l-99 -36q-5 34 -31.5 49t-57.5 13.5t-59 -18t-36 -46.5l-15 -113
q-1 -30 22 -46.5t53.5 -18t61 13.5t45.5 49l91 -36q-15 -35 -38.5 -59t-52 -39t-59.5 -22t-59 -7q-36 0 -69 10t-57 30.5t-36 52t-6 73.5z" />
    <glyph glyph-name="ordfeminine" unicode="&#xaa;" horiz-adv-x="383" 
d="M87 626q36 45 88 63.5t98.5 10.5t76 -41.5t21.5 -91.5l-33 -233q-50 -13 -103.5 -19t-96 3.5t-67 39.5t-16.5 88q6 44 30 70.5t55 38.5t64 12t58 -8q2 20 -11 30t-33 11.5t-42.5 -5.5t-39.5 -21zM243 471q-10 4 -23 5t-25 -2t-21 -11t-11 -20q-2 -16 4.5 -25t17 -13
t24 -3.5t24.5 3.5z" />
    <glyph glyph-name="guillemotleft" unicode="&#xab;" horiz-adv-x="560" 
d="M318 446l-129 -157q20 -37 42.5 -80t42.5 -79l-131 -71l-121 230l186 229zM547 446l-130 -159l6 -9q7 -14 28.5 -51.5t52.5 -94.5l-132 -73l-121 230l185 229z" />
    <glyph glyph-name="logicalnot" unicode="&#xac;" horiz-adv-x="583" 
d="M60 421h485l-40 -282h-139l20 143h-346z" />
    <glyph glyph-name="uni00AD" unicode="&#xad;" horiz-adv-x="404" 
d="M331 175h-295l20 141h295z" />
    <glyph glyph-name="registered" unicode="&#xae;" horiz-adv-x="785" 
d="M40 351q10 74 48 139.5t93.5 114t125 77t143.5 28.5t135 -28.5t103 -77t61 -114t9 -139.5q-11 -74 -48.5 -139.5t-93 -114.5t-124.5 -77t-143 -28t-135.5 28t-103.5 77t-61.5 114.5t-8.5 139.5zM147 351q-8 -53 5.5 -99t43.5 -81t73.5 -55t96.5 -20q52 0 101 20t88 55
t65.5 81t34.5 99q7 53 -6 99t-42.5 80.5t-73 54.5t-95.5 20q-53 0 -102 -20t-88.5 -54.5t-66.5 -80.5t-34 -99zM279 527h162q40 0 66.5 -14t40 -36.5t14.5 -49.5t-8.5 -53t-30 -48t-50.5 -33l68 -124h-116l-61 117h-21l-17 -117h-98zM415 366q20 0 31.5 12t13 26t-7 26
t-27.5 12h-60l-11 -76h61z" />
    <glyph glyph-name="macron" unicode="&#xaf;" horiz-adv-x="321" 
d="M73 771l16 117h309l-16 -117h-309z" />
    <glyph glyph-name="degree" unicode="&#xb0;" horiz-adv-x="372" 
d="M198 398q-33 0 -59.5 12.5t-45 33.5t-26.5 49.5t-3 61.5q4 33 20.5 61.5t40.5 49.5t54 33t63 12q32 0 59 -12t45.5 -33t26.5 -49.5t4 -61.5q-5 -32 -21.5 -60.5t-41 -50t-54.5 -34t-62 -12.5zM214 507q20 0 36 13.5t18 33.5q3 20 -9 34.5t-32 14.5t-36 -14.5t-19 -34.5
q-2 -20 10 -33.5t32 -13.5z" />
    <glyph glyph-name="plusminus" unicode="&#xb1;" horiz-adv-x="540" 
d="M244 624h140l-20 -143h153l-20 -140h-153l-20 -142h-140l20 142h-150l20 140h150zM454 28h-445l20 139h445z" />
    <glyph glyph-name="twosuperior" unicode="&#xb2;" horiz-adv-x="408" 
d="M84 631q37 48 79 67.5t88 19.5q37 0 65.5 -12.5t46.5 -33.5t25 -48.5t3 -57.5q-5 -31 -19.5 -59t-48.5 -54l-67 -56h119l-18 -131h-301l-17 76l179 176q26 25 28 43.5t-10 24.5t-32.5 -1.5t-38.5 -32.5z" />
    <glyph glyph-name="threesuperior" unicode="&#xb3;" horiz-adv-x="375" 
d="M219 543q11 0 18 9t7.5 19.5t-6.5 19.5t-23 8t-31 -8t-23 -17l-67 64q35 32 64 51t69 19q43 0 76.5 -19.5t48.5 -49.5t6.5 -66.5t-48.5 -70.5q29 -14 40.5 -37t10 -48.5t-14.5 -51.5t-34 -47q-34 -33 -77 -46t-83.5 -8t-73.5 28t-47 63l99 57q6 -16 21.5 -23t32 -6t30 10
t15.5 25q1 8 -5 17.5t-18 7.5h-51l14 100h50z" />
    <glyph glyph-name="acute" unicode="&#xb4;" horiz-adv-x="262" 
d="M196 756h-148l110 150h181z" />
    <glyph glyph-name="mu" unicode="&#xb5;" horiz-adv-x="519" 
d="M296 33q-14 -20 -35 -31t-42.5 -11.5t-39.5 10t-26 34.5l-31 -225h-140l98 708h142l-44 -316q-5 -38 13 -55.5t43 -17t48.5 18.5t28.5 52l44 318h142l-71 -518l-124 1z" />
    <glyph glyph-name="paragraph" unicode="&#xb6;" horiz-adv-x="649" 
d="M236 235q-54 3 -93 24.5t-62 54t-31.5 73.5t-2.5 84q6 45 27 87.5t56.5 75.5t84 53.5t109.5 20.5h321l-112 -798h-141l93 666h-60l-93 -666h-142z" />
    <glyph glyph-name="periodcentered" unicode="&#xb7;" horiz-adv-x="250" 
d="M39 307q5 37 33 62t66 25q37 0 57 -25t15 -62q-5 -36 -32 -60.5t-64 -24.5q-38 0 -59 24.5t-16 60.5z" />
    <glyph glyph-name="cedilla" unicode="&#xb8;" horiz-adv-x="251" 
d="M132 -44q33 -4 52.5 -21t25 -40.5t-1.5 -49.5t-25.5 -48t-48.5 -36.5t-70 -14.5q-30 0 -66.5 11.5t-63.5 37.5l41 75q19 -14 38.5 -20t33.5 -6q21 0 30.5 11.5t6 24t-22 22.5t-52.5 7l72 121h95z" />
    <glyph glyph-name="onesuperior" unicode="&#xb9;" horiz-adv-x="300" 
d="M49 570l145 137h107l-62 -441h-134l37 262l-53 -28z" />
    <glyph glyph-name="ordmasculine" unicode="&#xba;" horiz-adv-x="421" 
d="M209 298q-32 0 -61.5 9.5t-51 28t-32.5 46.5t-6 65l17 120q5 37 24 65t46 47t59 28t64 9q31 0 60.5 -9t51.5 -28t33 -47t6 -65l-17 -120q-5 -37 -24 -65t-46 -46.5t-59.5 -28t-63.5 -9.5zM193 447q-2 -17 8.5 -25.5t24 -8.5t26 8t15.5 26l17 119q2 18 -8 26.5t-24 8.5
t-26.5 -8.5t-15.5 -25.5z" />
    <glyph glyph-name="guillemotright" unicode="&#xbb;" horiz-adv-x="555" 
d="M6 130l131 158l-85 158l129 72l122 -229l-185 -229zM233 132l129 157q-20 37 -42 79.5t-43 78.5l131 71l121 -229l-186 -230z" />
    <glyph glyph-name="onequarter" unicode="&#xbc;" horiz-adv-x="833" 
d="M189 -45l-107 70l520 694l107 -70zM251 272h-134l37 262l-53 -28l-41 70l146 137h107zM785 468l-37 -264h36l-16 -117h-36l-12 -87h-134l12 87h-161l-46 90l281 291h113zM626 200l15 93l-4 1l-95 -94h84z" />
    <glyph glyph-name="onehalf" unicode="&#xbd;" horiz-adv-x="860" 
d="M195 -45l-105 71l520 693l106 -70zM251 272h-134l37 262l-53 -28l-41 70l146 137h107zM516 353q35 46 76.5 65t86.5 19q37 0 65 -12t46 -32.5t25.5 -47t3.5 -55.5q-5 -30 -19.5 -57t-47.5 -52l-66 -54h112l-18 -127h-291l-18 74l177 170q25 24 27 41.5t-10 23.5t-31.5 -1
t-37.5 -31z" />
    <glyph glyph-name="threequarters" unicode="&#xbe;" horiz-adv-x="863" 
d="M247 -45l-103 71l520 693l103 -70zM160 438l15 103h53q13 0 20 10.5t6 22.5q0 10 -7.5 18t-23.5 7q-17 -1 -32.5 -8.5t-24.5 -17.5l-71 66q36 33 67.5 52t72.5 20q45 1 80.5 -19t51 -51.5t7 -69t-51.5 -72.5q30 -15 42.5 -38.5t11 -50t-15 -53t-35.5 -47.5
q-36 -34 -81 -48t-87.5 -8.5t-77 29t-49.5 65.5l104 58q6 -17 22 -24t33.5 -5.5t31.5 10.5t16 25v5q0 8 -6 14.5t-17 6.5h-54zM712 452h105l-36 -255h35l-16 -113h-35l-11 -84h-118l11 84h-163l-43 87zM586 193h81l14 90l-4 1z" />
    <glyph glyph-name="questiondown" unicode="&#xbf;" horiz-adv-x="477" 
d="M374 449q-5 -35 -31 -57t-59 -22t-53 22t-15 57q5 33 31 56t59 23t53 -23t15 -56zM401 -95q-52 -57 -107.5 -81.5t-107.5 -24.5q-68 0 -113 27.5t-67.5 70t-22 93t23 96t68 79.5t113.5 44l26 113h121l-20 -207q-20 5 -36.5 6t-24.5 1q-35 0 -61 -15t-41 -37.5t-19 -48
t5 -46.5t31.5 -34t60.5 -10q23 2 47 14t45 36z" />
    <glyph glyph-name="Agrave" unicode="&#xc0;" horiz-adv-x="634" 
d="M219 906h171l71 -150h-139zM597 0h-154l-40 162h-211l-81 -162h-157l347 708h141zM248 297h136l-23 154l-6 101h-11l-34 -102z" />
    <glyph glyph-name="Aacute" unicode="&#xc1;" horiz-adv-x="634" 
d="M417 756h-148l110 150h181zM597 0h-154l-40 162h-211l-81 -162h-157l347 708h141zM248 297h136l-23 154l-6 101h-11l-34 -102z" />
    <glyph glyph-name="Acircumflex" unicode="&#xc2;" horiz-adv-x="634" 
d="M568 756h-128l-44 57l-60 -57h-140l158 150h113zM597 0h-154l-40 162h-211l-81 -162h-157l347 708h141zM248 297h136l-23 154l-6 101h-11l-34 -102z" />
    <glyph glyph-name="Atilde" unicode="&#xc3;" horiz-adv-x="634" 
d="M198 800q18 60 49 89t69 29q30 0 52.5 -12t40.5 -20t33 -6t29 31l84 -46q-22 -59 -54.5 -84.5t-66.5 -25.5q-24 0 -47 13.5t-43.5 22.5t-38.5 5t-31 -38zM597 0h-154l-40 162h-211l-81 -162h-157l347 708h141zM248 297h136l-23 154l-6 101h-11l-34 -102z" />
    <glyph glyph-name="Adieresis" unicode="&#xc4;" horiz-adv-x="634" 
d="M198 830q5 35 31.5 58t60.5 23q33 0 53 -23t15 -58q-2 -17 -10.5 -31t-20.5 -25t-27.5 -17t-31.5 -6q-35 0 -55 23t-15 56zM420 830q5 35 31.5 58t60.5 23q35 0 54.5 -23t14.5 -58q-5 -33 -31 -56t-60 -23q-35 0 -54.5 23t-15.5 56zM597 0h-154l-40 162h-211l-81 -162
h-157l347 708h141zM248 297h136l-23 154l-6 101h-11l-34 -102z" />
    <glyph glyph-name="Aring" unicode="&#xc5;" horiz-adv-x="634" 
d="M443 0l-40 162h-211l-81 -162h-157l340 693q-29 22 -35.5 58.5t7.5 71t47.5 59.5t84.5 25t78.5 -26t33 -61t-11 -72t-52.5 -58l151 -690h-154zM390 838q-29 0 -44.5 -15.5t-17 -34t10.5 -34t39 -15.5t41.5 15.5t16.5 34t-9.5 34t-36.5 15.5zM361 451l-6 101h-11l-34 -102
l-62 -153h136z" />
    <glyph glyph-name="AE" unicode="&#xc6;" horiz-adv-x="809" 
d="M562 560l-18 -133h214l-21 -147h-214l-19 -134h240l-20 -146h-377l28 204h-132l-122 -204h-176l462 708h416l-21 -148h-240zM403 345l25 174l-10 1l-94 -175h79z" />
    <glyph glyph-name="Ccedilla" unicode="&#xc7;" horiz-adv-x="583" 
d="M283 133q40 0 81 18.5t67 58.5l117 -71q-48 -63 -108.5 -99t-122.5 -46l-22 -38q33 -4 52.5 -21t25 -40.5t-1.5 -49.5t-25.5 -48t-48.5 -36.5t-70 -14.5q-30 0 -66.5 11.5t-63.5 37.5l41 75q19 -14 38.5 -20t33.5 -6q21 0 30.5 11.5t6 24t-22 22.5t-52.5 7l51 85
q-44 6 -82 24t-65 47t-40 69.5t-5 91.5l38 257q9 58 39 102t73 73.5t94.5 44.5t104.5 15q35 0 70 -9t65 -28t53.5 -47.5t36.5 -67.5l-128 -68q-15 39 -50 57.5t-74 18.5q-24 0 -47.5 -6.5t-42.5 -18.5t-32.5 -29.5t-16.5 -40.5l-37 -253q-3 -22 4 -39.5t22 -29.5t36 -18
t44 -6z" />
    <glyph glyph-name="Egrave" unicode="&#xc8;" horiz-adv-x="584" 
d="M206 906h171l71 -150h-139zM227 426h305l-20 -143h-305l-19 -140h332l-20 -143h-480l99 709h480l-20 -144h-332z" />
    <glyph glyph-name="Eacute" unicode="&#xc9;" horiz-adv-x="584" 
d="M404 756h-148l110 150h181zM227 426h305l-20 -143h-305l-19 -140h332l-20 -143h-480l99 709h480l-20 -144h-332z" />
    <glyph glyph-name="Ecircumflex" unicode="&#xca;" horiz-adv-x="584" 
d="M555 756h-128l-44 57l-60 -57h-140l158 150h113zM227 426h305l-20 -143h-305l-19 -140h332l-20 -143h-480l99 709h480l-20 -144h-332z" />
    <glyph glyph-name="Edieresis" unicode="&#xcb;" horiz-adv-x="584" 
d="M185 830q5 35 31.5 58t60.5 23q33 0 53 -23t15 -58q-2 -17 -10.5 -31t-20.5 -25t-27.5 -17t-31.5 -6q-35 0 -55 23t-15 56zM407 830q5 35 31.5 58t60.5 23q35 0 54.5 -23t14.5 -58q-5 -33 -31 -56t-60 -23q-35 0 -54.5 23t-15.5 56zM227 426h305l-20 -143h-305l-19 -140
h332l-20 -143h-480l99 709h480l-20 -144h-332z" />
    <glyph glyph-name="Igrave" unicode="&#xcc;" horiz-adv-x="272" 
d="M40 906h171l71 -150h-139zM167 0h-147l99 708h147z" />
    <glyph glyph-name="Iacute" unicode="&#xcd;" horiz-adv-x="272" 
d="M238 756h-148l110 150h181zM167 0h-147l99 708h147z" />
    <glyph glyph-name="Icircumflex" unicode="&#xce;" horiz-adv-x="272" 
d="M389 756h-128l-44 57l-60 -57h-140l158 150h113zM167 0h-147l99 708h147z" />
    <glyph glyph-name="Idieresis" unicode="&#xcf;" horiz-adv-x="272" 
d="M32 830q5 33 30.5 55.5t58.5 22.5q32 0 51 -22.5t14 -55.5q-5 -32 -30 -54t-57 -22q-33 0 -52.5 22t-14.5 54zM234 830q5 33 30.5 55.5t58.5 22.5t52 -22.5t14 -55.5q-5 -32 -30 -54t-58 -22q-34 0 -52.5 22t-14.5 54zM167 0h-147l99 708h147z" />
    <glyph glyph-name="Eth" unicode="&#xd0;" horiz-adv-x="654" 
d="M135 708h282q52 0 95.5 -13t73 -40.5t42.5 -70.5t4 -103l-36 -255q-8 -60 -33 -102.5t-62 -70t-84 -40.5t-99 -13h-282l40 286h-66l18 128h66zM338 148q48 0 76.5 17.5t34.5 60.5l36 255q6 44 -17.5 61.5t-71.5 17.5h-134l-20 -146h128l-18 -128h-128l-20 -138h134z" />
    <glyph glyph-name="Ntilde" unicode="&#xd1;" horiz-adv-x="680" 
d="M222 800q18 60 49 89t69 29q30 0 52.5 -12t40.5 -20t33 -6t29 31l84 -46q-22 -59 -54.5 -84.5t-66.5 -25.5q-24 0 -47 13.5t-43.5 22.5t-38.5 5t-31 -38zM527 708h147l-99 -708h-157l-164 372l-30 96h-4l-4 -123l-48 -345h-148l99 708h145l170 -386l35 -126h3l4 150z" />
    <glyph glyph-name="Ograve" unicode="&#xd2;" horiz-adv-x="668" 
d="M243 915h171l71 -150h-139zM68 481q8 60 39.5 104.5t77.5 74t101 44t110 13.5q54 -1 103 -16t84.5 -44.5t54 -73.5t10.5 -102l-35 -255q-8 -59 -39.5 -103.5t-77 -74t-100 -44t-109.5 -14.5q-54 0 -103 15t-85.5 44.5t-55 73.5t-10.5 103zM177 222q-3 -23 6.5 -39.5
t28 -27.5t43.5 -16.5t52 -5.5t53.5 5.5t48.5 17t37 28t18 38.5l39 263q3 23 -6.5 40t-28 28t-43 16.5t-51.5 5.5t-54 -5.5t-49 -17t-37 -28.5t-18 -39z" />
    <glyph glyph-name="Oacute" unicode="&#xd3;" horiz-adv-x="668" 
d="M441 765h-148l110 150h181zM68 481q8 60 39.5 104.5t77.5 74t101 44t110 13.5q54 -1 103 -16t84.5 -44.5t54 -73.5t10.5 -102l-35 -255q-8 -59 -39.5 -103.5t-77 -74t-100 -44t-109.5 -14.5q-54 0 -103 15t-85.5 44.5t-55 73.5t-10.5 103zM177 222q-3 -23 6.5 -39.5
t28 -27.5t43.5 -16.5t52 -5.5t53.5 5.5t48.5 17t37 28t18 38.5l39 263q3 23 -6.5 40t-28 28t-43 16.5t-51.5 5.5t-54 -5.5t-49 -17t-37 -28.5t-18 -39z" />
    <glyph glyph-name="Ocircumflex" unicode="&#xd4;" horiz-adv-x="668" 
d="M592 765h-128l-44 57l-60 -57h-140l158 150h113zM68 481q8 60 39.5 104.5t77.5 74t101 44t110 13.5q54 -1 103 -16t84.5 -44.5t54 -73.5t10.5 -102l-35 -255q-8 -59 -39.5 -103.5t-77 -74t-100 -44t-109.5 -14.5q-54 0 -103 15t-85.5 44.5t-55 73.5t-10.5 103zM177 222
q-3 -23 6.5 -39.5t28 -27.5t43.5 -16.5t52 -5.5t53.5 5.5t48.5 17t37 28t18 38.5l39 263q3 23 -6.5 40t-28 28t-43 16.5t-51.5 5.5t-54 -5.5t-49 -17t-37 -28.5t-18 -39z" />
    <glyph glyph-name="Otilde" unicode="&#xd5;" horiz-adv-x="668" 
d="M222 809q18 60 49 89t69 29q30 0 52.5 -12t40.5 -20t33 -6t29 31l84 -46q-22 -59 -54.5 -84.5t-66.5 -25.5q-24 0 -47 13.5t-43.5 22.5t-38.5 5t-31 -38zM68 481q8 60 39.5 104.5t77.5 74t101 44t110 13.5q54 -1 103 -16t84.5 -44.5t54 -73.5t10.5 -102l-35 -255
q-8 -59 -39.5 -103.5t-77 -74t-100 -44t-109.5 -14.5q-54 0 -103 15t-85.5 44.5t-55 73.5t-10.5 103zM177 222q-3 -23 6.5 -39.5t28 -27.5t43.5 -16.5t52 -5.5t53.5 5.5t48.5 17t37 28t18 38.5l39 263q3 23 -6.5 40t-28 28t-43 16.5t-51.5 5.5t-54 -5.5t-49 -17t-37 -28.5
t-18 -39z" />
    <glyph glyph-name="Odieresis" unicode="&#xd6;" horiz-adv-x="668" 
d="M222 839q5 35 31.5 58t60.5 23q33 0 53 -23t15 -58q-2 -17 -10.5 -31t-20.5 -25t-27.5 -17t-31.5 -6q-35 0 -55 23t-15 56zM444 839q5 35 31.5 58t60.5 23q35 0 54.5 -23t14.5 -58q-5 -33 -31 -56t-60 -23q-35 0 -54.5 23t-15.5 56zM68 481q8 60 39.5 104.5t77.5 74
t101 44t110 13.5q54 -1 103 -16t84.5 -44.5t54 -73.5t10.5 -102l-35 -255q-8 -59 -39.5 -103.5t-77 -74t-100 -44t-109.5 -14.5q-54 0 -103 15t-85.5 44.5t-55 73.5t-10.5 103zM177 222q-3 -23 6.5 -39.5t28 -27.5t43.5 -16.5t52 -5.5t53.5 5.5t48.5 17t37 28t18 38.5
l39 263q3 23 -6.5 40t-28 28t-43 16.5t-51.5 5.5t-54 -5.5t-49 -17t-37 -28.5t-18 -39z" />
    <glyph glyph-name="multiply" unicode="&#xd7;" horiz-adv-x="525" 
d="M425 525l84 -99l-148 -130l111 -130l-112 -98l-112 130l-153 -135l-82 100l151 131l-116 135l111 97l116 -133z" />
    <glyph glyph-name="Oslash" unicode="&#xd8;" horiz-adv-x="668" 
d="M557 675q48 -29 74.5 -77t16.5 -117l-35 -255q-8 -59 -39.5 -103.5t-77 -74t-100 -44t-109.5 -14.5q-45 0 -89 11l-45 -83l-88 36l46 86q-42 30 -64 76.5t-14 109.5l35 255q8 60 39.5 104.5t77.5 74t101 44t110 13.5q34 0 71 -8l35 67l92 -31zM177 222q-3 -24 9 -42
l209 394q-5 1 -10.5 1h-10.5q-27 0 -54 -5.5t-49 -17t-37 -28.5t-18 -39zM503 485q4 33 -18 55l-216 -404q18 -3 38 -3q27 0 53.5 5.5t48.5 17t37 28t18 38.5z" />
    <glyph glyph-name="Ugrave" unicode="&#xd9;" horiz-adv-x="671" 
d="M342 756l-103 150h171l71 -150h-139zM195 232q-4 -25 5 -44t25.5 -31t39.5 -18t48 -6q24 0 48 6t43.5 18.5t33.5 31t17 43.5l67 476h148l-67 -476q-9 -61 -39.5 -106.5t-74 -75.5t-95.5 -45t-104 -15t-99.5 15.5t-82 45.5t-52 75.5t-9.5 105.5l67 476h148z" />
    <glyph glyph-name="Uacute" unicode="&#xda;" horiz-adv-x="671" 
d="M580 906l-143 -150h-148l110 150h181zM195 232q-4 -25 5 -44t25.5 -31t39.5 -18t48 -6q24 0 48 6t43.5 18.5t33.5 31t17 43.5l67 476h148l-67 -476q-9 -61 -39.5 -106.5t-74 -75.5t-95.5 -45t-104 -15t-99.5 15.5t-82 45.5t-52 75.5t-9.5 105.5l67 476h148z" />
    <glyph glyph-name="Ucircumflex" unicode="&#xdb;" horiz-adv-x="671" 
d="M487 906l101 -150h-128l-44 57l-60 -57h-140l158 150h113zM195 232q-4 -25 5 -44t25.5 -31t39.5 -18t48 -6q24 0 48 6t43.5 18.5t33.5 31t17 43.5l67 476h148l-67 -476q-9 -61 -39.5 -106.5t-74 -75.5t-95.5 -45t-104 -15t-99.5 15.5t-82 45.5t-52 75.5t-9.5 105.5
l67 476h148z" />
    <glyph glyph-name="Udieresis" unicode="&#xdc;" horiz-adv-x="671" 
d="M218 830q5 35 31.5 58t60.5 23q33 0 53 -23t15 -58q-2 -17 -10.5 -31t-20.5 -25t-27.5 -17t-31.5 -6q-35 0 -55 23t-15 56zM440 830q5 35 31.5 58t60.5 23q35 0 54.5 -23t14.5 -58q-5 -33 -31 -56t-60 -23q-35 0 -54.5 23t-15.5 56zM195 232q-4 -25 5 -44t25.5 -31
t39.5 -18t48 -6q24 0 48 6t43.5 18.5t33.5 31t17 43.5l67 476h148l-67 -476q-9 -61 -39.5 -106.5t-74 -75.5t-95.5 -45t-104 -15t-99.5 15.5t-82 45.5t-52 75.5t-9.5 105.5l67 476h148z" />
    <glyph glyph-name="Yacute" unicode="&#xdd;" horiz-adv-x="627" 
d="M414 756h-148l110 150h181zM197 0l38 271l-185 437h169l108 -296l192 296h171l-308 -437l-38 -271h-147z" />
    <glyph glyph-name="Thorn" unicode="&#xde;" horiz-adv-x="621" 
d="M119 708h144l-11 -86h134q85 0 136 -36.5t71.5 -91t11 -117.5t-45 -117.5t-97 -90.5t-144.5 -36h-134l-18 -133h-146zM337 271q36 0 62 15t41 37.5t19 49t-5 49t-31 37.5t-58 15h-133l-28 -203h133z" />
    <glyph glyph-name="germandbls" unicode="&#xdf;" horiz-adv-x="577" 
d="M211 159q19 -19 47.5 -23t55.5 5t47.5 29t24.5 49q6 43 -20 61.5t-68 18.5h-70l18 135h70q15 0 29.5 7.5t26.5 19.5t20.5 27.5t10.5 32.5q3 25 -8 42t-30 24.5t-43 7t-45 -10t-36.5 -27t-17.5 -42.5l-72 -515h-140l72 515q7 51 31.5 89.5t60.5 64.5t79.5 39t87 14
t83.5 -11.5t69 -37.5t43.5 -63t7.5 -89q-5 -34 -24.5 -74.5t-69.5 -73.5q41 -22 61 -55t22.5 -70.5t-10.5 -76.5t-38 -73q-25 -33 -60 -56t-74.5 -33.5t-81 -8.5t-79.5 18z" />
    <glyph glyph-name="agrave" unicode="&#xe0;" 
d="M139 726h171l71 -150h-139zM291 42q-21 -25 -50.5 -38.5t-57.5 -13.5q-35 0 -67 11.5t-55 34.5t-34 56.5t-5 77.5l24 170q7 52 30.5 88t57.5 58.5t75 32t83 9.5q48 0 98.5 -14.5t91.5 -36.5l-65 -477h-114zM334 393q-16 10 -40 12.5t-47 -3.5t-41 -21t-21 -40l-23 -164
q-4 -29 16 -44.5t47 -15.5q23 0 41 5.5t32 13.5z" />
    <glyph glyph-name="aacute" unicode="&#xe1;" 
d="M337 576h-148l110 150h181zM291 42q-21 -25 -50.5 -38.5t-57.5 -13.5q-35 0 -67 11.5t-55 34.5t-34 56.5t-5 77.5l24 170q7 52 30.5 88t57.5 58.5t75 32t83 9.5q48 0 98.5 -14.5t91.5 -36.5l-65 -477h-114zM334 393q-16 10 -40 12.5t-47 -3.5t-41 -21t-21 -40l-23 -164
q-4 -29 16 -44.5t47 -15.5q23 0 41 5.5t32 13.5z" />
    <glyph glyph-name="acircumflex" unicode="&#xe2;" 
d="M488 576h-128l-44 57l-60 -57h-140l158 150h113zM291 42q-21 -25 -50.5 -38.5t-57.5 -13.5q-35 0 -67 11.5t-55 34.5t-34 56.5t-5 77.5l24 170q7 52 30.5 88t57.5 58.5t75 32t83 9.5q48 0 98.5 -14.5t91.5 -36.5l-65 -477h-114zM334 393q-16 10 -40 12.5t-47 -3.5
t-41 -21t-21 -40l-23 -164q-4 -29 16 -44.5t47 -15.5q23 0 41 5.5t32 13.5z" />
    <glyph glyph-name="atilde" unicode="&#xe3;" 
d="M118 620q18 60 49 89t69 29q30 0 52.5 -12t40.5 -20t33 -6t29 31l84 -46q-22 -59 -54.5 -84.5t-66.5 -25.5q-24 0 -47 13.5t-43.5 22.5t-38.5 5t-31 -38zM291 42q-21 -25 -50.5 -38.5t-57.5 -13.5q-35 0 -67 11.5t-55 34.5t-34 56.5t-5 77.5l24 170q7 52 30.5 88
t57.5 58.5t75 32t83 9.5q48 0 98.5 -14.5t91.5 -36.5l-65 -477h-114zM334 393q-16 10 -40 12.5t-47 -3.5t-41 -21t-21 -40l-23 -164q-4 -29 16 -44.5t47 -15.5q23 0 41 5.5t32 13.5z" />
    <glyph glyph-name="adieresis" unicode="&#xe4;" 
d="M131 650q5 33 30.5 55.5t58.5 22.5q32 0 51 -22.5t14 -55.5q-5 -32 -30 -54t-57 -22q-33 0 -52.5 22t-14.5 54zM333 650q5 33 30.5 55.5t58.5 22.5t52 -22.5t14 -55.5q-5 -32 -30 -54t-58 -22q-34 0 -52.5 22t-14.5 54zM291 42q-21 -25 -50.5 -38.5t-57.5 -13.5
q-35 0 -67 11.5t-55 34.5t-34 56.5t-5 77.5l24 170q7 52 30.5 88t57.5 58.5t75 32t83 9.5q48 0 98.5 -14.5t91.5 -36.5l-65 -477h-114zM334 393q-16 10 -40 12.5t-47 -3.5t-41 -21t-21 -40l-23 -164q-4 -29 16 -44.5t47 -15.5q23 0 41 5.5t32 13.5z" />
    <glyph glyph-name="aring" unicode="&#xe5;" 
d="M332 796q41 0 67 -17.5t37 -44t7.5 -57t-20.5 -57t-47 -44t-73 -17.5q-42 0 -68 17.5t-36.5 44t-7 57t21 57t47.5 44t72 17.5zM324 727q-29 0 -44.5 -15.5t-17 -34t10.5 -34t39 -15.5t41.5 15.5t16.5 34t-9.5 34t-36.5 15.5zM291 42q-21 -25 -50.5 -38.5t-57.5 -13.5
q-35 0 -67 11.5t-55 34.5t-34 56.5t-5 77.5l24 170q7 52 30.5 88t57.5 58.5t75 32t83 9.5q48 0 98.5 -14.5t91.5 -36.5l-65 -477h-114zM334 393q-16 10 -40 12.5t-47 -3.5t-41 -21t-21 -40l-23 -164q-4 -29 16 -44.5t47 -15.5q23 0 41 5.5t32 13.5z" />
    <glyph glyph-name="ae" unicode="&#xe6;" horiz-adv-x="760" 
d="M691 97q-48 -59 -103 -82.5t-106 -23.5q-33 0 -63 8t-55 25l-6 -24h-70l1 35q-21 -25 -50 -35t-57 -10q-35 0 -66.5 11.5t-54.5 34.5t-34.5 56.5t-5.5 77.5l23 171q7 52 30.5 88t57 58t75 31.5t83.5 9.5q41 0 72.5 -8.5t60.5 -29.5q62 38 135 38q39 0 75 -12t61.5 -36
t38.5 -59t6 -81q-8 -54 -42 -88.5t-79.5 -51t-95 -16t-87.5 15.5l-4 -25q-4 -30 17 -45.5t51.5 -18t62.5 7.5t51 32zM160 177q-3 -25 11 -39.5t36.5 -19t48.5 0t46 18.5q-1 16 2 38l23 164q2 14 5 27.5t8 25.5q-20 14 -45.5 17t-49 -4t-41.5 -23t-21 -40zM449 300
q16 -5 37 -8t38 -3q27 0 52.5 13t28.5 39q2 13 -3 24t-14.5 19t-21.5 12.5t-25 4.5q-14 0 -28.5 -4.5t-27 -13t-21 -20t-10.5 -25.5z" />
    <glyph glyph-name="ccedilla" unicode="&#xe7;" horiz-adv-x="466" 
d="M220 116q24 0 49 13.5t39 43.5l116 -42q-28 -59 -72 -90.5t-89 -42.5l-25 -42q33 -4 52.5 -21t25 -40.5t-1.5 -49.5t-25.5 -48t-48.5 -36.5t-70 -14.5q-30 0 -66.5 11.5t-63.5 37.5l41 75q19 -14 38.5 -20t33.5 -6q21 0 30.5 11.5t6 24t-22 22.5t-52.5 7l50 84
q-33 5 -62 18.5t-49 36t-30 53.5t-4 72l24 171q6 46 29 80.5t55.5 57.5t71.5 34.5t78 11.5q28 0 57 -7t54 -23.5t42.5 -43t22.5 -66.5l-124 -40q-5 27 -24 39.5t-43 12.5q-27 0 -51.5 -15t-28.5 -43l-23 -166q-4 -28 15 -44t45 -16z" />
    <glyph glyph-name="egrave" unicode="&#xe8;" horiz-adv-x="478" 
d="M125 716h171l71 -150h-139zM411 97q-48 -59 -103 -83t-106 -24q-38 0 -73.5 11.5t-61.5 35t-39 58t-7 80.5l23 162q7 47 29.5 83t55 60t71.5 36t78 12t74.5 -12t60.5 -36t37.5 -59t5.5 -81q-8 -54 -40.5 -88.5t-76.5 -51t-92 -16t-86 15.5l-4 -25q-2 -16 3 -27.5
t15.5 -19.5t25 -12t30.5 -4q28 0 56 11t45 31zM174 297q33 -11 70 -11q27 0 52.5 14.5t28.5 40.5q2 16 -3 27.5t-14.5 18.5t-21.5 10.5t-25 3.5q-27 0 -52 -17.5t-29 -45.5z" />
    <glyph glyph-name="eacute" unicode="&#xe9;" horiz-adv-x="478" 
d="M323 566h-148l110 150h181zM411 97q-48 -59 -103 -83t-106 -24q-38 0 -73.5 11.5t-61.5 35t-39 58t-7 80.5l23 162q7 47 29.5 83t55 60t71.5 36t78 12t74.5 -12t60.5 -36t37.5 -59t5.5 -81q-8 -54 -40.5 -88.5t-76.5 -51t-92 -16t-86 15.5l-4 -25q-2 -16 3 -27.5
t15.5 -19.5t25 -12t30.5 -4q28 0 56 11t45 31zM174 297q33 -11 70 -11q27 0 52.5 14.5t28.5 40.5q2 16 -3 27.5t-14.5 18.5t-21.5 10.5t-25 3.5q-27 0 -52 -17.5t-29 -45.5z" />
    <glyph glyph-name="ecircumflex" unicode="&#xea;" horiz-adv-x="478" 
d="M474 566h-128l-44 57l-60 -57h-140l158 150h113zM411 97q-48 -59 -103 -83t-106 -24q-38 0 -73.5 11.5t-61.5 35t-39 58t-7 80.5l23 162q7 47 29.5 83t55 60t71.5 36t78 12t74.5 -12t60.5 -36t37.5 -59t5.5 -81q-8 -54 -40.5 -88.5t-76.5 -51t-92 -16t-86 15.5l-4 -25
q-2 -16 3 -27.5t15.5 -19.5t25 -12t30.5 -4q28 0 56 11t45 31zM174 297q33 -11 70 -11q27 0 52.5 14.5t28.5 40.5q2 16 -3 27.5t-14.5 18.5t-21.5 10.5t-25 3.5q-27 0 -52 -17.5t-29 -45.5z" />
    <glyph glyph-name="edieresis" unicode="&#xeb;" horiz-adv-x="478" 
d="M104 640q5 35 31.5 58t60.5 23q33 0 53 -23t15 -58q-2 -17 -10.5 -31t-20.5 -25t-27.5 -17t-31.5 -6q-35 0 -55 23t-15 56zM326 640q5 35 31.5 58t60.5 23q35 0 54.5 -23t14.5 -58q-5 -33 -31 -56t-60 -23q-35 0 -54.5 23t-15.5 56zM411 97q-48 -59 -103 -83t-106 -24
q-38 0 -73.5 11.5t-61.5 35t-39 58t-7 80.5l23 162q7 47 29.5 83t55 60t71.5 36t78 12t74.5 -12t60.5 -36t37.5 -59t5.5 -81q-8 -54 -40.5 -88.5t-76.5 -51t-92 -16t-86 15.5l-4 -25q-2 -16 3 -27.5t15.5 -19.5t25 -12t30.5 -4q28 0 56 11t45 31zM174 297q33 -11 70 -11
q27 0 52.5 14.5t28.5 40.5q2 16 -3 27.5t-14.5 18.5t-21.5 10.5t-25 3.5q-27 0 -52 -17.5t-29 -45.5z" />
    <glyph glyph-name="igrave" unicode="&#xec;" horiz-adv-x="249" 
d="M1 716h171l71 -150h-139zM153 0h-142l72 517h142z" />
    <glyph glyph-name="iacute" unicode="&#xed;" horiz-adv-x="250" 
d="M199 566h-148l110 150h181zM153 0h-142l72 517h142z" />
    <glyph glyph-name="icircumflex" unicode="&#xee;" horiz-adv-x="250" 
d="M350 566h-128l-44 57l-60 -57h-140l158 150h113zM153 0h-142l72 517h142z" />
    <glyph glyph-name="idieresis" unicode="&#xef;" horiz-adv-x="250" 
d="M2 640q5 33 30.5 55.5t58.5 22.5q32 0 51 -22.5t14 -55.5q-5 -32 -30 -54t-57 -22q-33 0 -52.5 22t-14.5 54zM184 640q5 33 30.5 55.5t58.5 22.5t52 -22.5t14 -55.5q-5 -32 -30 -54t-58 -22q-34 0 -52.5 22t-14.5 54zM152 0h-142l72 517h142z" />
    <glyph glyph-name="eth" unicode="&#xf0;" horiz-adv-x="506" 
d="M375 696q54 -20 85.5 -68t20.5 -124l-65 -467q-38 -18 -83.5 -29.5t-91.5 -14.5t-89 4.5t-74 28t-47 55t-9 86.5l27 195q7 54 38 90.5t73.5 56t91.5 21.5t93 -14q4 24 -2.5 40.5t-20.5 27.5l-19 -40l-74 20l17 36q-22 -3 -43 -12.5t-38 -26.5l-58 73q38 39 88.5 58
t101.5 18l26 56l75 -21zM327 405q-15 9 -37.5 12t-44 -2.5t-39 -19t-23.5 -35.5l-27 -196q-3 -23 10 -38t33 -22t43.5 -5.5t43.5 10.5z" />
    <glyph glyph-name="ntilde" unicode="&#xf1;" horiz-adv-x="515" 
d="M123 620q18 60 49 89t69 29q30 0 52.5 -12t40.5 -20t33 -6t29 31l84 -46q-22 -59 -54.5 -84.5t-66.5 -25.5q-24 0 -47 13.5t-43.5 22.5t-38.5 5t-31 -38zM78 483q46 21 96 33t98 12q44 0 83 -10.5t67.5 -33t42 -58.5t6.5 -87l-48 -339h-138l46 331q5 35 -16.5 52
t-51.5 17q-32 0 -60 -14l-54 -386h-139z" />
    <glyph glyph-name="ograve" unicode="&#xf2;" horiz-adv-x="494" 
d="M120 726h171l71 -150h-139zM45 343q6 46 29 80.5t55.5 57.5t71.5 35t78 12t74.5 -12t61 -35t38.5 -57.5t7 -80.5l-24 -169q-7 -47 -29.5 -81.5t-55 -57t-71 -34t-77.5 -11.5t-74.5 11.5t-62 34t-39.5 57t-6 81.5zM260 400q-25 0 -48.5 -13t-27.5 -38l-24 -176
q-2 -12 2.5 -22.5t13.5 -18t21 -11.5t24 -4t24.5 4t23.5 11.5t18.5 18t9.5 22.5l24 176q2 12 -3 21.5t-14 16t-20.5 10t-23.5 3.5z" />
    <glyph glyph-name="oacute" unicode="&#xf3;" horiz-adv-x="494" 
d="M334 576h-148l110 150h181zM45 343q6 46 29 80.5t55.5 57.5t71.5 35t78 12t74.5 -12t61 -35t38.5 -57.5t7 -80.5l-24 -169q-7 -47 -29.5 -81.5t-55 -57t-71 -34t-77.5 -11.5t-74.5 11.5t-62 34t-39.5 57t-6 81.5zM260 400q-25 0 -48.5 -13t-27.5 -38l-24 -176
q-2 -12 2.5 -22.5t13.5 -18t21 -11.5t24 -4t24.5 4t23.5 11.5t18.5 18t9.5 22.5l24 176q2 12 -3 21.5t-14 16t-20.5 10t-23.5 3.5z" />
    <glyph glyph-name="ocircumflex" unicode="&#xf4;" horiz-adv-x="494" 
d="M485 576h-128l-44 57l-60 -57h-140l158 150h113zM45 343q6 46 29 80.5t55.5 57.5t71.5 35t78 12t74.5 -12t61 -35t38.5 -57.5t7 -80.5l-24 -169q-7 -47 -29.5 -81.5t-55 -57t-71 -34t-77.5 -11.5t-74.5 11.5t-62 34t-39.5 57t-6 81.5zM260 400q-25 0 -48.5 -13t-27.5 -38
l-24 -176q-2 -12 2.5 -22.5t13.5 -18t21 -11.5t24 -4t24.5 4t23.5 11.5t18.5 18t9.5 22.5l24 176q2 12 -3 21.5t-14 16t-20.5 10t-23.5 3.5z" />
    <glyph glyph-name="otilde" unicode="&#xf5;" horiz-adv-x="494" 
d="M115 620q18 60 49 89t69 29q30 0 52.5 -12t40.5 -20t33 -6t29 31l84 -46q-22 -59 -54.5 -84.5t-66.5 -25.5q-24 0 -47 13.5t-43.5 22.5t-38.5 5t-31 -38zM45 343q6 46 29 80.5t55.5 57.5t71.5 35t78 12t74.5 -12t61 -35t38.5 -57.5t7 -80.5l-24 -169q-7 -47 -29.5 -81.5
t-55 -57t-71 -34t-77.5 -11.5t-74.5 11.5t-62 34t-39.5 57t-6 81.5zM260 400q-25 0 -48.5 -13t-27.5 -38l-24 -176q-2 -12 2.5 -22.5t13.5 -18t21 -11.5t24 -4t24.5 4t23.5 11.5t18.5 18t9.5 22.5l24 176q2 12 -3 21.5t-14 16t-20.5 10t-23.5 3.5z" />
    <glyph glyph-name="odieresis" unicode="&#xf6;" horiz-adv-x="494" 
d="M115 650q5 35 31.5 58t60.5 23q33 0 53 -23t15 -58q-2 -17 -10.5 -31t-20.5 -25t-27.5 -17t-31.5 -6q-35 0 -55 23t-15 56zM337 650q5 35 31.5 58t60.5 23q35 0 54.5 -23t14.5 -58q-5 -33 -31 -56t-60 -23q-35 0 -54.5 23t-15.5 56zM45 343q6 46 29 80.5t55.5 57.5
t71.5 35t78 12t74.5 -12t61 -35t38.5 -57.5t7 -80.5l-24 -169q-7 -47 -29.5 -81.5t-55 -57t-71 -34t-77.5 -11.5t-74.5 11.5t-62 34t-39.5 57t-6 81.5zM260 400q-25 0 -48.5 -13t-27.5 -38l-24 -176q-2 -12 2.5 -22.5t13.5 -18t21 -11.5t24 -4t24.5 4t23.5 11.5t18.5 18
t9.5 22.5l24 176q2 12 -3 21.5t-14 16t-20.5 10t-23.5 3.5z" />
    <glyph glyph-name="divide" unicode="&#xf7;" horiz-adv-x="511" 
d="M194 497q3 18 12 34t23 28t31 18.5t35 6.5q36 0 58.5 -25t17.5 -62q-3 -18 -12 -34.5t-23 -29t-31 -19.5t-35 -7t-33 7t-25.5 19.5t-15.5 29t-2 34.5zM471 241h-449l20 142h449zM145 128q6 38 35.5 62t66.5 25q37 0 59 -25t17 -62q-3 -19 -12 -35t-22.5 -28t-30.5 -19
t-35 -7q-37 0 -60 25.5t-18 63.5z" />
    <glyph glyph-name="oslash" unicode="&#xf8;" horiz-adv-x="494" 
d="M407 488q29 -23 44.5 -59t8.5 -86l-24 -169q-7 -47 -29.5 -81.5t-55 -57t-71 -34t-77.5 -11.5q-16 0 -31 2t-29 5l-31 -59l-71 30l33 62q-30 23 -45.5 58t-7.5 86l24 169q6 46 29 80.5t55.5 57.5t71.5 35t78 12q14 0 28.5 -2t28.5 -5l29 53l75 -25zM271 399l-11 1
q-25 0 -48.5 -13t-27.5 -38l-21 -152zM221 117q12 0 24.5 4t23.5 11.5t18.5 18t9.5 22.5l20 147l-108 -202q4 -1 12 -1z" />
    <glyph glyph-name="ugrave" unicode="&#xf9;" horiz-adv-x="517" 
d="M135 716h171l71 -150h-139zM425 28q-46 -16 -100 -27t-107 -11q-42 0 -79.5 9.5t-63.5 31.5t-38.5 58.5t-4.5 90.5l48 338h139l-45 -324q-4 -36 21 -56.5t61 -20.5q11 0 22.5 1.5t22.5 5.5l55 394h138z" />
    <glyph glyph-name="uacute" unicode="&#xfa;" horiz-adv-x="517" 
d="M333 566h-148l110 150h181zM425 28q-46 -16 -100 -27t-107 -11q-42 0 -79.5 9.5t-63.5 31.5t-38.5 58.5t-4.5 90.5l48 338h139l-45 -324q-4 -36 21 -56.5t61 -20.5q11 0 22.5 1.5t22.5 5.5l55 394h138z" />
    <glyph glyph-name="ucircumflex" unicode="&#xfb;" horiz-adv-x="517" 
d="M484 566h-128l-44 57l-60 -57h-140l158 150h113zM425 28q-46 -16 -100 -27t-107 -11q-42 0 -79.5 9.5t-63.5 31.5t-38.5 58.5t-4.5 90.5l48 338h139l-45 -324q-4 -36 21 -56.5t61 -20.5q11 0 22.5 1.5t22.5 5.5l55 394h138z" />
    <glyph glyph-name="udieresis" unicode="&#xfc;" horiz-adv-x="517" 
d="M114 640q5 35 31.5 58t60.5 23q33 0 53 -23t15 -58q-2 -17 -10.5 -31t-20.5 -25t-27.5 -17t-31.5 -6q-35 0 -55 23t-15 56zM336 640q5 35 31.5 58t60.5 23q35 0 54.5 -23t14.5 -58q-5 -33 -31 -56t-60 -23q-35 0 -54.5 23t-15.5 56zM425 28q-46 -16 -100 -27t-107 -11
q-42 0 -79.5 9.5t-63.5 31.5t-38.5 58.5t-4.5 90.5l48 338h139l-45 -324q-4 -36 21 -56.5t61 -20.5q11 0 22.5 1.5t22.5 5.5l55 394h138z" />
    <glyph glyph-name="yacute" unicode="&#xfd;" horiz-adv-x="515" 
d="M337 566h-148l110 150h181zM420 8q-10 -63 -33 -104t-55.5 -66t-71.5 -35t-81 -10q-54 0 -103 21.5t-79 63.5l81 73q15 -17 41 -26t53 -9q39 0 68.5 18.5t37.5 67.5q-21 -6 -42.5 -9.5t-41.5 -3.5q-37 0 -69.5 10.5t-56 31.5t-34.5 52.5t-5 73.5l51 361h134l-49 -343
q-2 -15 3 -25.5t15.5 -17.5t24.5 -11t29 -4q16 0 31.5 3t28.5 10l55 388h140z" />
    <glyph glyph-name="thorn" unicode="&#xfe;" horiz-adv-x="511" 
d="M222 511q17 9 37.5 13t40.5 4q39 0 73.5 -9t59.5 -30.5t37 -56.5t5 -87l-23 -172q-7 -52 -29.5 -87t-54.5 -56.5t-70 -30.5t-76 -9q-19 0 -36 4t-34 12l-29 -196h-139l127 898h139zM168 120q21 -15 52 -15q16 0 31.5 3t28 11t21.5 21t12 34l24 178q3 25 -8.5 40t-31 21
t-44 3t-47.5 -15z" />
    <glyph glyph-name="ydieresis" unicode="&#xff;" horiz-adv-x="515" 
d="M108 640q5 35 31.5 58t60.5 23q33 0 53 -23t15 -58q-2 -17 -10.5 -31t-20.5 -25t-27.5 -17t-31.5 -6q-35 0 -55 23t-15 56zM330 640q5 35 31.5 58t60.5 23q35 0 54.5 -23t14.5 -58q-5 -33 -31 -56t-60 -23q-35 0 -54.5 23t-15.5 56zM420 8q-10 -63 -33 -104t-55.5 -66
t-71.5 -35t-81 -10q-54 0 -103 21.5t-79 63.5l81 73q15 -17 41 -26t53 -9q39 0 68.5 18.5t37.5 67.5q-21 -6 -42.5 -9.5t-41.5 -3.5q-37 0 -69.5 10.5t-56 31.5t-34.5 52.5t-5 73.5l51 361h134l-49 -343q-2 -15 3 -25.5t15.5 -17.5t24.5 -11t29 -4q16 0 31.5 3t28.5 10
l55 388h140z" />
    <glyph glyph-name="Amacron" unicode="&#x100;" horiz-adv-x="634" 
d="M217 771l16 117h309l-16 -117h-309zM597 0h-154l-40 162h-211l-81 -162h-157l347 708h141zM248 297h136l-23 154l-6 101h-11l-34 -102z" />
    <glyph glyph-name="amacron" unicode="&#x101;" 
d="M137 591l16 117h309l-16 -117h-309zM291 42q-21 -25 -50.5 -38.5t-57.5 -13.5q-35 0 -67 11.5t-55 34.5t-34 56.5t-5 77.5l24 170q7 52 30.5 88t57.5 58.5t75 32t83 9.5q48 0 98.5 -14.5t91.5 -36.5l-65 -477h-114zM334 393q-16 10 -40 12.5t-47 -3.5t-41 -21t-21 -40
l-23 -164q-4 -29 16 -44.5t47 -15.5q23 0 41 5.5t32 13.5z" />
    <glyph glyph-name="Abreve" unicode="&#x102;" horiz-adv-x="634" 
d="M568 906q-7 -53 -36.5 -87t-69 -50.5t-83.5 -16t-79 18t-55 51.5t-13 84h127q-3 -21 8 -32t26 -11t29.5 10.5t17.5 32.5h128zM597 0h-154l-40 162h-211l-81 -162h-157l347 708h141zM248 297h136l-23 154l-6 101h-11l-34 -102z" />
    <glyph glyph-name="abreve" unicode="&#x103;" 
d="M488 726q-7 -53 -36.5 -87t-69 -50.5t-83.5 -16t-79 18t-55 51.5t-13 84h127q-3 -21 8 -32t26 -11t29.5 10.5t17.5 32.5h128zM291 42q-21 -25 -50.5 -38.5t-57.5 -13.5q-35 0 -67 11.5t-55 34.5t-34 56.5t-5 77.5l24 170q7 52 30.5 88t57.5 58.5t75 32t83 9.5
q48 0 98.5 -14.5t91.5 -36.5l-65 -477h-114zM334 393q-16 10 -40 12.5t-47 -3.5t-41 -21t-21 -40l-23 -164q-4 -29 16 -44.5t47 -15.5q23 0 41 5.5t32 13.5z" />
    <glyph glyph-name="Aogonek" unicode="&#x104;" horiz-adv-x="633" 
d="M630 -193q-35 -32 -68.5 -41.5t-62.5 -9.5q-48 0 -73.5 23.5t-28 59.5t17 79t61.5 82h-34l-40 162h-211l-81 -162h-157l347 708h141l155 -708q-32 -30 -47 -53.5t-18 -40t5.5 -25.5t23.5 -9q9 0 21 1.5t27 11.5zM247 297h136l-23 154l-6 101h-11l-34 -102z" />
    <glyph glyph-name="aogonek" unicode="&#x105;" 
d="M381 -128q18 0 38 13l32 -64q-35 -32 -68.5 -46t-62.5 -14q-50 0 -73 23t-23 58t20.5 77.5t58.5 80.5l-12 42q-21 -25 -50.5 -38.5t-57.5 -13.5q-35 0 -67 11.5t-55 34.5t-34 56.5t-5 77.5l24 170q7 52 30.5 88t57.5 58.5t75 32t83 9.5q48 0 98.5 -14.5t91.5 -36.5
l-65 -477q-63 -60 -68 -94t32 -34zM334 393q-16 10 -40 12.5t-47 -3.5t-41 -21t-21 -40l-23 -164q-4 -29 16 -44.5t47 -15.5q23 0 41 5.5t32 13.5z" />
    <glyph glyph-name="Cacute" unicode="&#x106;" horiz-adv-x="583" 
d="M425 756h-148l110 150h181zM548 139q-57 -75 -130.5 -112t-144.5 -37q-51 0 -98.5 15t-82.5 44.5t-52.5 73.5t-8.5 103l38 257q9 58 39 102t73 73.5t94.5 44.5t104.5 15q35 0 70 -9t65 -28t53.5 -47.5t36.5 -67.5l-128 -68q-15 39 -50 57.5t-74 18.5q-24 0 -47.5 -6.5
t-42.5 -18.5t-32.5 -29.5t-16.5 -40.5l-37 -253q-3 -22 4 -39.5t22 -29.5t36 -18t44 -6q40 0 81 18.5t67 58.5z" />
    <glyph glyph-name="cacute" unicode="&#x107;" horiz-adv-x="466" 
d="M332 566h-148l110 150h181zM425 131q-19 -39 -45.5 -66t-56 -43.5t-60.5 -24t-59 -7.5q-39 0 -74.5 11.5t-62 34t-39.5 57t-7 80.5l24 171q6 46 29 80.5t55.5 57.5t71.5 34.5t78 11.5q28 0 57 -7t54 -23.5t42.5 -43t22.5 -66.5l-124 -40q-5 27 -24 39.5t-43 12.5
q-27 0 -51.5 -15t-28.5 -43l-23 -166q-4 -28 15 -44t45 -16q24 0 49 13.5t39 43.5z" />
    <glyph glyph-name="Cdotaccent" unicode="&#x10a;" horiz-adv-x="583" 
d="M301 843q4 27 19.5 45.5t35.5 28t42 9.5t40 -9t28 -27.5t6 -46.5q-4 -26 -19 -43.5t-35 -26t-42 -8.5t-40 8.5t-28.5 26t-6.5 43.5zM548 139q-57 -75 -130.5 -112t-144.5 -37q-51 0 -98.5 15t-82.5 44.5t-52.5 73.5t-8.5 103l38 257q9 58 39 102t73 73.5t94.5 44.5
t104.5 15q35 0 70 -9t65 -28t53.5 -47.5t36.5 -67.5l-128 -68q-15 39 -50 57.5t-74 18.5q-24 0 -47.5 -6.5t-42.5 -18.5t-32.5 -29.5t-16.5 -40.5l-37 -253q-3 -22 4 -39.5t22 -29.5t36 -18t44 -6q40 0 81 18.5t67 58.5z" />
    <glyph glyph-name="cdotaccent" unicode="&#x10b;" horiz-adv-x="466" 
d="M208 653q4 27 19.5 45.5t35.5 28t42 9.5t40 -9t28 -27.5t6 -46.5q-4 -26 -19 -43.5t-35 -26t-42 -8.5t-40 8.5t-28.5 26t-6.5 43.5zM425 131q-19 -39 -45.5 -66t-56 -43.5t-60.5 -24t-59 -7.5q-39 0 -74.5 11.5t-62 34t-39.5 57t-7 80.5l24 171q6 46 29 80.5t55.5 57.5
t71.5 34.5t78 11.5q28 0 57 -7t54 -23.5t42.5 -43t22.5 -66.5l-124 -40q-5 27 -24 39.5t-43 12.5q-27 0 -51.5 -15t-28.5 -43l-23 -166q-4 -28 15 -44t45 -16q24 0 49 13.5t39 43.5z" />
    <glyph glyph-name="Ccaron" unicode="&#x10c;" horiz-adv-x="583" 
d="M349 906l46 -57l52 57h159l-146 -151h-144l-118 151h151zM548 139q-57 -75 -130.5 -112t-144.5 -37q-51 0 -98.5 15t-82.5 44.5t-52.5 73.5t-8.5 103l38 257q9 58 39 102t73 73.5t94.5 44.5t104.5 15q35 0 70 -9t65 -28t53.5 -47.5t36.5 -67.5l-128 -68q-15 39 -50 57.5
t-74 18.5q-24 0 -47.5 -6.5t-42.5 -18.5t-32.5 -29.5t-16.5 -40.5l-37 -253q-3 -22 4 -39.5t22 -29.5t36 -18t44 -6q40 0 81 18.5t67 58.5z" />
    <glyph glyph-name="ccaron" unicode="&#x10d;" horiz-adv-x="466" 
d="M256 716l46 -57l52 57h159l-146 -151h-144l-118 151h151zM425 131q-19 -39 -45.5 -66t-56 -43.5t-60.5 -24t-59 -7.5q-39 0 -74.5 11.5t-62 34t-39.5 57t-7 80.5l24 171q6 46 29 80.5t55.5 57.5t71.5 34.5t78 11.5q28 0 57 -7t54 -23.5t42.5 -43t22.5 -66.5l-124 -40
q-5 27 -24 39.5t-43 12.5q-27 0 -51.5 -15t-28.5 -43l-23 -166q-4 -28 15 -44t45 -16q24 0 49 13.5t39 43.5z" />
    <glyph glyph-name="Dcaron" unicode="&#x10e;" horiz-adv-x="637" 
d="M316 906l46 -57l52 57h159l-146 -151h-144l-118 151h151zM379 708q52 0 99 -13.5t80.5 -41.5t50 -71.5t8.5 -103.5l-36 -252q-8 -60 -36.5 -102.5t-70 -70t-92 -40.5t-102.5 -13h-260l99 708h260zM300 148q24 0 46.5 4t41 13.5t30.5 24.5t15 36l36 252q3 22 -5 37.5
t-23.5 25.5t-37 14.5t-45.5 4.5h-113l-58 -412h113z" />
    <glyph glyph-name="dcaron" unicode="&#x10f;" horiz-adv-x="514" 
d="M626 555h-104l48 153h120zM419 29q-50 -18 -104 -28.5t-103 -10.5q-41 0 -78.5 8t-64.5 28.5t-40.5 55t-6.5 87.5l25 183q6 46 27 79.5t51 54.5t66 31.5t72 10.5q46 0 84 -18l28 197h140zM332 404q-11 6 -23.5 9.5t-29.5 3.5q-15 0 -30.5 -4t-28.5 -12.5t-22.5 -22
t-12.5 -31.5l-26 -176q-3 -22 2.5 -37t16.5 -24t27 -13t33 -4q28 0 52 11z" />
    <glyph glyph-name="Dcroat" unicode="&#x110;" horiz-adv-x="654" 
d="M135 708h282q52 0 95.5 -13t73 -40.5t42.5 -70.5t4 -103l-36 -255q-8 -60 -33 -102.5t-62 -70t-84 -40.5t-99 -13h-282l40 286h-66l18 128h66zM338 148q48 0 76.5 17.5t34.5 60.5l36 255q6 44 -17.5 61.5t-71.5 17.5h-134l-20 -146h128l-18 -128h-128l-20 -138h134z" />
    <glyph glyph-name="dcroat" unicode="&#x111;" horiz-adv-x="511" 
d="M496 571l-77 -542q-50 -18 -104 -28.5t-103 -10.5q-41 0 -78.5 8t-64.5 28.5t-40.5 55t-6.5 87.5l25 183q6 46 27 79.5t51 54.5t66 31.5t72 10.5q46 0 84 -18l9 61h-98l15 84h95l7 52h140l-7 -52h55l-15 -84h-52zM332 404q-11 6 -23.5 9.5t-29.5 3.5q-15 0 -30.5 -4
t-28.5 -12.5t-22.5 -22t-12.5 -31.5l-26 -176q-3 -22 2.5 -37t16.5 -24t27 -13t33 -4q28 0 52 11z" />
    <glyph glyph-name="Emacron" unicode="&#x112;" horiz-adv-x="584" 
d="M204 771l16 117h309l-16 -117h-309zM227 426h305l-20 -143h-305l-19 -140h332l-20 -143h-480l99 709h480l-20 -144h-332z" />
    <glyph glyph-name="emacron" unicode="&#x113;" horiz-adv-x="478" 
d="M123 581l16 117h309l-16 -117h-309zM411 97q-48 -59 -103 -83t-106 -24q-38 0 -73.5 11.5t-61.5 35t-39 58t-7 80.5l23 162q7 47 29.5 83t55 60t71.5 36t78 12t74.5 -12t60.5 -36t37.5 -59t5.5 -81q-8 -54 -40.5 -88.5t-76.5 -51t-92 -16t-86 15.5l-4 -25q-2 -16 3 -27.5
t15.5 -19.5t25 -12t30.5 -4q28 0 56 11t45 31zM174 297q33 -11 70 -11q27 0 52.5 14.5t28.5 40.5q2 16 -3 27.5t-14.5 18.5t-21.5 10.5t-25 3.5q-27 0 -52 -17.5t-29 -45.5z" />
    <glyph glyph-name="Edotaccent" unicode="&#x116;" horiz-adv-x="584" 
d="M280 843q4 27 19.5 45.5t35.5 28t42 9.5t40 -9t28 -27.5t6 -46.5q-4 -26 -19 -43.5t-35 -26t-42 -8.5t-40 8.5t-28.5 26t-6.5 43.5zM227 426h305l-20 -143h-305l-19 -140h332l-20 -143h-480l99 709h480l-20 -144h-332z" />
    <glyph glyph-name="edotaccent" unicode="&#x117;" horiz-adv-x="478" 
d="M199 653q4 27 19.5 45.5t35.5 28t42 9.5t40 -9t28 -27.5t6 -46.5q-4 -26 -19 -43.5t-35 -26t-42 -8.5t-40 8.5t-28.5 26t-6.5 43.5zM411 97q-48 -59 -103 -83t-106 -24q-38 0 -73.5 11.5t-61.5 35t-39 58t-7 80.5l23 162q7 47 29.5 83t55 60t71.5 36t78 12t74.5 -12
t60.5 -36t37.5 -59t5.5 -81q-8 -54 -40.5 -88.5t-76.5 -51t-92 -16t-86 15.5l-4 -25q-2 -16 3 -27.5t15.5 -19.5t25 -12t30.5 -4q28 0 56 11t45 31zM174 297q33 -11 70 -11q27 0 52.5 14.5t28.5 40.5q2 16 -3 27.5t-14.5 18.5t-21.5 10.5t-25 3.5q-27 0 -52 -17.5t-29 -45.5
z" />
    <glyph glyph-name="Eogonek" unicode="&#x118;" horiz-adv-x="583" 
d="M531 426l-20 -143h-305l-19 -140h332l-20 -143q-32 -25 -49 -48t-21.5 -41t2 -28.5t21.5 -10.5q9 0 21 1.5t27 11.5l22 -78q-35 -32 -68.5 -41.5t-62.5 -9.5q-48 0 -73.5 23.5t-28 59.5t17 79t61.5 82h-349l99 709h480l-20 -144h-332l-20 -139h305z" />
    <glyph glyph-name="eogonek" unicode="&#x119;" horiz-adv-x="478" 
d="M157 175q-2 -16 3 -27.5t15.5 -19.5t25 -12t30.5 -4q28 0 56 11t45 31l79 -57q-30 -36 -62 -59q-33 -24 -52 -52.5t-25 -54t0 -42.5t21 -17q9 0 21 1.5t27 11.5l22 -78q-35 -32 -68.5 -41.5t-62.5 -9.5q-47 0 -70.5 22t-25.5 56.5t16.5 75.5t56.5 80h-7q-38 0 -73.5 11.5
t-61.5 35t-39 58t-7 80.5l23 162q7 47 29.5 83t55 60t71.5 36t78 12t74.5 -12t60.5 -36t37.5 -59t5.5 -81q-8 -54 -40.5 -88.5t-76.5 -51t-92 -16t-86 15.5zM174 297q33 -11 70 -11q27 0 52.5 14.5t28.5 40.5q2 16 -3 27.5t-14.5 18.5t-21.5 10.5t-25 3.5q-27 0 -52 -17.5
t-29 -45.5z" />
    <glyph glyph-name="Ecaron" unicode="&#x11a;" horiz-adv-x="584" 
d="M328 906l46 -57l52 57h159l-146 -151h-144l-118 151h151zM227 426h305l-20 -143h-305l-19 -140h332l-20 -143h-480l99 709h480l-20 -144h-332z" />
    <glyph glyph-name="ecaron" unicode="&#x11b;" horiz-adv-x="478" 
d="M247 716l46 -57l52 57h159l-146 -151h-144l-118 151h151zM411 97q-48 -59 -103 -83t-106 -24q-38 0 -73.5 11.5t-61.5 35t-39 58t-7 80.5l23 162q7 47 29.5 83t55 60t71.5 36t78 12t74.5 -12t60.5 -36t37.5 -59t5.5 -81q-8 -54 -40.5 -88.5t-76.5 -51t-92 -16t-86 15.5
l-4 -25q-2 -16 3 -27.5t15.5 -19.5t25 -12t30.5 -4q28 0 56 11t45 31zM174 297q33 -11 70 -11q27 0 52.5 14.5t28.5 40.5q2 16 -3 27.5t-14.5 18.5t-21.5 10.5t-25 3.5q-27 0 -52 -17.5t-29 -45.5z" />
    <glyph glyph-name="Gbreve" unicode="&#x11e;" horiz-adv-x="628" 
d="M563 906q-7 -53 -36.5 -87t-69 -50.5t-83.5 -16t-79 18t-55 51.5t-13 84h127q-3 -21 8 -32t26 -11t29.5 10.5t17.5 32.5h128zM477 497q-11 40 -45 59t-75 19q-24 0 -48 -6t-44 -18.5t-33.5 -31t-16.5 -42.5l-36 -249q-3 -24 5.5 -41.5t25.5 -29.5t39.5 -18t47.5 -6
t49.5 6t45 18t34.5 29.5t17 41.5l4 33h-161l20 143h305l-24 -176q-9 -60 -39.5 -104.5t-74 -74.5t-96 -44.5t-104.5 -14.5q-51 0 -98 15.5t-81.5 45t-51.5 74t-9 103.5l36 257q8 58 37.5 101.5t72.5 73t94.5 44t103.5 14.5q36 0 71 -8t65 -25.5t54 -46t38 -70.5z" />
    <glyph glyph-name="gbreve" unicode="&#x11f;" horiz-adv-x="505" 
d="M481 721q-7 -53 -36.5 -87t-69 -50.5t-83.5 -16t-79 18t-55 51.5t-13 84h127q-3 -21 8 -32t26 -11t29.5 10.5t17.5 32.5h128zM410 8q-10 -63 -33 -104t-55.5 -66t-71.5 -35t-81 -10q-54 0 -103 21.5t-79 63.5l81 73q15 -17 41 -26t53 -9q39 0 68.5 19t37.5 68
q-21 -6 -41.5 -9.5t-40.5 -3.5q-37 0 -70 10.5t-56 31.5t-34.5 52.5t-5.5 73.5l29 196q7 48 29.5 81t55.5 54t73 30t82 9q53 1 102.5 -11.5t87.5 -32.5zM329 412q-21 10 -51 10q-36 0 -63 -16t-32 -49l-28 -190q-5 -35 17 -50t57 -15q31 0 57 13z" />
    <glyph glyph-name="Gdotaccent" unicode="&#x120;" horiz-adv-x="628" 
d="M288 843q4 27 19.5 45.5t35.5 28t42 9.5t40 -9t28 -27.5t6 -46.5q-4 -26 -19 -43.5t-35 -26t-42 -8.5t-40 8.5t-28.5 26t-6.5 43.5zM477 497q-11 40 -45 59t-75 19q-24 0 -48 -6t-44 -18.5t-33.5 -31t-16.5 -42.5l-36 -249q-3 -24 5.5 -41.5t25.5 -29.5t39.5 -18t47.5 -6
t49.5 6t45 18t34.5 29.5t17 41.5l4 33h-161l20 143h305l-24 -176q-9 -60 -39.5 -104.5t-74 -74.5t-96 -44.5t-104.5 -14.5q-51 0 -98 15.5t-81.5 45t-51.5 74t-9 103.5l36 257q8 58 37.5 101.5t72.5 73t94.5 44t103.5 14.5q36 0 71 -8t65 -25.5t54 -46t38 -70.5z" />
    <glyph glyph-name="gdotaccent" unicode="&#x121;" horiz-adv-x="505" 
d="M210 653q4 27 19.5 45.5t35.5 28t42 9.5t40 -9t28 -27.5t6 -46.5q-4 -26 -19 -43.5t-35 -26t-42 -8.5t-40 8.5t-28.5 26t-6.5 43.5zM410 8q-10 -63 -33 -104t-55.5 -66t-71.5 -35t-81 -10q-54 0 -103 21.5t-79 63.5l81 73q15 -17 41 -26t53 -9q39 0 68.5 19t37.5 68
q-21 -6 -41.5 -9.5t-40.5 -3.5q-37 0 -70 10.5t-56 31.5t-34.5 52.5t-5.5 73.5l29 196q7 48 29.5 81t55.5 54t73 30t82 9q53 1 102.5 -11.5t87.5 -32.5zM329 412q-21 10 -51 10q-36 0 -63 -16t-32 -49l-28 -190q-5 -35 17 -50t57 -15q31 0 57 13z" />
    <glyph glyph-name="Gcommaaccent" unicode="&#x122;" horiz-adv-x="628" 
d="M477 497q-11 40 -45 59t-75 19q-24 0 -48 -6t-44 -18.5t-33.5 -31t-16.5 -42.5l-36 -249q-3 -24 5.5 -41.5t25.5 -29.5t39.5 -18t47.5 -6t49.5 6t45 18t34.5 29.5t17 41.5l4 33h-161l20 143h305l-24 -176q-9 -60 -39.5 -104.5t-74 -74.5t-96 -44.5t-104.5 -14.5
q-51 0 -98 15.5t-81.5 45t-51.5 74t-9 103.5l36 257q8 58 37.5 101.5t72.5 73t94.5 44t103.5 14.5q36 0 71 -8t65 -25.5t54 -46t38 -70.5zM284 -254h-137l56 183h153z" />
    <glyph glyph-name="gcommaaccent" unicode="&#x123;" horiz-adv-x="505" 
d="M294 737h130l-59 -163h-156zM410 8q-10 -63 -33 -104t-55.5 -66t-71.5 -35t-81 -10q-54 0 -103 21.5t-79 63.5l81 73q15 -17 41 -26t53 -9q39 0 68.5 19t37.5 68q-21 -6 -41.5 -9.5t-40.5 -3.5q-37 0 -70 10.5t-56 31.5t-34.5 52.5t-5.5 73.5l29 196q7 48 29.5 81
t55.5 54t73 30t82 9q53 1 102.5 -11.5t87.5 -32.5zM329 412q-21 10 -51 10q-36 0 -63 -16t-32 -49l-28 -190q-5 -35 17 -50t57 -15q31 0 57 13z" />
    <glyph glyph-name="Hbar" unicode="&#x126;" horiz-adv-x="697" 
d="M656 519l-73 -519h-147l39 280h-261l-39 -280h-147l73 519h-61l13 94h61l13 95h147l-13 -95h261l13 95h147l-13 -95h61l-13 -94h-61zM248 519l-13 -92h261l13 92h-261z" />
    <glyph glyph-name="hbar" unicode="&#x127;" horiz-adv-x="517" 
d="M309 528q37 0 69.5 -12t55.5 -35t34 -58t5 -81l-48 -342h-138l48 343q2 16 -3 27t-15 18t-24 10.5t-29 3.5q-34 0 -59 -14l-55 -388h-139l80 572h-61l13 86h60l7 50h139l-7 -50h99l-13 -86h-98l-8 -60q42 16 87 16z" />
    <glyph glyph-name="Imacron" unicode="&#x12a;" horiz-adv-x="272" 
d="M72 771l19 135h249l-19 -135h-249zM167 0h-147l99 708h147z" />
    <glyph glyph-name="imacron" unicode="&#x12b;" horiz-adv-x="250" 
d="M39 581l19 135h239l-19 -135h-239zM153 0h-142l72 517h142z" />
    <glyph glyph-name="Iogonek" unicode="&#x12e;" horiz-adv-x="272" 
d="M117 -128q18 0 38 13l32 -64q-35 -32 -68.5 -46t-62.5 -14q-48 0 -72 23t-25 58.5t20.5 77.5t63.5 80h-22l99 708h147l-99 -708h-17q-31 -29 -47 -53t-19 -40.5t5.5 -25.5t26.5 -9z" />
    <glyph glyph-name="iogonek" unicode="&#x12f;" horiz-adv-x="246" 
d="M181 727q38 0 57.5 -24t14.5 -59t-31.5 -59.5t-64.5 -24.5q-17 0 -31 6.5t-23.5 18t-13.5 26.5t-2 33q3 18 11.5 33t21 26t28.5 17.5t33 6.5zM138 0q-63 -60 -68 -94t32 -34q18 0 38 13l32 -64q-35 -32 -68.5 -46t-62.5 -14q-48 0 -70 23t-22 58.5t20.5 77.5t58.5 80h-16
l72 519h139l-72 -519h-13z" />
    <glyph glyph-name="Idotaccent" unicode="&#x130;" horiz-adv-x="272" 
d="M114 843q4 27 19.5 45.5t35.5 28t42 9.5t40 -9t28 -27.5t6 -46.5q-4 -26 -19 -43.5t-35 -26t-42 -8.5t-40 8.5t-28.5 26t-6.5 43.5zM167 0h-147l99 708h147z" />
    <glyph glyph-name="dotlessi" unicode="&#x131;" horiz-adv-x="249" 
d="M153 0h-142l72 517h142z" />
    <glyph glyph-name="IJ" unicode="&#x132;" horiz-adv-x="869" 
d="M167 0h-147l99 708h147zM868 708l-68 -486q-8 -58 -36 -101.5t-67.5 -72.5t-88 -43.5t-98.5 -14.5q-44 0 -88 14t-79 43.5t-56.5 73.5t-20.5 104l142 28q1 -30 11 -52t26 -37t35.5 -22.5t40.5 -7.5q22 0 44 5.5t40.5 17t31.5 30t16 45.5l47 337h-167l20 139h315z" />
    <glyph glyph-name="ij" unicode="&#x133;" horiz-adv-x="493" 
d="M86 644q3 18 11.5 33t21 26t28.5 17.5t33 6.5q38 0 57.5 -24t14.5 -59t-31.5 -59.5t-64.5 -24.5q-17 0 -31 6.5t-23.5 18t-13.5 26.5t-2 33zM222 519l-72 -519h-139l72 519h139zM333 643q3 18 11.5 33.5t21.5 26.5t29 17.5t33 6.5q35 0 56 -24t16 -60q-3 -17 -11.5 -32.5
t-21.5 -26.5t-29 -17.5t-34 -6.5q-35 0 -55.5 24t-15.5 59zM178 -76q23 -2 37.5 4t23 16.5t12 23t5.5 23.5l74 528h139l-74 -528q-6 -42 -23 -79t-46 -61.5t-69.5 -34.5t-93.5 1z" />
    <glyph glyph-name="Kcommaaccent" unicode="&#x136;" horiz-adv-x="633" 
d="M518 708h179l-353 -347l254 -361h-182l-185 263l-31 -27l-33 -236h-147l99 708h147l-41 -295zM303 -254h-137l56 183h153z" />
    <glyph glyph-name="kcommaaccent" unicode="&#x137;" horiz-adv-x="508" 
d="M372 518h162l-241 -250q40 -65 85.5 -135t84.5 -133h-161l-117 189l-10 -8l-25 -181h-139l99 707h139l-54 -385zM237 -254h-137l56 183h153z" />
    <glyph glyph-name="Lacute" unicode="&#x139;" horiz-adv-x="529" 
d="M238 756h-148l110 150h181zM119 708h147l-79 -560h306l-20 -148h-453z" />
    <glyph glyph-name="lacute" unicode="&#x13a;" horiz-adv-x="277" 
d="M218 757h-148l110 150h181zM228 -8q-58 -9 -98 4t-64 40t-32 65.5t-2 80.5l75 526h139l-75 -526q-5 -29 13 -50t61 -21z" />
    <glyph glyph-name="Lcommaaccent" unicode="&#x13b;" horiz-adv-x="529" 
d="M119 708h147l-79 -560h306l-20 -148h-453zM258 -254h-137l56 183h153z" />
    <glyph glyph-name="lcommaaccent" unicode="&#x13c;" horiz-adv-x="277" 
d="M228 -8q-58 -9 -98 4t-64 40t-32 65.5t-2 80.5l75 526h139l-75 -526q-5 -29 13 -50t61 -21zM145 -254h-137l56 183h153z" />
    <glyph glyph-name="Lcaron" unicode="&#x13d;" horiz-adv-x="530" 
d="M119 708h147l-79 -560h306l-20 -148h-453zM448 518h-124l66 190h140z" />
    <glyph glyph-name="lcaron" unicode="&#x13e;" horiz-adv-x="288" 
d="M228 -8q-58 -9 -98 4t-64 40t-32 65.5t-2 80.5l75 526h139l-75 -526q-5 -29 13 -50t61 -21zM366 538h-114l54 170h130z" />
    <glyph glyph-name="Ldot" unicode="&#x13f;" horiz-adv-x="538" 
d="M119 708h147l-79 -560h306l-20 -148h-453zM300 401q5 37 33 62t66 25q37 0 57 -25t15 -62q-5 -36 -32 -60.5t-64 -24.5q-38 0 -59 24.5t-16 60.5z" />
    <glyph glyph-name="ldot" unicode="&#x140;" horiz-adv-x="365" 
d="M228 -8q-58 -9 -98 4t-64 40t-32 65.5t-2 80.5l75 526h139l-75 -526q-5 -29 13 -50t61 -21zM230 361q5 35 31 58.5t62 23.5q35 0 54 -23.5t14 -58.5q-5 -34 -30.5 -57t-60.5 -23q-36 0 -55.5 23t-14.5 57z" />
    <glyph glyph-name="Lslash" unicode="&#x141;" horiz-adv-x="557" 
d="M487 0h-439l36 259l-58 -25l-31 89l105 46l47 339h148l-38 -270l140 61l31 -92l-187 -80l-25 -178h291z" />
    <glyph glyph-name="lslash" unicode="&#x142;" horiz-adv-x="332" 
d="M208 177q-1 -10 0.5 -22t9.5 -20.5t24 -11.5t43 4l-17 -123q-60 -15 -101 -6t-64.5 34.5t-31 63.5t-1.5 81l10 72l-57 -22l-25 71l95 39l48 343h138l-40 -283l76 31l24 -80l-113 -43z" />
    <glyph glyph-name="Nacute" unicode="&#x143;" horiz-adv-x="680" 
d="M441 756h-148l110 150h181zM527 708h147l-99 -708h-157l-164 372l-30 96h-4l-4 -123l-48 -345h-148l99 708h145l170 -386l35 -126h3l4 150z" />
    <glyph glyph-name="nacute" unicode="&#x144;" horiz-adv-x="515" 
d="M342 576h-148l110 150h181zM78 483q46 21 96 33t98 12q44 0 83 -10.5t67.5 -33t42 -58.5t6.5 -87l-48 -339h-138l46 331q5 35 -16.5 52t-51.5 17q-32 0 -60 -14l-54 -386h-139z" />
    <glyph glyph-name="Ncommaaccent" unicode="&#x145;" horiz-adv-x="680" 
d="M527 708h147l-99 -708h-157l-164 372l-30 96h-4l-4 -123l-48 -345h-148l99 708h145l170 -386l35 -126h3l4 150zM309 -254h-137l56 183h153z" />
    <glyph glyph-name="ncommaaccent" unicode="&#x146;" horiz-adv-x="515" 
d="M78 483q46 21 96 33t98 12q44 0 83 -10.5t67.5 -33t42 -58.5t6.5 -87l-48 -339h-138l46 331q5 35 -16.5 52t-51.5 17q-32 0 -60 -14l-54 -386h-139zM228 -254h-137l56 183h153z" />
    <glyph glyph-name="Ncaron" unicode="&#x147;" horiz-adv-x="680" 
d="M365 906l46 -57l52 57h159l-146 -151h-144l-118 151h151zM527 708h147l-99 -708h-157l-164 372l-30 96h-4l-4 -123l-48 -345h-148l99 708h145l170 -386l35 -126h3l4 150z" />
    <glyph glyph-name="ncaron" unicode="&#x148;" horiz-adv-x="515" 
d="M266 726l46 -57l52 57h159l-146 -151h-144l-118 151h151zM78 483q46 21 96 33t98 12q44 0 83 -10.5t67.5 -33t42 -58.5t6.5 -87l-48 -339h-138l46 331q5 35 -16.5 52t-51.5 17q-32 0 -60 -14l-54 -386h-139z" />
    <glyph glyph-name="Eng" unicode="&#x14a;" horiz-adv-x="679" 
d="M573 -9q-6 -42 -23.5 -79t-46.5 -61.5t-69.5 -34.5t-93.5 1l15 107q23 -2 37.5 4t23 16.5t12 23t5.5 23.5l1 9h-17l-164 372l-30 96l-10 -2l2 -121l-48 -345h-148l99 708h145l170 -386l32 -128l10 2q0 17 -0.5 40.5t-0.5 46t0.5 40t0.5 23.5l51 362h147z" />
    <glyph glyph-name="eng" unicode="&#x14b;" horiz-adv-x="514" 
d="M270 528q44 0 83 -10.5t67.5 -33t42 -58.5t6.5 -87l-48 -348q-6 -42 -23 -79t-46 -61.5t-69.5 -34.5t-93.5 1l15 107q23 -2 37 4t22.5 16.5t12.5 23t6 23.5l47 340q5 35 -16.5 52t-51.5 17q-32 0 -60 -14l-54 -386h-139l68 483q46 21 96 33t98 12z" />
    <glyph glyph-name="Omacron" unicode="&#x14c;" horiz-adv-x="668" 
d="M241 780l16 117h309l-16 -117h-309zM68 481q8 60 39.5 104.5t77.5 74t101 44t110 13.5q54 -1 103 -16t84.5 -44.5t54 -73.5t10.5 -102l-35 -255q-8 -59 -39.5 -103.5t-77 -74t-100 -44t-109.5 -14.5q-54 0 -103 15t-85.5 44.5t-55 73.5t-10.5 103zM177 222
q-3 -23 6.5 -39.5t28 -27.5t43.5 -16.5t52 -5.5t53.5 5.5t48.5 17t37 28t18 38.5l39 263q3 23 -6.5 40t-28 28t-43 16.5t-51.5 5.5t-54 -5.5t-49 -17t-37 -28.5t-18 -39z" />
    <glyph glyph-name="omacron" unicode="&#x14d;" horiz-adv-x="494" 
d="M134 591l16 117h309l-16 -117h-309zM45 343q6 46 29 80.5t55.5 57.5t71.5 35t78 12t74.5 -12t61 -35t38.5 -57.5t7 -80.5l-24 -169q-7 -47 -29.5 -81.5t-55 -57t-71 -34t-77.5 -11.5t-74.5 11.5t-62 34t-39.5 57t-6 81.5zM260 400q-25 0 -48.5 -13t-27.5 -38l-24 -176
q-2 -12 2.5 -22.5t13.5 -18t21 -11.5t24 -4t24.5 4t23.5 11.5t18.5 18t9.5 22.5l24 176q2 12 -3 21.5t-14 16t-20.5 10t-23.5 3.5z" />
    <glyph glyph-name="Ohungarumlaut" unicode="&#x150;" horiz-adv-x="668" 
d="M352 765h-137l79 150h180zM576 765h-137l76 150h180zM68 481q8 60 39.5 104.5t77.5 74t101 44t110 13.5q54 -1 103 -16t84.5 -44.5t54 -73.5t10.5 -102l-35 -255q-8 -59 -39.5 -103.5t-77 -74t-100 -44t-109.5 -14.5q-54 0 -103 15t-85.5 44.5t-55 73.5t-10.5 103z
M177 222q-3 -23 6.5 -39.5t28 -27.5t43.5 -16.5t52 -5.5t53.5 5.5t48.5 17t37 28t18 38.5l39 263q3 23 -6.5 40t-28 28t-43 16.5t-51.5 5.5t-54 -5.5t-49 -17t-37 -28.5t-18 -39z" />
    <glyph glyph-name="ohungarumlaut" unicode="&#x151;" horiz-adv-x="494" 
d="M234 580h-122l70 134h160zM433 580h-122l68 134h159zM45 343q6 46 29 80.5t55.5 57.5t71.5 35t78 12t74.5 -12t61 -35t38.5 -57.5t7 -80.5l-24 -169q-7 -47 -29.5 -81.5t-55 -57t-71 -34t-77.5 -11.5t-74.5 11.5t-62 34t-39.5 57t-6 81.5zM260 400q-25 0 -48.5 -13
t-27.5 -38l-24 -176q-2 -12 2.5 -22.5t13.5 -18t21 -11.5t24 -4t24.5 4t23.5 11.5t18.5 18t9.5 22.5l24 176q2 12 -3 21.5t-14 16t-20.5 10t-23.5 3.5z" />
    <glyph glyph-name="OE" unicode="&#x152;" horiz-adv-x="847" 
d="M560 426h234l-20 -147h-234l-19 -132h261l-20 -147h-397l3 31q-34 -21 -69 -30.5t-70 -10.5q-45 0 -84.5 15t-67.5 43t-41.5 67.5t-4.5 87.5l42 298q7 51 34 91.5t64.5 68.5t82.5 42.5t88 14.5q34 -1 64 -11t53 -31l5 31h397l-21 -148h-261zM309 118q18 0 38 5t37 22
l57 408q-16 16 -40.5 26t-52.5 10q-22 0 -44 -6.5t-39.5 -18t-29.5 -28t-15 -36.5l-41 -295q-3 -23 7 -39.5t28.5 -27t43 -15.5t51.5 -5z" />
    <glyph glyph-name="oe" unicode="&#x153;" horiz-adv-x="756" 
d="M687 97q-48 -59 -103 -82.5t-106 -23.5q-17 0 -35 1t-35.5 7t-33 17.5t-26.5 32.5q-35 -37 -71.5 -47.5t-74.5 -11.5q-39 0 -74.5 11.5t-62 34t-39.5 57t-6 81.5l25 170q7 46 29.5 80.5t55 57.5t71.5 34.5t78 11.5q38 -1 74 -15.5t56 -48.5q32 36 69.5 50t75.5 14
q39 0 75 -11t61.5 -34t38.5 -58.5t6 -84.5q-8 -54 -41 -88.5t-77.5 -51t-93 -16t-86.5 15.5l-4 -25q-4 -30 16 -45t49 -17t60.5 8.5t49.5 32.5zM261 401q-25 0 -48.5 -13t-27.5 -38l-25 -177q-2 -12 2.5 -22.5t13.5 -18t21 -11.5t24 -4t24 4t22.5 11t18.5 16.5t10 21.5l1 3
l24 170l1 9q1 12 -4 21t-14 15.5t-20 9.5t-23 3zM451 300q33 -11 69 -11q27 0 52.5 13t28.5 39q2 13 -3 24t-14.5 19t-21.5 12.5t-25 4.5q-27 0 -52 -17.5t-29 -45.5z" />
    <glyph glyph-name="Racute" unicode="&#x154;" horiz-adv-x="633" 
d="M393 756h-148l110 150h181zM256 259h-52l-36 -259h-148l99 708h279q53 0 97 -12.5t74 -40t43.5 -70.5t6.5 -103q-14 -98 -63 -148t-128 -65l174 -269h-181zM354 393q49 0 80 20.5t38 67.5q3 22 -2.5 37.5t-18.5 24.5t-32 13t-42 4h-131l-23 -167h131z" />
    <glyph glyph-name="racute" unicode="&#x155;" horiz-adv-x="339" 
d="M304 576h-148l110 150h181zM281 528q15 0 36 -3t38 -8l-16 -113q-21 6 -45 6.5t-45 -6.5t-36.5 -23.5t-19.5 -43.5l-47 -337h-139l48 342q6 46 28 81t53.5 58t69 35t75.5 12z" />
    <glyph glyph-name="Rcommaaccent" unicode="&#x156;" horiz-adv-x="633" 
d="M256 259h-52l-36 -259h-148l99 708h279q53 0 97 -12.5t74 -40t43.5 -70.5t6.5 -103q-14 -98 -63 -148t-128 -65l174 -269h-181zM354 393q49 0 80 20.5t38 67.5q3 22 -2.5 37.5t-18.5 24.5t-32 13t-42 4h-131l-23 -167h131zM302 -254h-137l56 183h153z" />
    <glyph glyph-name="rcommaaccent" unicode="&#x157;" horiz-adv-x="339" 
d="M281 528q15 0 36 -3t38 -8l-16 -113q-21 6 -45 6.5t-45 -6.5t-36.5 -23.5t-19.5 -43.5l-47 -337h-139l48 342q6 46 28 81t53.5 58t69 35t75.5 12zM88 -254h-137l56 183h153z" />
    <glyph glyph-name="Rcaron" unicode="&#x158;" horiz-adv-x="633" 
d="M317 906l46 -57l52 57h159l-146 -151h-144l-118 151h151zM256 259h-52l-36 -259h-148l99 708h279q53 0 97 -12.5t74 -40t43.5 -70.5t6.5 -103q-14 -98 -63 -148t-128 -65l174 -269h-181zM354 393q49 0 80 20.5t38 67.5q3 22 -2.5 37.5t-18.5 24.5t-32 13t-42 4h-131
l-23 -167h131z" />
    <glyph glyph-name="rcaron" unicode="&#x159;" horiz-adv-x="339" 
d="M217 726l46 -57l52 57h159l-146 -151h-144l-118 151h151zM281 528q15 0 36 -3t38 -8l-16 -113q-21 6 -45 6.5t-45 -6.5t-36.5 -23.5t-19.5 -43.5l-47 -337h-139l48 342q6 46 28 81t53.5 58t69 35t75.5 12z" />
    <glyph glyph-name="Sacute" unicode="&#x15a;" horiz-adv-x="569" 
d="M390 766h-148l110 150h181zM119 213q12 -20 29 -35t37.5 -25t42 -15.5t41.5 -5.5q45 0 73 18t36 55q4 23 -4.5 37.5t-26 24t-42 14.5t-51.5 9q-41 6 -79 22.5t-66 44t-42 67t-5 91.5q9 54 35.5 92t64 63t83 36.5t93.5 11.5q69 0 127 -28t102 -95l-121 -77
q-23 31 -53 44.5t-65 13.5q-21 0 -40.5 -3t-35.5 -10.5t-27 -20.5t-14 -33q-4 -21 4.5 -34.5t24.5 -21.5t37.5 -13t44.5 -10q45 -9 86.5 -22.5t71 -40.5t43 -70.5t2.5 -110.5q-9 -56 -35.5 -93.5t-65.5 -60t-87.5 -32.5t-101.5 -10q-35 0 -69 8.5t-65 25.5t-57 42t-44 59z
" />
    <glyph glyph-name="sacute" unicode="&#x15b;" horiz-adv-x="424" 
d="M302 566h-148l110 150h181zM70 168q20 -22 45.5 -35.5t49.5 -18t42.5 0t24.5 18.5q9 23 1.5 40.5t-42.5 25.5q-47 10 -77 30.5t-46 47t-19 57t4 60.5q14 60 64 96.5t128 37.5q35 1 79 -10.5t79 -43.5l-83 -95q-10 11 -29.5 19.5t-40.5 10.5t-38.5 -5.5t-22.5 -28.5
q-5 -23 8 -38t51 -25q24 -6 49 -18t44.5 -31t29.5 -47.5t5 -67.5q-6 -42 -24 -72t-46 -49t-64 -28t-77 -9q-54 0 -99 19.5t-75 68.5z" />
    <glyph glyph-name="Scedilla" unicode="&#x15e;" horiz-adv-x="569" 
d="M322 430q45 -9 86.5 -22.5t71 -40.5t43 -70.5t2.5 -110.5q-8 -45 -27 -78t-47 -56t-63.5 -37t-75.5 -20l-24 -40q33 -4 52.5 -21t25 -40.5t-1.5 -49.5t-25.5 -48t-48.5 -36.5t-70 -14.5q-30 0 -66.5 11.5t-63.5 37.5l41 75q19 -14 38.5 -20t33.5 -6q21 0 30.5 11.5t6 24
t-22 22.5t-52.5 7l49 83q-32 2 -63.5 11.5t-59.5 26.5t-51.5 41t-39.5 55l119 88q12 -20 29 -35t37.5 -25t42 -15.5t41.5 -5.5q45 0 73 18t36 55q4 23 -4.5 37.5t-26 24t-42 14.5t-51.5 9q-41 6 -79 22.5t-66 44t-42 67t-5 91.5q9 54 35.5 92t64 63t83 36.5t93.5 11.5
q69 0 127 -28t102 -95l-121 -77q-23 31 -53 44.5t-65 13.5q-21 0 -40.5 -3t-35.5 -10.5t-27 -20.5t-14 -33q-4 -21 4.5 -34.5t24.5 -21.5t37.5 -13t44.5 -10z" />
    <glyph glyph-name="scedilla" unicode="&#x15f;" horiz-adv-x="425" 
d="M248 312q24 -6 49 -18t44.5 -31t29.5 -47.5t5 -67.5q-9 -67 -48 -103.5t-97 -48.5l-24 -40q33 -4 52.5 -21t25 -40.5t-1.5 -49.5t-25.5 -48t-48.5 -36.5t-70 -14.5q-30 0 -66.5 11.5t-63.5 37.5l41 75q19 -14 38.5 -20t33.5 -6q21 0 30.5 11.5t6 24t-22 22.5t-52.5 7
l49 83q-44 5 -80 24.5t-62 61.5l79 90q20 -22 45.5 -35.5t49.5 -18t42.5 0t24.5 18.5q9 23 1.5 40.5t-42.5 25.5q-47 10 -77 30.5t-46 47t-19 57t4 60.5q14 60 64 96.5t128 37.5q35 1 79 -10.5t79 -43.5l-83 -95q-10 11 -29.5 19.5t-40.5 10.5t-38.5 -5.5t-22.5 -28.5
q-5 -23 8 -38t51 -25z" />
    <glyph glyph-name="Scaron" unicode="&#x160;" horiz-adv-x="569" 
d="M314 916l46 -57l52 57h159l-146 -151h-144l-118 151h151zM119 213q12 -20 29 -35t37.5 -25t42 -15.5t41.5 -5.5q45 0 73 18t36 55q4 23 -4.5 37.5t-26 24t-42 14.5t-51.5 9q-41 6 -79 22.5t-66 44t-42 67t-5 91.5q9 54 35.5 92t64 63t83 36.5t93.5 11.5q69 0 127 -28
t102 -95l-121 -77q-23 31 -53 44.5t-65 13.5q-21 0 -40.5 -3t-35.5 -10.5t-27 -20.5t-14 -33q-4 -21 4.5 -34.5t24.5 -21.5t37.5 -13t44.5 -10q45 -9 86.5 -22.5t71 -40.5t43 -70.5t2.5 -110.5q-9 -56 -35.5 -93.5t-65.5 -60t-87.5 -32.5t-101.5 -10q-35 0 -69 8.5t-65 25.5
t-57 42t-44 59z" />
    <glyph glyph-name="scaron" unicode="&#x161;" horiz-adv-x="424" 
d="M226 716l46 -57l52 57h159l-146 -151h-144l-118 151h151zM70 168q20 -22 45.5 -35.5t49.5 -18t42.5 0t24.5 18.5q9 23 1.5 40.5t-42.5 25.5q-47 10 -77 30.5t-46 47t-19 57t4 60.5q14 60 64 96.5t128 37.5q35 1 79 -10.5t79 -43.5l-83 -95q-10 11 -29.5 19.5t-40.5 10.5
t-38.5 -5.5t-22.5 -28.5q-5 -23 8 -38t51 -25q24 -6 49 -18t44.5 -31t29.5 -47.5t5 -67.5q-6 -42 -24 -72t-46 -49t-64 -28t-77 -9q-54 0 -99 19.5t-75 68.5z" />
    <glyph glyph-name="Tcommaaccent" unicode="&#x162;" horiz-adv-x="583" 
d="M49 0zM400 561l-78 -561h-148l78 561h-203l21 148h554l-21 -148h-203zM259 -254h-137l56 183h153z" />
    <glyph glyph-name="tcommaaccent" unicode="&#x163;" horiz-adv-x="317" 
d="M24 0zM149 -243h-125l52 180h140zM253 6q-48 -15 -87 -15q-36 0 -63.5 12t-45.5 36t-24.5 59.5t0.5 82.5l65 462h126l-7 -125h94l-17 -125h-94l-29 -211q-7 -45 19 -65t78 -10z" />
    <glyph glyph-name="Tcaron" unicode="&#x164;" horiz-adv-x="583" 
d="M316 906l46 -57l52 57h159l-146 -151h-144l-118 151h151zM400 561l-78 -561h-148l78 561h-203l21 148h554l-21 -148h-203z" />
    <glyph glyph-name="tcaron" unicode="&#x165;" horiz-adv-x="316" 
d="M383 555h-112l48 153h128zM253 6q-48 -15 -87 -15q-36 0 -63.5 12t-45.5 36t-24.5 59.5t0.5 82.5l65 462h126l-7 -125h94l-17 -125h-94l-29 -211q-7 -45 19 -65t78 -10z" />
    <glyph glyph-name="Tbar" unicode="&#x166;" horiz-adv-x="589" 
d="M378 373h93l-17 -105h-91l-37 -268h-148l37 268h-93l17 105h91l26 188h-203l21 148h554l-21 -148h-203z" />
    <glyph glyph-name="tbar" unicode="&#x167;" horiz-adv-x="335" 
d="M210 323h79l-13 -89h-79l-8 -52q-7 -45 19 -65t78 -10l-15 -101q-48 -15 -87 -15q-36 0 -63.5 12t-45.5 36t-24.5 59.5t0.5 82.5l8 53h-58l13 89h57l45 320h126l-5 -125h85l-17 -125h-85z" />
    <glyph glyph-name="Umacron" unicode="&#x16a;" horiz-adv-x="671" 
d="M546 771h-309l16 117h309zM195 232q-4 -25 5 -44t25.5 -31t39.5 -18t48 -6q24 0 48 6t43.5 18.5t33.5 31t17 43.5l67 476h148l-67 -476q-9 -61 -39.5 -106.5t-74 -75.5t-95.5 -45t-104 -15t-99.5 15.5t-82 45.5t-52 75.5t-9.5 105.5l67 476h148z" />
    <glyph glyph-name="umacron" unicode="&#x16b;" horiz-adv-x="517" 
d="M133 581l16 117h309l-16 -117h-309zM425 28q-46 -16 -100 -27t-107 -11q-42 0 -79.5 9.5t-63.5 31.5t-38.5 58.5t-4.5 90.5l48 338h139l-45 -324q-4 -36 21 -56.5t61 -20.5q11 0 22.5 1.5t22.5 5.5l55 394h138z" />
    <glyph glyph-name="Uring" unicode="&#x16e;" horiz-adv-x="671" 
d="M418 993q41 0 67 -17.5t37 -44t7.5 -57t-20.5 -57t-47 -44t-73 -17.5q-42 0 -68 17.5t-36.5 44t-7 57t21 57t47.5 44t72 17.5zM410 924q-29 0 -44.5 -15.5t-17 -34t10.5 -34t39 -15.5t41.5 15.5t16.5 34t-9.5 34t-36.5 15.5zM195 232q-4 -25 5 -44t25.5 -31t39.5 -18
t48 -6q24 0 48 6t43.5 18.5t33.5 31t17 43.5l67 476h148l-67 -476q-9 -61 -39.5 -106.5t-74 -75.5t-95.5 -45t-104 -15t-99.5 15.5t-82 45.5t-52 75.5t-9.5 105.5l67 476h148z" />
    <glyph glyph-name="uring" unicode="&#x16f;" horiz-adv-x="517" 
d="M314 803q41 0 67 -17.5t37 -44t7.5 -57t-20.5 -57t-47 -44t-73 -17.5q-42 0 -68 17.5t-36.5 44t-7 57t21 57t47.5 44t72 17.5zM306 734q-29 0 -44.5 -15.5t-17 -34t10.5 -34t39 -15.5t41.5 15.5t16.5 34t-9.5 34t-36.5 15.5zM425 28q-46 -16 -100 -27t-107 -11
q-42 0 -79.5 9.5t-63.5 31.5t-38.5 58.5t-4.5 90.5l48 338h139l-45 -324q-4 -36 21 -56.5t61 -20.5q11 0 22.5 1.5t22.5 5.5l55 394h138z" />
    <glyph glyph-name="Uhungarumlaut" unicode="&#x170;" horiz-adv-x="671" 
d="M470 906l-122 -150h-137l79 150h180zM691 906l-119 -150h-137l76 150h180zM195 232q-4 -25 5 -44t25.5 -31t39.5 -18t48 -6q24 0 48 6t43.5 18.5t33.5 31t17 43.5l67 476h148l-67 -476q-9 -61 -39.5 -106.5t-74 -75.5t-95.5 -45t-104 -15t-99.5 15.5t-82 45.5t-52 75.5
t-9.5 105.5l67 476h148z" />
    <glyph glyph-name="uhungarumlaut" unicode="&#x171;" horiz-adv-x="517" 
d="M249 570h-129l75 141h169zM460 570h-129l72 141h170zM425 28q-46 -16 -100 -27t-107 -11q-42 0 -79.5 9.5t-63.5 31.5t-38.5 58.5t-4.5 90.5l48 338h139l-45 -324q-4 -36 21 -56.5t61 -20.5q11 0 22.5 1.5t22.5 5.5l55 394h138z" />
    <glyph glyph-name="Uogonek" unicode="&#x172;" horiz-adv-x="671" 
d="M603 232q-6 -40 -21 -73t-37.5 -59.5t-51 -47t-60.5 -33.5q-24 -10 -46 -20t-39.5 -23.5t-28.5 -31.5t-13 -44q-2 -28 33 -28q18 0 38 13l32 -64q-35 -32 -68.5 -46t-62.5 -14q-47 0 -70 22t-24 56t18 74.5t55 78.5q-47 4 -88.5 21.5t-71 47.5t-44 72.5t-6.5 98.5l67 476
h148l-67 -476q-4 -25 5 -44t25.5 -31t39.5 -18t48 -6q24 0 48 6t43.5 18.5t33.5 31t17 43.5l67 476h148z" />
    <glyph glyph-name="uogonek" unicode="&#x173;" horiz-adv-x="517" 
d="M273 -7q-27 -3 -55 -3q-42 0 -79.5 9.5t-63.5 31.5t-38.5 58.5t-4.5 90.5l48 338h139l-45 -324q-4 -36 21 -56.5t61 -20.5q11 0 22.5 1.5t22.5 5.5l55 394h138l-69 -490l-29 -28q-63 -60 -68 -94t32 -34q18 0 38 13l32 -64q-35 -32 -68.5 -46t-62.5 -14q-47 0 -70 21.5
t-24.5 55t17 74t54.5 77.5z" />
    <glyph glyph-name="Wcircumflex" unicode="&#x174;" horiz-adv-x="920" 
d="M727 756h-128l-44 57l-60 -57h-140l158 150h113zM59 708h152l49 -370l-1 -165h9l47 166l128 271h119l48 -273l5 -171h9l43 171l155 371h151l-303 -708h-144l-53 273l-4 85h-8q-8 -24 -15 -43q-6 -17 -11 -30.5t-5 -12.5l-121 -272h-144z" />
    <glyph glyph-name="wcircumflex" unicode="&#x175;" horiz-adv-x="697" 
d="M576 566h-128l-44 57l-60 -57h-140l158 150h113zM248 0h-126l-89 518h137l26 -219l3 -125h1l31 126l96 218h101l34 -217l-3 -127h1l38 126l83 218h139l-228 -518h-127l-17 187l4 141h-3l-34 -141z" />
    <glyph glyph-name="Ycircumflex" unicode="&#x176;" horiz-adv-x="627" 
d="M565 756h-128l-44 57l-60 -57h-140l158 150h113zM197 0l38 271l-185 437h169l108 -296l192 296h171l-308 -437l-38 -271h-147z" />
    <glyph glyph-name="ycircumflex" unicode="&#x177;" horiz-adv-x="515" 
d="M478 566h-128l-44 57l-60 -57h-140l158 150h113zM420 8q-10 -63 -33 -104t-55.5 -66t-71.5 -35t-81 -10q-54 0 -103 21.5t-79 63.5l81 73q15 -17 41 -26t53 -9q39 0 68.5 18.5t37.5 67.5q-21 -6 -42.5 -9.5t-41.5 -3.5q-37 0 -69.5 10.5t-56 31.5t-34.5 52.5t-5 73.5
l51 361h134l-49 -343q-2 -15 3 -25.5t15.5 -17.5t24.5 -11t29 -4q16 0 31.5 3t28.5 10l55 388h140z" />
    <glyph glyph-name="Ydieresis" unicode="&#x178;" horiz-adv-x="627" 
d="M195 830q5 35 31.5 58t60.5 23q33 0 53 -23t15 -58q-2 -17 -10.5 -31t-20.5 -25t-27.5 -17t-31.5 -6q-35 0 -55 23t-15 56zM417 830q5 35 31.5 58t60.5 23q35 0 54.5 -23t14.5 -58q-5 -33 -31 -56t-60 -23q-35 0 -54.5 23t-15.5 56zM197 0l38 271l-185 437h169l108 -296
l192 296h171l-308 -437l-38 -271h-147z" />
    <glyph glyph-name="Zacute" unicode="&#x179;" horiz-adv-x="594" 
d="M416 756h-148l110 150h181zM590 708l32 -67l-425 -508h339l-18 -133h-510l-25 67l424 508h-334l18 133h499z" />
    <glyph glyph-name="zacute" unicode="&#x17a;" horiz-adv-x="450" 
d="M315 566h-148l110 150h181zM413 518l34 -49l-265 -352h209l-16 -117h-359l-32 50l264 351h-196l14 117h347z" />
    <glyph glyph-name="Zdotaccent" unicode="&#x17b;" horiz-adv-x="594" 
d="M266 843q4 27 19.5 45.5t35.5 28t42 9.5t40 -9t28 -27.5t6 -46.5q-4 -26 -19 -43.5t-35 -26t-42 -8.5t-40 8.5t-28.5 26t-6.5 43.5zM590 708l32 -67l-425 -508h339l-18 -133h-510l-25 67l424 508h-334l18 133h499z" />
    <glyph glyph-name="zdotaccent" unicode="&#x17c;" horiz-adv-x="450" 
d="M191 653q4 27 19.5 45.5t35.5 28t42 9.5t40 -9t28 -27.5t6 -46.5q-4 -26 -19 -43.5t-35 -26t-42 -8.5t-40 8.5t-28.5 26t-6.5 43.5zM413 518l34 -49l-265 -352h209l-16 -117h-359l-32 50l264 351h-196l14 117h347z" />
    <glyph glyph-name="Zcaron" unicode="&#x17d;" horiz-adv-x="594" 
d="M314 906l46 -57l52 57h159l-146 -151h-144l-118 151h151zM590 708l32 -67l-425 -508h339l-18 -133h-510l-25 67l424 508h-334l18 133h499z" />
    <glyph glyph-name="zcaron" unicode="&#x17e;" horiz-adv-x="450" 
d="M239 716l46 -57l52 57h159l-146 -151h-144l-118 151h151zM413 518l34 -49l-265 -352h209l-16 -117h-359l-32 50l264 351h-196l14 117h347z" />
    <glyph glyph-name="florin" unicode="&#x192;" horiz-adv-x="398" 
d="M-3 1q28 -12 50 -1t28 49l54 281h-82v114h103l20 114v-1q5 29 16 57.5t30.5 51.5t48.5 37.5t70 14.5q19 0 44 -7t56 -24l-48 -98q-29 15 -49.5 2t-25.5 -45l-18 -102h80v-114h-100l-57 -310q-8 -46 -33 -78.5t-60.5 -48t-77 -13t-81.5 26.5z" />
    <glyph glyph-name="Scommaaccent" unicode="&#x218;" horiz-adv-x="569" 
d="M119 213q12 -20 29 -35t37.5 -25t42 -15.5t41.5 -5.5q45 0 73 18t36 55q4 23 -4.5 37.5t-26 24t-42 14.5t-51.5 9q-41 6 -79 22.5t-66 44t-42 67t-5 91.5q9 54 35.5 92t64 63t83 36.5t93.5 11.5q69 0 127 -28t102 -95l-121 -77q-23 31 -53 44.5t-65 13.5q-21 0 -40.5 -3
t-35.5 -10.5t-27 -20.5t-14 -33q-4 -21 4.5 -34.5t24.5 -21.5t37.5 -13t44.5 -10q45 -9 86.5 -22.5t71 -40.5t43 -70.5t2.5 -110.5q-9 -56 -35.5 -93.5t-65.5 -60t-87.5 -32.5t-101.5 -10q-35 0 -69 8.5t-65 25.5t-57 42t-44 59zM247 -264h-137l56 183h153z" />
    <glyph glyph-name="scommaaccent" unicode="&#x219;" horiz-adv-x="424" 
d="M70 168q20 -22 45.5 -35.5t49.5 -18t42.5 0t24.5 18.5q9 23 1.5 40.5t-42.5 25.5q-47 10 -77 30.5t-46 47t-19 57t4 60.5q14 60 64 96.5t128 37.5q35 1 79 -10.5t79 -43.5l-83 -95q-10 11 -29.5 19.5t-40.5 10.5t-38.5 -5.5t-22.5 -28.5q-5 -23 8 -38t51 -25
q24 -6 49 -18t44.5 -31t29.5 -47.5t5 -67.5q-6 -42 -24 -72t-46 -49t-64 -28t-77 -9q-54 0 -99 19.5t-75 68.5zM183 -254h-137l56 183h153z" />
    <glyph glyph-name="uni021A" unicode="&#x21a;" horiz-adv-x="583" 
d="M400 561l-78 -561h-148l78 561h-203l21 148h554l-21 -148h-203zM259 -254h-137l56 183h153z" />
    <glyph glyph-name="uni021B" unicode="&#x21b;" horiz-adv-x="317" 
d="M149 -243h-125l52 180h140zM253 6q-48 -15 -87 -15q-36 0 -63.5 12t-45.5 36t-24.5 59.5t0.5 82.5l65 462h126l-7 -125h94l-17 -125h-94l-29 -211q-7 -45 19 -65t78 -10z" />
    <glyph glyph-name="circumflex" unicode="&#x2c6;" horiz-adv-x="441" 
d="M514 756h-128l-44 57l-60 -57h-140l158 150h113z" />
    <glyph glyph-name="caron" unicode="&#x2c7;" horiz-adv-x="332" 
d="M197 906l46 -57l52 57h159l-146 -151h-144l-118 151h151z" />
    <glyph glyph-name="uni02C9" unicode="&#x2c9;" horiz-adv-x="323" 
d="M92 695h309l-17 -123h-309z" />
    <glyph glyph-name="breve" unicode="&#x2d8;" horiz-adv-x="287" 
d="M398 906q-7 -53 -36.5 -87t-69 -50.5t-83.5 -16t-79 18t-55 51.5t-13 84h127q-3 -21 8 -32t26 -11t29.5 10.5t17.5 32.5h128z" />
    <glyph glyph-name="dotaccent" unicode="&#x2d9;" horiz-adv-x="240" 
d="M102 843q4 27 19.5 45.5t35.5 28t42 9.5t40 -9t28 -27.5t6 -46.5q-4 -26 -19 -43.5t-35 -26t-42 -8.5t-40 8.5t-28.5 26t-6.5 43.5z" />
    <glyph glyph-name="ring" unicode="&#x2da;" horiz-adv-x="240" 
d="M145 993q41 0 67 -17.5t37 -44t7.5 -57t-20.5 -57t-47 -44t-73 -17.5q-42 0 -68 17.5t-36.5 44t-7 57t21 57t47.5 44t72 17.5zM137 924q-29 0 -44.5 -15.5t-17 -34t10.5 -34t39 -15.5t41.5 15.5t16.5 34t-9.5 34t-36.5 15.5z" />
    <glyph glyph-name="ogonek" unicode="&#x2db;" horiz-adv-x="252" 
d="M224 0q-32 -30 -47 -53.5t-18 -40t5.5 -25.5t23.5 -9q9 0 21 1.5t27 11.5l22 -78q-35 -32 -68.5 -41.5t-62.5 -9.5q-48 0 -72 23.5t-24.5 59.5t21 79.5t63.5 82.5z" />
    <glyph glyph-name="tilde" unicode="&#x2dc;" horiz-adv-x="305" 
d="M14 800q18 60 49 89t69 29q30 0 52.5 -12t40.5 -20t33 -6t29 31l84 -46q-22 -59 -54.5 -84.5t-66.5 -25.5q-24 0 -47 13.5t-43.5 22.5t-38.5 5t-31 -38z" />
    <glyph glyph-name="hungarumlaut" unicode="&#x2dd;" horiz-adv-x="487" 
d="M233 756h-137l79 150h180zM457 756h-137l76 150h180z" />
    <glyph glyph-name="uni0326" unicode="&#x326;" horiz-adv-x="0" 
d="M170 -254h-137l56 183h153z" />
    <glyph glyph-name="uni03A9" unicode="&#x3a9;" horiz-adv-x="775" 
d="M117 143q-45 41 -59 100t-4 132q12 84 50 147t91.5 104.5t117.5 62.5t128 21q65 0 124.5 -21t102.5 -63t64 -104t10 -143q-11 -73 -45.5 -137t-88.5 -99h102l-20 -143h-314l15 108q58 17 102.5 58.5t71.5 93t34 106.5t-9 100.5t-57 75t-111 29.5q-65 0 -112.5 -29.5
t-76.5 -75.5t-39 -101.5t1 -107t43.5 -92.5t87.5 -58l-15 -107h-314l20 143h100z" />
    <glyph glyph-name="uni03BC" unicode="&#x3bc;" horiz-adv-x="525" 
d="M299 33q-14 -20 -35 -31t-42.5 -11.5t-39.5 10t-26 34.5l-31 -222h-140l98 703h142l-44 -314q-5 -38 13.5 -55.5t43.5 -17t48 18.5t28 52l44 316h142l-71 -518l-124 1z" />
    <glyph glyph-name="pi" unicode="&#x3c0;" horiz-adv-x="566" 
d="M466 -4q-54 3 -88.5 15.5t-52.5 34t-22.5 50.5t0.5 65l32 220h-78l-54 -381h-138l53 377q-25 -4 -53 -14l-23 -1l-12 109q16 9 31.5 17.5t32.5 15t37 10.5t46 4h391l-32 -137h-61l-31 -216q-2 -15 6.5 -22t34.5 -5z" />
    <glyph glyph-name="uni0401" unicode="&#x401;" horiz-adv-x="584" 
d="M185 830q5 35 31.5 58t60.5 23q33 0 53 -23t15 -58q-2 -17 -10.5 -31t-20.5 -25t-27.5 -17t-31.5 -6q-35 0 -55 23t-15 56zM407 830q5 35 31.5 58t60.5 23q35 0 54.5 -23t14.5 -58q-5 -33 -31 -56t-60 -23q-35 0 -54.5 23t-15.5 56zM227 426h305l-20 -143h-305l-19 -140
h332l-20 -143h-480l99 709h480l-20 -144h-332z" />
    <glyph glyph-name="uni0410" unicode="&#x410;" horiz-adv-x="634" 
d="M597 0h-154l-40 162h-211l-81 -162h-157l347 708h141zM248 297h136l-23 154l-6 101h-11l-34 -102z" />
    <glyph glyph-name="uni0411" unicode="&#x411;" horiz-adv-x="617" 
d="M358 439q137 0 189 -53t36 -163q-8 -54 -31.5 -96t-60.5 -70t-85 -42.5t-105 -14.5h-282l100 708h475l-18 -128h-328l-20 -141h130zM319 132q54 0 83 23t37 75q6 47 -16.5 72t-79.5 25h-131l-27 -195h134z" />
    <glyph glyph-name="uni0412" unicode="&#x412;" horiz-adv-x="624" 
d="M592 501q-2 -15 -8.5 -32.5t-17 -34.5t-25.5 -32t-34 -25q31 -16 48 -39t24 -49t5 -54t-9 -55q-10 -36 -30.5 -68.5t-53.5 -57t-79 -39.5t-107 -15h-285l99 709h280q46 0 84.5 -13t65 -39.5t38.5 -65.5t5 -90zM360 431q37 0 60.5 21t28.5 46t-11.5 46t-58.5 21h-133
l-19 -134h133zM320 143q34 0 59 12t39 30t17 39t-6 39t-30.5 30t-56.5 12h-133l-22 -162h133z" />
    <glyph glyph-name="uni0413" unicode="&#x413;" horiz-adv-x="515" 
d="M19 0l100 708h439l-20 -140h-292l-80 -568h-147z" />
    <glyph glyph-name="uni0414" unicode="&#x414;" horiz-adv-x="731" 
d="M502 -136l18 136h-398l-17 -136h-148l37 270h11q45 3 73.5 26.5t47.5 65.5t32.5 102t29.5 136l52 244h442l-80 -574h85l-37 -270h-148zM312 349q-14 -65 -31.5 -119t-49.5 -96h223l61 434h-158z" />
    <glyph glyph-name="uni0415" unicode="&#x415;" horiz-adv-x="584" 
d="M227 426h305l-20 -143h-305l-19 -140h332l-20 -143h-480l99 709h480l-20 -144h-332z" />
    <glyph glyph-name="uni0416" unicode="&#x416;" horiz-adv-x="941" 
d="M568 285l-31 -29l-36 -256h-148l37 256l-23 29l-232 -285h-184l317 364l-218 344h180l182 -297l41 297h148l-42 -297l265 297h180l-315 -344l215 -364h-185z" />
    <glyph glyph-name="uni0417" unicode="&#x417;" horiz-adv-x="564" 
d="M324 718q62 0 104.5 -16t68 -43.5t34 -64t2.5 -78.5q-7 -39 -30 -78t-63 -60q51 -28 69 -74t11 -95q-9 -57 -34 -98t-64 -68t-90 -40t-112 -13q-85 0 -146.5 34t-93.5 103l111 70q26 -38 58.5 -55.5t80.5 -17.5q59 0 96 21.5t46 71.5q8 43 -15.5 69t-85.5 26h-103l17 114
h99q100 0 112 85q5 37 -19.5 58t-74.5 21q-44 0 -76.5 -16.5t-61.5 -42.5l-88 72q51 60 111 87.5t137 27.5z" />
    <glyph glyph-name="uni0418" unicode="&#x418;" horiz-adv-x="687" 
d="M512 466l-5 1l-75 -116l-267 -351h-146l100 708h147l-53 -379l-26 -102l4 -1l73 114l276 368h141l-100 -708h-147l50 351z" />
    <glyph glyph-name="uni0419" unicode="&#x419;" horiz-adv-x="687" 
d="M609 922q-8 -41 -27.5 -72t-46.5 -52t-60 -31.5t-66 -10.5q-34 0 -64 10.5t-51.5 31.5t-32 52t-5.5 72h120q-2 -24 11 -38t38 -14t41 14t23 38h120zM512 466l-4 1l-83 -125l-260 -342h-146l100 708h147l-54 -381l-24 -100l3 -1l70 110l279 372h141l-100 -708h-147l48 341
z" />
    <glyph glyph-name="uni041A" unicode="&#x41a;" horiz-adv-x="637" 
d="M352 362l247 -362h-186l-179 271l-33 -29l-35 -242h-147l100 708h147l-41 -294l291 294h185z" />
    <glyph glyph-name="uni041B" unicode="&#x41b;" horiz-adv-x="689" 
d="M350 568l-46 -219q-15 -73 -34.5 -139t-55 -114.5t-92.5 -75t-146 -20.5l20 138q46 -3 75.5 20.5t49 68t33 105.5t28.5 132l50 244h452l-100 -708h-147l80 568h-167z" />
    <glyph glyph-name="uni041C" unicode="&#x41c;" horiz-adv-x="779" 
d="M416 93h-110l-66 228l-21 97h-10l-3 -137l-39 -281h-147l99 708h154l115 -407l231 407h154l-99 -708h-147l39 282l37 137h-11l-48 -99z" />
    <glyph glyph-name="uni041D" unicode="&#x41d;" horiz-adv-x="680" 
d="M119 708h147l-40 -283h261l40 283h147l-99 -708h-148l40 282h-261l-39 -282h-147z" />
    <glyph glyph-name="uni041E" unicode="&#x41e;" horiz-adv-x="667" 
d="M69 482q9 59 40 103.5t75.5 74t98.5 44t108 14.5t104.5 -15t87 -44.5t55.5 -73.5t10 -103l-36 -256q-8 -59 -38.5 -103t-75 -73.5t-99 -44.5t-110.5 -15q-55 0 -105 15t-86.5 44.5t-55 73.5t-10.5 103zM178 226q-3 -24 6.5 -42.5t28 -31t43 -18.5t50.5 -6q27 0 54 6
t49 19t37.5 32t18.5 45l37 252q4 25 -5.5 44t-27.5 31.5t-42.5 18.5t-51.5 6t-54 -6t-49.5 -18.5t-37.5 -31.5t-19 -44z" />
    <glyph glyph-name="uni041F" unicode="&#x41f;" horiz-adv-x="674" 
d="M119 708h549l-100 -708h-148l80 568h-254l-80 -568h-147z" />
    <glyph glyph-name="uni0420" unicode="&#x420;" horiz-adv-x="618" 
d="M398 708q63 0 107 -21t70.5 -55.5t36.5 -78.5t4 -90q-6 -48 -27 -91.5t-56 -76.5t-84.5 -52.5t-112.5 -19.5h-138l-32 -223h-146l99 708h279zM349 357q27 0 48.5 9t36.5 24t24 35t12 41t-1 39.5t-15.5 33t-30 22.5t-44.5 8h-133l-30 -212h133z" />
    <glyph glyph-name="uni0421" unicode="&#x421;" horiz-adv-x="585" 
d="M549 139q-57 -75 -130.5 -112t-144.5 -37q-51 0 -98.5 15t-82.5 44.5t-52.5 73.5t-8.5 103l38 257q9 58 39 102t73 73.5t94.5 44.5t104.5 15q35 0 70 -9t65 -28t53.5 -47.5t36.5 -67.5l-128 -68q-15 39 -50 57.5t-74 18.5q-24 0 -47.5 -6.5t-42.5 -18.5t-32.5 -29.5
t-16.5 -40.5l-37 -253q-3 -22 4 -39.5t22 -29.5t36 -18t44 -6q40 0 81 18.5t67 58.5z" />
    <glyph glyph-name="uni0422" unicode="&#x422;" horiz-adv-x="581" 
d="M173 0l80 572h-203l19 137h555l-20 -137h-203l-80 -572h-148z" />
    <glyph glyph-name="uni0423" unicode="&#x423;" horiz-adv-x="575" 
d="M32 708h167l59 -186l35 -132h4l74 135l108 183h161l-420 -708h-157l136 228z" />
    <glyph glyph-name="uni0424" unicode="&#x424;" horiz-adv-x="778" 
d="M507 647q54 0 104.5 -12t87 -38t55.5 -68t10 -103l-20 -144q-9 -61 -39.5 -103t-74.5 -68.5t-97.5 -38t-107.5 -11.5l-9 -61h-141l9 61q-54 0 -104.5 11.5t-87 38t-55.5 68.5t-10 103l20 144q9 61 39.5 103t74.5 68t97.5 38t107.5 12l9 61h141zM348 516q-27 0 -53 -4
t-47 -13.5t-35.5 -27t-18.5 -44.5l-20 -146q-4 -27 5.5 -44t27.5 -27t43 -13.5t52 -3.5zM443 193q27 0 53 3.5t47 13.5t35.5 27t18.5 44l20 146q4 27 -5.5 44.5t-28 27t-43.5 13.5t-52 4z" />
    <glyph glyph-name="uni0425" unicode="&#x425;" horiz-adv-x="632" 
d="M411 0l-107 250l-166 -250h-181l258 353l-157 355h179l96 -252l178 252h179l-274 -356l175 -352h-180z" />
    <glyph glyph-name="uni0426" unicode="&#x426;" horiz-adv-x="706" 
d="M472 -136l19 136h-473l100 708h147l-80 -568h246l80 568h147l-80 -568h80l-38 -276h-148z" />
    <glyph glyph-name="uni0427" unicode="&#x427;" horiz-adv-x="628" 
d="M411 255q-26 -20 -65 -34.5t-85 -14.5q-48 0 -89.5 14.5t-70.5 44t-42.5 73.5t-5.5 103l38 267h147l-38 -267q-6 -48 18.5 -71t72.5 -23q44 0 79.5 11.5t58.5 31.5l46 318h147l-100 -708h-147z" />
    <glyph glyph-name="uni0428" unicode="&#x428;" horiz-adv-x="954" 
d="M266 708l-80 -568h193l80 568h148l-80 -568h193l80 568h148l-100 -708h-829l100 708h147z" />
    <glyph glyph-name="uni0429" unicode="&#x429;" horiz-adv-x="995" 
d="M761 -136l19 136h-762l100 708h147l-80 -568h193l80 568h148l-80 -568h193l80 568h148l-80 -568h80l-39 -276h-147z" />
    <glyph glyph-name="uni042A" unicode="&#x42a;" horiz-adv-x="700" 
d="M444 458q135 0 186 -58t36 -167q-8 -54 -31.5 -97t-60 -73t-84.5 -46.5t-105 -16.5h-283l80 569h-130l20 139h277l-35 -250h130zM402 132q54 0 83.5 27t36.5 76q7 50 -16 76.5t-78 26.5h-131l-28 -206h133z" />
    <glyph glyph-name="uni042B" unicode="&#x42b;" horiz-adv-x="900" 
d="M362 458q134 0 185.5 -58t36.5 -167q-8 -54 -32 -97t-60.5 -73t-84.5 -46.5t-105 -16.5h-283l100 708h148l-36 -250h131zM894 708l-100 -708h-146l100 708h146zM319 132q54 0 83.5 27t36.5 76q7 50 -16 76.5t-78 26.5h-131l-28 -206h133z" />
    <glyph glyph-name="uni042C" unicode="&#x42c;" horiz-adv-x="618" 
d="M362 458q134 0 185.5 -58t36.5 -167q-8 -54 -32 -97t-60.5 -73t-84.5 -46.5t-105 -16.5h-283l100 708h148l-36 -250h131zM319 132q54 0 83.5 27t36.5 76q7 50 -16 76.5t-78 26.5h-131l-28 -206h133z" />
    <glyph glyph-name="uni042D" unicode="&#x42d;" horiz-adv-x="592" 
d="M327 718q52 0 100.5 -15t83.5 -45t52.5 -74.5t9.5 -102.5l-36 -254q-8 -59 -38 -103t-72.5 -73.5t-94.5 -44.5t-103 -15q-35 0 -70.5 9t-66.5 27.5t-56 48t-40 70.5l137 59q11 -38 45 -55.5t74 -17.5q24 0 47 6t42.5 18t32.5 30t16 41l9 66h-210l18 126h210l9 62
q3 24 -5 42t-24.5 30.5t-39 19t-46.5 6.5q-39 0 -78 -17.5t-62 -52.5l-115 52q26 43 59 73t68.5 49t72 27t71.5 8z" />
    <glyph glyph-name="uni042E" unicode="&#x42e;" horiz-adv-x="956" 
d="M679 718q54 0 104.5 -15t87 -44.5t55.5 -73.5t11 -103l-36 -256q-8 -59 -39.5 -103t-76.5 -73.5t-99.5 -44.5t-108.5 -15t-104.5 15t-87 44.5t-55.5 73.5t-11 103l10 64h-124l-41 -290h-147l100 708h147l-40 -283h124l8 57q8 59 39 103.5t76 74t99 44t109 14.5zM660 578
q-27 0 -54 -6.5t-48.5 -19t-36.5 -31.5t-19 -44l-35 -248q-3 -24 6.5 -42.5t28 -31t43.5 -19t52 -6.5t53.5 6t48.5 18.5t37 31t18 43.5l35 248q4 26 -6 45t-28.5 31.5t-43 18.5t-51.5 6z" />
    <glyph glyph-name="uni042F" unicode="&#x42f;" horiz-adv-x="639" 
d="M368 255l-245 -255h-185l269 272q-34 7 -63.5 22t-49.5 39.5t-29 61t-1 87.5q9 56 34 98.5t62.5 71t87 42.5t107.5 14h278l-100 -708h-148l37 255h-54zM333 568q-51 0 -83.5 -22.5t-39.5 -72.5q-7 -48 17.5 -73t78.5 -25h133l27 193h-133z" />
    <glyph glyph-name="uni0430" unicode="&#x430;" 
d="M291 42q-21 -25 -50.5 -38.5t-57.5 -13.5q-35 0 -67 11.5t-55 34.5t-34 56.5t-5 77.5l24 170q7 52 30.5 88t57.5 58.5t75 32t83 9.5q48 0 98.5 -14.5t91.5 -36.5l-65 -477h-114zM334 393q-16 10 -40 12.5t-47 -3.5t-41 -21t-21 -40l-23 -164q-4 -29 16 -44.5t47 -15.5
q23 0 41 5.5t32 13.5z" />
    <glyph glyph-name="uni0431" unicode="&#x431;" horiz-adv-x="509" 
d="M493 640q-34 -22 -76.5 -33.5t-82.5 -16.5q-18 -2 -37 -4t-35.5 -9t-28 -21t-15.5 -39l-8 -60q17 11 44 20.5t62 9.5q39 0 70.5 -12t52 -34.5t29.5 -56t3 -76.5l-20 -138q-6 -45 -29 -79t-55.5 -56.5t-72 -33.5t-78.5 -11t-75.5 11t-63 33.5t-40 56.5t-7.5 79l51 361
q7 49 29.5 80.5t53 50t65 26.5t65.5 12q50 6 93 16t78 29zM271 367q-20 0 -40 -5.5t-37 -17.5l-24 -170q-4 -29 16.5 -43.5t47.5 -14.5q26 0 50 14.5t29 43.5l18 136q5 30 -14 43.5t-46 13.5z" />
    <glyph glyph-name="uni0432" unicode="&#x432;" horiz-adv-x="514" 
d="M305 528q92 0 136 -37.5t34 -102.5q-6 -39 -26.5 -67.5t-49.5 -44.5q44 -23 55.5 -58.5t4.5 -74.5q-12 -77 -73 -115t-164 -38q-54 0 -108.5 10.5t-101.5 30.5l65 456q52 20 111.5 30.5t116.5 10.5zM284 424q-30 0 -46.5 -3t-32.5 -9l-16 -97h79q29 0 47.5 15.5
t22.5 40.5q4 23 -11.5 38t-42.5 15zM160 110q14 -7 31 -10t47 -3q36 0 58 16t26 45q3 23 -14 40.5t-53 17.5h-79z" />
    <glyph glyph-name="uni0433" unicode="&#x433;" horiz-adv-x="436" 
d="M253 528q39 0 70 -11t51 -30.5t29 -48t4 -62.5q-5 -37 -20.5 -64t-39.5 -46.5t-54.5 -32.5t-66.5 -21q-36 -9 -59.5 -19.5t-28.5 -36.5q-4 -26 13 -37t47 -11q62 0 122 47l63 -82q-47 -47 -100 -64.5t-113 -17.5q-37 0 -69.5 10t-55.5 30t-34 50t-6 70q6 39 22 66t39 45
t51.5 29.5t60.5 20.5q14 3 28.5 7t27 10t21.5 15t11 23q2 21 -11.5 29.5t-39.5 8.5q-43 0 -85 -26l-67 77q43 39 93 55.5t97 16.5z" />
    <glyph glyph-name="uni0434" unicode="&#x434;" horiz-adv-x="501" 
d="M306 718q39 0 74 -12.5t60 -39t36.5 -66.5t3.5 -95l-46 -331q-6 -45 -28.5 -79.5t-54 -57.5t-70 -35t-77.5 -12t-75 11t-62 33.5t-39 56t-7 78.5l20 141q6 45 27 78t51 54t65.5 30.5t70.5 9.5q24 0 47.5 -3.5t40.5 -13.5l9 60q5 38 -16 58.5t-61 20.5q-26 0 -53.5 -7.5
t-50.5 -21.5l-57 81q43 33 89.5 47.5t102.5 14.5zM260 374q-29 0 -53.5 -15.5t-29.5 -47.5l-20 -142q-4 -29 16.5 -42.5t47.5 -13.5q26 0 50 14.5t28 43.5l26 188q-29 15 -65 15z" />
    <glyph glyph-name="uni0435" unicode="&#x435;" horiz-adv-x="478" 
d="M411 97q-48 -59 -103 -83t-106 -24q-38 0 -73.5 11.5t-61.5 35t-39 58t-7 80.5l23 162q7 47 29.5 83t55 60t71.5 36t78 12t74.5 -12t60.5 -36t37.5 -59t5.5 -81q-8 -54 -40.5 -88.5t-76.5 -51t-92 -16t-86 15.5l-4 -25q-2 -16 3 -27.5t15.5 -19.5t25 -12t30.5 -4
q28 0 56 11t45 31zM174 297q33 -11 70 -11q27 0 52.5 14.5t28.5 40.5q2 16 -3 27.5t-14.5 18.5t-21.5 10.5t-25 3.5q-27 0 -52 -17.5t-29 -45.5z" />
    <glyph glyph-name="uni0436" unicode="&#x436;" horiz-adv-x="747" 
d="M439 191l-15 -12l-26 -179h-135l25 179l-11 12l-155 -191h-159l238 273l-167 245h161l114 -191l27 191h135l-27 -191l168 191h161l-235 -245l160 -273h-159z" />
    <glyph glyph-name="uni0437" unicode="&#x437;" horiz-adv-x="443" 
d="M248 528q36 0 67 -9t52.5 -27t31.5 -44t6 -60q-5 -42 -27.5 -69.5t-51.5 -41.5q41 -20 56.5 -56t5.5 -83q-8 -40 -29 -68t-50.5 -46t-65.5 -26t-74 -8q-62 0 -107 20.5t-78 75.5l94 68q15 -22 38.5 -35t52.5 -13q34 0 58.5 10t30.5 43q5 30 -12 43t-55 13h-67l13 98h64
q30 0 48.5 11.5t23.5 40.5q4 23 -12.5 37t-47.5 14q-29 0 -52.5 -11.5t-43.5 -28.5l-67 67q45 50 94 67.5t104 17.5z" />
    <glyph glyph-name="uni0438" unicode="&#x438;" horiz-adv-x="517" 
d="M426 31q-55 -22 -105.5 -31.5t-95.5 -9.5q-42 0 -80.5 10.5t-66 33.5t-41 58t-6.5 85l48 341h139l-47 -340q-2 -15 2.5 -27t13.5 -20.5t21 -12.5t25 -4q37 0 67 10l55 394h140z" />
    <glyph glyph-name="uni0439" unicode="&#x439;" horiz-adv-x="517" 
d="M468 735q-7 -41 -26 -70.5t-44.5 -49.5t-55.5 -29.5t-60 -9.5q-29 0 -55 10.5t-45.5 30.5t-29 50t-5.5 68h117q-1 -20 10.5 -30.5t26.5 -11.5q16 0 31 10t20 32h116zM426 31q-55 -22 -105.5 -31.5t-95.5 -9.5q-42 0 -80.5 10.5t-66 33.5t-41 58t-6.5 85l48 341h139
l-47 -340q-2 -15 2.5 -27t13.5 -20.5t21 -12.5t25 -4q37 0 67 10l55 394h140z" />
    <glyph glyph-name="uni043A" unicode="&#x43a;" horiz-adv-x="513" 
d="M197 187l-22 -19l-25 -168h-139l73 518h139l-26 -188l181 188h163l-238 -246l162 -272h-160z" />
    <glyph glyph-name="uni043B" unicode="&#x43b;" horiz-adv-x="547" 
d="M271 393l-35 -170q-13 -60 -31 -104t-47.5 -71.5t-74 -39.5t-108.5 -8l18 126q33 -2 52.5 4.5t31.5 26t20.5 53t19.5 85.5l48 223h359l-72 -518h-140l55 393h-96z" />
    <glyph glyph-name="uni043C" unicode="&#x43c;" horiz-adv-x="652" 
d="M466 304l-23 -37l-106 -194h-86l-51 194l-14 37l-8 -113l-27 -191h-140l73 518h154l79 -286l158 286h153l-73 -518h-139l27 191z" />
    <glyph glyph-name="uni043D" unicode="&#x43d;" horiz-adv-x="527" 
d="M180 208l-30 -208h-139l73 518h139l-26 -185h140l26 185h140l-73 -518h-140l30 208h-140z" />
    <glyph glyph-name="uni043E" unicode="&#x43e;" horiz-adv-x="494" 
d="M45 343q6 46 29 80.5t55.5 57.5t71.5 35t78 12t74.5 -12t61 -35t38.5 -57.5t7 -80.5l-24 -169q-7 -47 -29.5 -81.5t-55 -57t-71 -34t-77.5 -11.5t-74.5 11.5t-62 34t-39.5 57t-6 81.5zM260 400q-25 0 -48.5 -13t-27.5 -38l-24 -176q-2 -12 2.5 -22.5t13.5 -18t21 -11.5
t24 -4t24.5 4t23.5 11.5t18.5 18t9.5 22.5l24 176q2 12 -3 21.5t-14 16t-20.5 10t-23.5 3.5z" />
    <glyph glyph-name="uni043F" unicode="&#x43f;" horiz-adv-x="515" 
d="M78 483q46 21 96 33t98 12q44 0 83 -10.5t67.5 -33t42 -58.5t6.5 -87l-48 -339h-138l46 331q5 35 -16.5 52t-51.5 17q-32 0 -60 -14l-54 -386h-139z" />
    <glyph glyph-name="uni0440" unicode="&#x440;" horiz-adv-x="509" 
d="M77 489q51 18 105 28.5t103 10.5q41 0 77 -9t62 -30t40 -55.5t11 -84.5l-24 -184q-6 -43 -24.5 -76t-48.5 -55t-69.5 -33t-85.5 -11q-38 0 -72 17l-28 -197h-139zM166 108q19 -12 50 -12q38 0 64.5 16.5t31.5 52.5l26 197q3 32 -20.5 47.5t-53.5 15.5q-15 0 -29.5 -2.5
t-27.5 -8.5z" />
    <glyph glyph-name="uni0441" unicode="&#x441;" horiz-adv-x="467" 
d="M425 131q-19 -39 -45.5 -66t-56 -43.5t-60.5 -24t-59 -7.5q-39 0 -74.5 11.5t-62 34t-39.5 57t-7 80.5l24 171q6 46 29 80.5t55.5 57.5t71.5 34.5t78 11.5q28 0 57 -7t54 -23.5t42.5 -43t22.5 -66.5l-124 -40q-5 27 -24 39.5t-43 12.5q-27 0 -51.5 -15t-28.5 -43
l-23 -166q-4 -28 15 -44t45 -16q24 0 49 13.5t39 43.5z" />
    <glyph glyph-name="uni0442" unicode="&#x442;" horiz-adv-x="753" 
d="M75 464q38 29 91 46.5t103 17.5q19 0 38.5 -2.5t37.5 -10t32 -20t22 -32.5q29 34 67.5 49.5t75.5 15.5q36 0 69 -11t57 -33t36 -55.5t6 -77.5l-49 -351h-138l49 354q4 23 -14 34.5t-41 11.5t-43.5 -11.5t-23.5 -33.5l-50 -355h-133l49 351q3 23 -15.5 35.5t-44.5 13.5
q-15 0 -30.5 -4.5t-26.5 -15.5l-53 -380h-136z" />
    <glyph glyph-name="uni0443" unicode="&#x443;" horiz-adv-x="516" 
d="M0 0zM420 8q-10 -63 -33 -104t-55.5 -66t-71.5 -35t-81 -10q-54 0 -103 21.5t-79 63.5l81 73q15 -17 41 -26t53 -9q39 0 68.5 18.5t37.5 67.5q-21 -6 -42.5 -9.5t-41.5 -3.5q-37 0 -69.5 10.5t-56 31.5t-34.5 52.5t-5 73.5l51 361h134l-49 -343q-2 -15 3 -25.5
t15.5 -17.5t24.5 -11t29 -4q16 0 31.5 3t28.5 10l55 388h140z" />
    <glyph glyph-name="uni0444" unicode="&#x444;" horiz-adv-x="719" 
d="M459 515q11 5 30.5 9t39.5 4q83 0 124.5 -46t30.5 -127l-27 -192q-6 -41 -23 -73t-43.5 -54t-61.5 -34t-76 -12q-20 0 -38.5 4t-27.5 9l-27 -187h-136l27 187q-11 -5 -30.5 -9t-39.5 -4q-41 0 -72.5 12t-52 34t-28.5 54t-3 73l27 192q12 81 67 127t138 46q20 0 38.5 -4
t27.5 -9l27 193h136zM269 411q-26 0 -49.5 -15t-28.5 -47l-25 -180q-5 -32 14.5 -47t46.5 -15q20 0 40 10l40 284q-17 10 -38 10zM483 411q-21 0 -41 -10l-39 -284q17 -10 37 -10q26 0 49.5 15t28.5 47l25 180q5 32 -14.5 47t-45.5 15z" />
    <glyph glyph-name="uni0445" unicode="&#x445;" horiz-adv-x="519" 
d="M471 0h-165l-52 108l-13 53h-7l-31 -55l-81 -106h-157l204 259l-132 259h157l56 -118l12 -49h6l25 49l85 118h163l-208 -258z" />
    <glyph glyph-name="uni0446" unicode="&#x446;" horiz-adv-x="552" 
d="M450 -131h-115l24 147l-4 -1q-29 -11 -65.5 -18t-67.5 -7q-42 0 -79.5 10.5t-64.5 33.5t-40.5 58t-6.5 85l48 341h139l-47 -340q-5 -31 13.5 -47.5t45.5 -16.5q18 0 33.5 2t31.5 7l55 395h140l-53 -381h70l-23 -142z" />
    <glyph glyph-name="uni0447" unicode="&#x447;" horiz-adv-x="497" 
d="M285 170q-20 -12 -46.5 -19t-54.5 -7q-29 0 -59 9t-53.5 29t-35.5 52.5t-5 79.5l29 204h139l-25 -183q-5 -35 10 -50t45 -15q40 0 72 17l33 231h139l-73 -518h-139z" />
    <glyph glyph-name="uni0448" unicode="&#x448;" horiz-adv-x="780" 
d="M690 40q-35 -21 -85.5 -35.5t-101.5 -14.5q-42 0 -83 13.5t-65 42.5q-30 -27 -72 -41.5t-79 -14.5q-39 0 -73.5 11.5t-58.5 34.5t-35.5 56.5t-5.5 77.5l48 348h140l-49 -350q-5 -29 12 -41t44 -12q10 0 22.5 3.5t23.5 9t18.5 14t9.5 19.5l50 357h139l-50 -358
q-2 -12 3 -20.5t14 -14t21 -8.5t25 -3q41 0 62 15l54 389h139z" />
    <glyph glyph-name="uni0449" unicode="&#x449;" horiz-adv-x="819" 
d="M715 -131h-112l23 144l-9 -3q-27 -8 -56.5 -14t-57.5 -6q-42 0 -83 13.5t-66 42.5q-29 -27 -71 -41.5t-80 -14.5q-39 0 -73 11.5t-58 34.5t-35.5 56.5t-5.5 77.5l48 348h140l-49 -350q-5 -29 12 -41t44 -12q10 0 22.5 3.5t23.5 9t18.5 14t9.5 19.5l50 357h139l-51 -358
q-3 -23 17.5 -34.5t46.5 -11.5q39 0 62 12l54 392h139l-53 -380h72l-23 -138z" />
    <glyph glyph-name="uni044A" unicode="&#x44a;" horiz-adv-x="549" 
d="M250 336q23 9 52 16t55 7q91 0 130 -48.5t27 -134.5q-6 -44 -26.5 -78.5t-52.5 -58.5t-73 -36.5t-87 -12.5q-42 0 -79 11t-63 33.5t-39 56.5t-7 79l34 243h-95l14 105h235zM316 259q-19 0 -40.5 -5.5t-39.5 -13.5l-10 -75q-2 -14 3 -25t14.5 -18.5t22.5 -11t27 -3.5
q33 0 58.5 20.5t31.5 55.5q5 40 -13 58t-54 18z" />
    <glyph glyph-name="uni044B" unicode="&#x44b;" horiz-adv-x="734" 
d="M193 336q23 9 52 16t55 7q91 0 130 -48.5t27 -134.5q-6 -44 -26.5 -78.5t-52.5 -58.5t-73 -36.5t-87 -12.5q-42 0 -79 11t-63 33.5t-39 56.5t-7 79l49 348h139zM711 518l-73 -518h-139l73 518h139zM259 259q-19 0 -40.5 -5.5t-39.5 -13.5l-10 -75q-2 -14 3 -25
t14.5 -18.5t22.5 -11t27 -3.5q33 0 58.5 20.5t31.5 55.5q5 40 -13 58t-54 18z" />
    <glyph glyph-name="uni044C" unicode="&#x44c;" horiz-adv-x="493" 
d="M193 336q24 9 52.5 16t54.5 7q91 0 130 -48.5t27 -134.5q-6 -44 -26.5 -78.5t-52.5 -58.5t-73 -36.5t-87 -12.5q-42 0 -79 11t-63 33.5t-39 56.5t-7 79l49 348h139zM259 259q-19 0 -40.5 -5.5t-38.5 -13.5l-11 -75q-2 -14 3 -25t14.5 -18.5t22.5 -11t27 -3.5
q33 0 58.5 20.5t31.5 55.5q5 40 -12.5 58t-54.5 18z" />
    <glyph glyph-name="uni044D" unicode="&#x44d;" horiz-adv-x="469" 
d="M250 528q39 0 75 -11.5t63 -34.5t40.5 -58t6.5 -81l-23 -169q-7 -46 -30.5 -80.5t-56.5 -57t-72.5 -34t-78.5 -11.5q-27 0 -56 7t-53.5 23.5t-43.5 43.5t-26 67l123 33q5 -29 23.5 -46.5t47.5 -17.5q28 0 52.5 15t28.5 45l6 47h-126l12 90h127l7 43q4 30 -16 45.5
t-47 15.5q-24 1 -46 -11t-36 -39l-109 47q18 36 42.5 61t52.5 40t57 21.5t56 6.5z" />
    <glyph glyph-name="uni044E" unicode="&#x44e;" horiz-adv-x="736" 
d="M517 528q39 0 75 -11.5t63 -34.5t40.5 -58t6.5 -81l-24 -173q-6 -45 -29 -79t-56 -56.5t-72.5 -33.5t-78.5 -11t-75.5 11t-63 33.5t-40 56.5t-7.5 79l7 42h-85l-30 -212h-139l73 518h139l-27 -191h85l3 27q6 44 29.5 76.5t56.5 54t72 32.5t77 11zM500 402
q-26 0 -50.5 -14t-29.5 -43l-24 -171q-4 -29 16.5 -43.5t47.5 -14.5q13 0 26 3.5t24 11t18.5 18.5t10.5 25l23 171q5 29 -15.5 43t-46.5 14z" />
    <glyph glyph-name="uni044F" unicode="&#x44f;" horiz-adv-x="514" 
d="M277 192l-158 -192h-159l184 205q-25 6 -45 18t-33.5 30.5t-19 43.5t-0.5 58q6 44 25 75t49 50.5t69.5 28.5t86.5 9h214l-73 -518h-139l28 192h-29zM261 417q-35 0 -57 -16.5t-27 -49.5q-9 -70 69 -70h72l19 136h-76z" />
    <glyph glyph-name="uni0451" unicode="&#x451;" horiz-adv-x="478" 
d="M111 636q5 33 30.5 55t57.5 22t51.5 -22t14.5 -55q-5 -32 -30 -54t-57 -22q-33 0 -52.5 22t-14.5 54zM324 636q5 33 31 55t58 22q33 0 52 -22t14 -55q-5 -32 -30 -54t-57 -22q-35 0 -53 22t-15 54zM411 97q-48 -59 -103 -83t-106 -24q-38 0 -73.5 11.5t-61.5 35t-39 58
t-7 80.5l23 162q7 47 29.5 83t55 60t71.5 36t78 12t74.5 -12t60.5 -36t37.5 -59t5.5 -81q-8 -54 -40.5 -88.5t-76.5 -51t-92 -16t-86 15.5l-4 -25q-2 -16 3 -27.5t15.5 -19.5t25 -12t30.5 -4q28 0 56 11t45 31zM174 297q33 -11 70 -11q27 0 52.5 14.5t28.5 40.5
q2 16 -3 27.5t-14.5 18.5t-21.5 10.5t-25 3.5q-27 0 -52 -17.5t-29 -45.5z" />
    <glyph glyph-name="Wgrave" unicode="&#x1e80;" horiz-adv-x="920" 
d="M378 906h171l71 -150h-139zM59 708h152l49 -370l-1 -165h9l47 166l128 271h119l48 -273l5 -171h9l43 171l155 371h151l-303 -708h-144l-53 273l-4 85h-8q-8 -24 -15 -43q-6 -17 -11 -30.5t-5 -12.5l-121 -272h-144z" />
    <glyph glyph-name="wgrave" unicode="&#x1e81;" horiz-adv-x="697" 
d="M227 716h171l71 -150h-139zM248 0h-126l-89 518h137l26 -219l3 -125h1l31 126l96 218h101l34 -217l-3 -127h1l38 126l83 218h139l-228 -518h-127l-17 187l4 141h-3l-34 -141z" />
    <glyph glyph-name="Wacute" unicode="&#x1e82;" horiz-adv-x="920" 
d="M576 756h-148l110 150h181zM59 708h152l49 -370l-1 -165h9l47 166l128 271h119l48 -273l5 -171h9l43 171l155 371h151l-303 -708h-144l-53 273l-4 85h-8q-8 -24 -15 -43q-6 -17 -11 -30.5t-5 -12.5l-121 -272h-144z" />
    <glyph glyph-name="wacute" unicode="&#x1e83;" horiz-adv-x="697" 
d="M425 566h-148l110 150h181zM248 0h-126l-89 518h137l26 -219l3 -125h1l31 126l96 218h101l34 -217l-3 -127h1l38 126l83 218h139l-228 -518h-127l-17 187l4 141h-3l-34 -141z" />
    <glyph glyph-name="Wdieresis" unicode="&#x1e84;" horiz-adv-x="920" 
d="M357 830q5 35 31.5 58t60.5 23q33 0 53 -23t15 -58q-2 -17 -10.5 -31t-20.5 -25t-27.5 -17t-31.5 -6q-35 0 -55 23t-15 56zM579 830q5 35 31.5 58t60.5 23q35 0 54.5 -23t14.5 -58q-5 -33 -31 -56t-60 -23q-35 0 -54.5 23t-15.5 56zM59 708h152l49 -370l-1 -165h9l47 166
l128 271h119l48 -273l5 -171h9l43 171l155 371h151l-303 -708h-144l-53 273l-4 85h-8q-8 -24 -15 -43q-6 -17 -11 -30.5t-5 -12.5l-121 -272h-144z" />
    <glyph glyph-name="wdieresis" unicode="&#x1e85;" horiz-adv-x="697" 
d="M206 640q5 35 31.5 58t60.5 23q33 0 53 -23t15 -58q-2 -17 -10.5 -31t-20.5 -25t-27.5 -17t-31.5 -6q-35 0 -55 23t-15 56zM428 640q5 35 31.5 58t60.5 23q35 0 54.5 -23t14.5 -58q-5 -33 -31 -56t-60 -23q-35 0 -54.5 23t-15.5 56zM248 0h-126l-89 518h137l26 -219
l3 -125h1l31 126l96 218h101l34 -217l-3 -127h1l38 126l83 218h139l-228 -518h-127l-17 187l4 141h-3l-34 -141z" />
    <glyph glyph-name="Ygrave" unicode="&#x1ef2;" horiz-adv-x="627" 
d="M216 906h171l71 -150h-139zM197 0l38 271l-185 437h169l108 -296l192 296h171l-308 -437l-38 -271h-147z" />
    <glyph glyph-name="ygrave" unicode="&#x1ef3;" horiz-adv-x="515" 
d="M129 716h171l71 -150h-139zM420 8q-10 -63 -33 -104t-55.5 -66t-71.5 -35t-81 -10q-54 0 -103 21.5t-79 63.5l81 73q15 -17 41 -26t53 -9q39 0 68.5 18.5t37.5 67.5q-21 -6 -42.5 -9.5t-41.5 -3.5q-37 0 -69.5 10.5t-56 31.5t-34.5 52.5t-5 73.5l51 361h134l-49 -343
q-2 -15 3 -25.5t15.5 -17.5t24.5 -11t29 -4q16 0 31.5 3t28.5 10l55 388h140z" />
    <glyph glyph-name="endash" unicode="&#x2013;" horiz-adv-x="578" 
d="M515 222h-475l19 140h475z" />
    <glyph glyph-name="emdash" unicode="&#x2014;" horiz-adv-x="901" 
d="M838 222h-798l19 140h798z" />
    <glyph glyph-name="quoteleft" unicode="&#x2018;" horiz-adv-x="287" 
d="M190 707h127l-95 -231h-168z" />
    <glyph glyph-name="quoteright" unicode="&#x2019;" horiz-adv-x="283" 
d="M185 475h-127l95 231h168z" />
    <glyph glyph-name="quotesinglbase" unicode="&#x201a;" horiz-adv-x="272" 
d="M66 -113h-121l99 236h162z" />
    <glyph glyph-name="quotedblleft" unicode="&#x201c;" horiz-adv-x="478" 
d="M190 707h127l-95 -231h-168zM377 707h127l-81 -231h-168z" />
    <glyph glyph-name="quotedblright" unicode="&#x201d;" horiz-adv-x="473" 
d="M188 475h-127l81 231h168zM375 475h-127l95 231h168z" />
    <glyph glyph-name="quotedblbase" unicode="&#x201e;" horiz-adv-x="469" 
d="M66 -113h-121l99 236h162zM264 -113h-122l100 236h162z" />
    <glyph glyph-name="dagger" unicode="&#x2020;" horiz-adv-x="507" 
d="M54 514h158l27 193h141l-27 -193h158l-19 -136h-158l-68 -482h-141l68 482h-158z" />
    <glyph glyph-name="daggerdbl" unicode="&#x2021;" horiz-adv-x="541" 
d="M25 211h158l26 182h-158l19 135h158l25 181h141l-25 -181h158l-19 -135h-158l-26 -182h158l-19 -136h-158l-25 -179h-141l25 179h-158z" />
    <glyph glyph-name="bullet" unicode="&#x2022;" horiz-adv-x="411" 
d="M56 337q4 32 20 60t40 49t54 33t62 12t58 -12t44 -33t25.5 -49t3.5 -60q-5 -32 -20.5 -60t-39.5 -49t-53.5 -33.5t-61.5 -12.5t-58.5 12.5t-44.5 33.5t-26 49t-3 60z" />
    <glyph glyph-name="ellipsis" unicode="&#x2026;" horiz-adv-x="717" 
d="M4 77q3 18 11.5 33.5t22 27.5t30.5 18.5t35 6.5q36 0 57.5 -25t16.5 -61q-5 -37 -33.5 -62t-64.5 -25q-37 0 -58.5 25t-16.5 62zM241 77q5 36 33 61t64 25q37 0 58.5 -25t16.5 -61q-5 -37 -33.5 -62t-65.5 -25q-36 0 -57 25t-16 62zM478 77q5 36 33 61t64 25q38 0 59 -25
t16 -61q-5 -37 -33 -62t-66 -25q-36 0 -57 25t-16 62z" />
    <glyph glyph-name="perthousand" unicode="&#x2030;" horiz-adv-x="1065" 
d="M606 745l100 -72l-595 -748l-99 68zM357 537q-6 -42 -22 -75.5t-39 -56.5t-52 -35.5t-61 -12.5q-71 0 -103 46t-20 136q6 41 21.5 74t38.5 56t52 35.5t61 12.5q72 0 104 -46.5t20 -133.5zM253 537q5 40 -4.5 58t-31.5 18q-21 0 -37.5 -18t-21.5 -57q-6 -42 5 -59t32 -17
q23 0 38 18.5t20 56.5zM689 176q-6 -42 -22 -75.5t-39 -56.5t-52 -35.5t-61 -12.5q-71 0 -103 46t-19 136q6 41 21.5 74t38.5 56t52 35.5t61 12.5q72 0 103.5 -46.5t19.5 -133.5zM1023 176q-6 -42 -22 -75.5t-39 -56.5t-52 -35.5t-61 -12.5q-71 0 -103 46t-19 136
q6 41 21.5 74t38.5 56t52 35.5t61 12.5q72 0 103.5 -46.5t19.5 -133.5zM585 176q6 40 -4 58t-32 18q-21 0 -37 -18t-22 -57q-5 -42 6 -59t32 -17q47 0 57 75zM919 176q6 40 -4 58t-32 18q-21 0 -37 -18t-22 -57q-5 -42 6 -59t32 -17q47 0 57 75z" />
    <glyph glyph-name="guilsinglleft" unicode="&#x2039;" horiz-adv-x="329" 
d="M317 446l-129 -156q20 -38 42.5 -81.5t42.5 -78.5l-130 -71l-121 230l186 229z" />
    <glyph glyph-name="guilsinglright" unicode="&#x203a;" horiz-adv-x="328" 
d="M6 130l129 159q-19 37 -42 79t-42 78l130 72l121 -229l-184 -229z" />
    <glyph glyph-name="fraction" unicode="&#x2044;" horiz-adv-x="538" 
d="M67 -45l-106 71l520 693l106 -70z" />
    <glyph glyph-name="Euro" unicode="&#x20ac;" horiz-adv-x="647" 
d="M114 483q7 58 36.5 102t73 73.5t96 44.5t105.5 15q35 0 70 -9t65 -28t53.5 -47.5t36.5 -67.5l-127 -64q-11 29 -34 46.5t-51 24.5t-58.5 4t-56 -14.5t-43 -32t-20.5 -47.5l-2 -17h190l-34 -100h-170l-5 -38h190l-33 -98h-171v-5q-4 -27 8 -47t34 -31.5t50.5 -14t58 5
t57 25t46.5 46.5l117 -71q-57 -75 -130.5 -111.5t-144.5 -36.5q-51 0 -98.5 15t-82 44t-52 73t-9.5 103v5h-64l34 98h44l5 38h-64l34 100h44z" />
    <glyph glyph-name="uni2113" unicode="&#x2113;" horiz-adv-x="428" 
d="M370 54q-36 -31 -71.5 -47.5t-72.5 -16.5q-69 0 -103 35t-41 92l-3 -2l-44 -25l-31 115q18 14 44.5 34.5t46.5 37.5l30 210q10 70 30.5 116.5t47 74.5t56.5 39t59 11q36 0 60.5 -13.5t38.5 -37.5t18 -56t-1 -69q-13 -87 -69 -169t-141 -160l-2 -17q-4 -33 1 -52.5
t16.5 -27t28.5 -3t37 20.5zM232 397q28 23 47 60.5t29 73t9 61t-13 25.5q-6 0 -14.5 -7t-17 -23t-16 -43t-13.5 -67z" />
    <glyph glyph-name="trademark" unicode="&#x2122;" horiz-adv-x="838" 
d="M163 576h-96l18 132h328l-18 -132h-97l-40 -280h-135zM437 708h114l64 -166l113 166h110l-57 -410h-120l26 164l-73 -114h-49l-41 120l-19 -170h-125z" />
    <glyph glyph-name="Omega" unicode="&#x2126;" horiz-adv-x="780" 
d="M120 143q-45 41 -59 100t-4 132q12 84 50 147t91.5 104.5t117.5 62.5t128 21q65 0 124.5 -21t102.5 -63t64 -104t10 -143q-11 -73 -45.5 -137t-88.5 -99h102l-20 -143h-314l15 108q58 17 102.5 58.5t71.5 93t34 106.5t-9 100.5t-57 75t-111 29.5q-65 0 -112.5 -29.5
t-76.5 -75.5t-39 -101.5t1 -107t43.5 -92.5t87.5 -58l-15 -107h-314l20 143h100z" />
    <glyph glyph-name="estimated" unicode="&#x212e;" horiz-adv-x="830" 
d="M257 282q0 -29 0.5 -56t0.5 -58q32 -31 74 -49.5t89 -18.5q27 0 58 5t61 16.5t57.5 31t47.5 48.5l133 -1q-33 -57 -76 -96.5t-90.5 -64.5t-96.5 -36t-95 -11q-78 0 -147.5 27t-121 73.5t-81.5 109.5t-30 135t30 135t81.5 110t121 74.5t147.5 27.5q79 0 148.5 -27.5
t121 -74.5t81.5 -110t30 -135v-55h-544zM585 506q-34 31 -75 49t-89 18q-45 0 -88.5 -19.5t-75.5 -49.5v-113h328v115z" />
    <glyph glyph-name="partialdiff" unicode="&#x2202;" horiz-adv-x="511" 
d="M118 666q38 22 79.5 37t85.5 15q45 0 86.5 -20t70.5 -62t42.5 -108.5t2.5 -159.5q-9 -82 -35 -151t-66 -119.5t-91.5 -79t-112.5 -28.5q-48 0 -81 19.5t-52 51t-25 72.5t-1 85q6 57 30.5 103t59.5 79t76 50.5t80 17.5q25 0 47.5 -6.5t42.5 -21.5q6 49 -6.5 85t-38.5 54
t-63 16.5t-80 -26.5zM206 132q18 -4 37.5 9t37 36.5t31.5 55.5t21 67q-7 14 -31 23t-52 9q-15 0 -29.5 -9t-26.5 -24t-20.5 -35t-11.5 -43q-6 -41 4.5 -65t34.5 -24h5z" />
    <glyph glyph-name="Delta" unicode="&#x2206;" horiz-adv-x="590" 
d="M409 688l126 -597l-12 -91h-539l12 90l294 598h119zM164 139h212l-60 328z" />
    <glyph glyph-name="product" unicode="&#x220f;" horiz-adv-x="638" 
d="M334 -57l87 614h-136l-87 -614h-140l87 614h-83l19 138h584l-19 -138h-85l-87 -614h-140z" />
    <glyph glyph-name="summation" unicode="&#x2211;" horiz-adv-x="545" 
d="M239 316l-159 291l14 101h464l-16 -116h-282l147 -274l-233 -265h305l-17 -124h-486l13 98z" />
    <glyph glyph-name="minus" unicode="&#x2212;" horiz-adv-x="614" 
d="M551 229h-510l19 138h510z" />
    <glyph glyph-name="uni2215" unicode="&#x2215;" horiz-adv-x="531" 
d="M64 -45l-106 71l519 693l106 -70z" />
    <glyph glyph-name="uni2219" unicode="&#x2219;" horiz-adv-x="250" 
d="M39 307q5 37 33 62t66 25q37 0 57 -25t15 -62q-5 -36 -32 -60.5t-64 -24.5q-38 0 -59 24.5t-16 60.5z" />
    <glyph glyph-name="radical" unicode="&#x221a;" horiz-adv-x="534" 
d="M92 241q-9 -3 -18.5 -6.5t-17.5 -5.5l-24 -2l-27 122l202 73l34 -317q25 77 51.5 163.5t53 174.5t53 174t50.5 163h146l-317 -906h-118z" />
    <glyph glyph-name="infinity" unicode="&#x221e;" horiz-adv-x="687" 
d="M652 286q-6 -39 -24.5 -70.5t-45 -54t-58.5 -34.5t-65 -12q-45 0 -79 21.5t-51 59.5q-11 -14 -27 -28.5t-36 -26t-44 -19t-51 -7.5q-35 0 -63 13t-47.5 35.5t-28 53t-3.5 66.5q5 37 22.5 69t43.5 55t59 36t70 13q48 0 79.5 -24t50.5 -63q14 17 31.5 33t38 28.5t43 19.5
t46.5 6q36 -1 64 -13.5t46.5 -35t26 -53t2.5 -67.5v-1zM206 337q-28 0 -43 -16t-17 -35.5t9 -35.5t35 -16q14 0 36 13.5t47 39.5q-16 20 -33 35t-34 15zM493 337q-17 0 -39 -15t-42 -35q17 -27 35 -40t32 -13q24 0 40 16t19.5 35.5t-7 35.5t-38.5 16z" />
    <glyph glyph-name="integral" unicode="&#x222b;" horiz-adv-x="370" 
d="M386 678q-10 6 -23 9t-25 -1.5t-21 -18t-11 -39.5l-78 -593q-8 -60 -38.5 -98.5t-71 -55t-86 -11.5t-84.5 33l46 99q13 -8 27.5 -12t26.5 -1.5t21.5 13.5t12.5 34q3 25 8 63.5t13.5 105.5t21 170t30.5 257q9 61 39 101.5t70.5 58.5t85 12.5t80.5 -34.5z" />
    <glyph glyph-name="approxequal" unicode="&#x2248;" horiz-adv-x="490" 
d="M465 400q-28 -41 -57.5 -62t-60.5 -26.5t-62.5 2t-62.5 23.5q-16 8 -28 12.5t-24 4t-26 -7.5t-33 -22l-62 60q35 45 71.5 70t70.5 27q21 1 41.5 -7t41.5 -18q17 -8 30 -15t26.5 -8.5t29 5.5t36.5 27zM440 225q-28 -41 -58.5 -63.5t-61.5 -28.5t-62.5 2t-60.5 27
q-16 10 -28 16t-24 5t-26 -9t-33 -25l-61 60q33 45 61.5 66.5t55 26.5t52.5 -2t55 -19q16 -7 29.5 -12t27 -5t29 5.5t36.5 20.5z" />
    <glyph glyph-name="notequal" unicode="&#x2260;" horiz-adv-x="532" 
d="M489 301h-152l-24 -41h170l-18 -126h-221l-59 -102l-107 57l24 45h-85l18 126h139l25 41h-158l18 126h210l54 97l113 -48l-27 -49h98z" />
    <glyph glyph-name="lessequal" unicode="&#x2264;" horiz-adv-x="487" 
d="M258 412q17 -9 32.5 -18t32.5 -17l105 -57l-21 -150l-353 200l12 86l410 202l-21 -150zM423 160l-19 -137h-403l19 137h403z" />
    <glyph glyph-name="greaterequal" unicode="&#x2265;" horiz-adv-x="485" 
d="M451 366l-410 -200l21 151l121 56l75 37l-170 94l22 151l353 -203zM425 155l-19 -136h-403l19 136h403z" />
    <glyph glyph-name="lozenge" unicode="&#x25ca;" horiz-adv-x="553" 
d="M26 337l257 365h101l152 -363l-257 -365h-104zM177 340q11 -26 20 -49l18 -46t18.5 -46.5t20.5 -51.5l129 191l-75 199z" />
    <glyph glyph-name="i.loclTRK" horiz-adv-x="249" 
d="M79 652q4 27 19.5 45.5t35.5 28t42 9.5t40 -9t28 -27.5t6 -46.5q-4 -26 -19 -43.5t-35 -26t-42 -8.5t-40 8.5t-28.5 26t-6.5 43.5zM153 0h-142l72 517h142z" />
    <glyph glyph-name="uni0414.loclBGR" horiz-adv-x="692" 
d="M469 -136l18 136h-369l-18 -136h-147l38 270h64l269 574h153l111 -574h65l-38 -270h-146zM435 134l-41 253l-15 158h-3l-57 -156l-111 -255h227z" />
    <glyph glyph-name="uni041B.loclBGR" horiz-adv-x="626" 
d="M348 545h-2l-53 -149l-179 -396h-159l335 708h153l144 -708h-157l-71 397z" />
    <glyph glyph-name="uni0432.loclBGR" 
d="M318 718q37 0 71.5 -9.5t59.5 -30.5t37.5 -53.5t6.5 -77.5q-4 -30 -15 -55t-25.5 -45t-31.5 -34t-33 -21q42 -5 64.5 -39t14.5 -87l-13 -96q-6 -45 -29.5 -79t-57 -56.5t-73.5 -33.5t-79 -11t-75.5 10.5t-63 32t-39.5 54.5t-7 78l53 374q6 43 27.5 76.5t53.5 56t72 34.5
t82 12zM298 593q-31 0 -51.5 -16t-25.5 -45l-17 -124q17 5 33.5 10t33.5 11q35 11 55.5 39.5t25.5 63.5q4 29 -9.5 45t-44.5 16zM260 329q-20 -3 -36.5 -8.5t-33.5 -10.5l-18 -125q-5 -34 14 -51.5t47 -17.5t53 15.5t30 49.5l13 93q5 29 -14.5 45t-54.5 10z" />
    <glyph glyph-name="uni0433.loclBGR" horiz-adv-x="437" 
d="M253 528q39 0 70 -11t51 -30.5t29 -48t4 -62.5q-5 -37 -20.5 -64t-39.5 -46.5t-54.5 -32.5t-66.5 -21q-36 -9 -59.5 -19.5t-27.5 -36.5t12.5 -37t46.5 -11q62 0 122 47l63 -82q-47 -47 -100 -64.5t-113 -17.5q-37 0 -69 10t-55 30t-34.5 50t-5.5 70q6 39 21.5 66t38.5 45
t51.5 29.5t60.5 20.5q14 3 28.5 7t27.5 10t21.5 15t10.5 23q3 21 -11 29.5t-40 8.5q-43 0 -85 -26l-67 77q43 39 93 55.5t97 16.5z" />
    <glyph glyph-name="uni0434.loclBGR" horiz-adv-x="505" 
d="M0 0zM410 8q-10 -63 -33 -104t-55.5 -66t-71.5 -35t-81 -10q-54 0 -103 21.5t-79 63.5l81 73q15 -17 41 -26t53 -9q39 0 68.5 19t37.5 68q-21 -6 -41.5 -9.5t-40.5 -3.5q-37 0 -70 10.5t-56 31.5t-34.5 52.5t-5.5 73.5l29 196q7 48 29.5 81t55.5 54t73 30t82 9
q53 1 102.5 -11.5t87.5 -32.5zM329 412q-21 10 -51 10q-36 0 -63 -16t-32 -49l-28 -190q-5 -35 17 -50t57 -15q31 0 57 13z" />
    <glyph glyph-name="uni0436.loclBGR" horiz-adv-x="746" 
d="M540 273l157 -273h-159l-96 192l-19 -15l-25 -177h-136l25 177l-14 14l-152 -191h-158l235 273l-165 245h161l114 -189l54 379h136l-54 -379l167 189h161z" />
    <glyph glyph-name="uni0438.loclBGR" horiz-adv-x="517" 
d="M425 28q-46 -16 -100 -27t-107 -11q-42 0 -79.5 9.5t-63.5 31.5t-38.5 58.5t-4.5 90.5l48 338h139l-45 -324q-4 -36 21 -56.5t61 -20.5q11 0 22.5 1.5t22.5 5.5l55 394h138z" />
    <glyph glyph-name="uni0439.loclBGR" horiz-adv-x="516" 
d="M466 723q-3 -39 -18.5 -69t-39.5 -50t-54.5 -30t-63.5 -10q-29 0 -56 9.5t-47 29t-31.5 49.5t-9.5 71h115q-1 -20 10.5 -31.5t26.5 -12.5q16 -1 32 8.5t22 35.5h114zM426 31q-55 -22 -106 -31.5t-96 -9.5q-42 0 -80 10.5t-65.5 33.5t-41 58t-6.5 85l48 341h139l-47 -340
q-2 -15 2 -27t13 -20.5t21 -12.5t26 -4q37 0 67 10l55 394h139z" />
    <glyph glyph-name="uni043A.loclBGR" horiz-adv-x="508" 
d="M372 518h162l-241 -250q40 -65 85.5 -135t84.5 -133h-161l-117 189l-10 -8l-25 -181h-139l99 707h139l-54 -385z" />
    <glyph glyph-name="uni043B.loclBGR" horiz-adv-x="497" 
d="M264 394h-2l-42 -131l-111 -263h-147l233 518h166l90 -518h-151l-32 263z" />
    <glyph glyph-name="uni043F.loclBGR" horiz-adv-x="516" 
d="M78 482q47 19 98.5 31t101.5 12q43 0 81.5 -10.5t65.5 -33t40 -58t6 -85.5l-48 -338h-138l48 337q4 34 -16.5 49t-47.5 15q-18 0 -35 -3.5t-31 -8.5l-55 -389h-138z" />
    <glyph glyph-name="uni0442.loclBGR" horiz-adv-x="753" 
d="M75 464q38 29 91 46.5t103 17.5q19 0 38.5 -2.5t37.5 -10t32 -20t22 -32.5q29 34 67.5 49.5t75.5 15.5q36 0 69 -11t57 -33t36 -55.5t6 -77.5l-49 -351h-138l49 354q4 23 -14 34.5t-41 11.5t-43.5 -11.5t-23.5 -33.5l-50 -355h-133l49 351q3 23 -15.5 35.5t-44.5 13.5
q-15 0 -30.5 -4.5t-26.5 -15.5l-53 -380h-136z" />
    <glyph glyph-name="uni0446.loclBGR" horiz-adv-x="552" 
d="M450 -131h-114l23 147l-6 -1q-29 -11 -64 -18t-66 -7q-42 0 -80 10.5t-65 33.5t-40.5 58.5t-6.5 85.5l48 340h140l-48 -339q-5 -32 14 -48t45 -17q18 0 34 2t31 7l56 395h139l-53 -380h68l-22 -142z" />
    <glyph glyph-name="uni0448.loclBGR" horiz-adv-x="780" 
d="M690 40q-35 -21 -85.5 -35.5t-101.5 -14.5q-42 0 -83 13.5t-66 42.5q-29 -27 -71 -41.5t-80 -14.5q-39 0 -73 11.5t-58 34.5t-35.5 56.5t-5.5 77.5l48 348h140l-49 -350q-5 -29 12 -41t44 -12q10 0 22.5 3.5t23.5 9t18.5 14t9.5 19.5l50 357h139l-51 -358
q-3 -23 17.5 -34.5t46.5 -11.5q41 0 62 15l54 389h139z" />
    <glyph glyph-name="uni0449.loclBGR" horiz-adv-x="819" 
d="M715 -131h-112l23 144l-9 -2q-27 -10 -56 -15.5t-58 -5.5q-42 0 -83 13.5t-66 42.5q-29 -27 -71 -41.5t-80 -14.5q-39 0 -73 11.5t-58 34.5t-35.5 56.5t-5.5 77.5l48 348h140l-49 -350q-5 -29 12 -41t44 -12q10 0 22.5 3.5t23.5 9t18.5 14t9.5 19.5l50 357h139l-51 -358
q-3 -23 17.5 -34.5t46.5 -11.5q39 0 62 12l54 392h139l-53 -380h69l-24 -141z" />
    <glyph glyph-name="uni044E.loclBGR" horiz-adv-x="737" 
d="M283 354q6 44 29.5 76.5t56.5 54t72 32.5t77 11q39 0 75 -11.5t63 -34.5t40.5 -58t6.5 -81l-24 -173q-6 -45 -29 -79t-56 -56.5t-72.5 -33.5t-78.5 -11t-75.5 11t-63 33.5t-40 56.5t-7.5 79l7 42h-85l-30 -212h-139l100 708h139l-54 -381h85zM501 402q-26 0 -50.5 -14
t-29.5 -43l-24 -171q-4 -29 16.5 -43.5t47.5 -14.5q13 0 26 3.5t24 11t18.5 18.5t10.5 25l23 171q5 29 -15.5 43t-46.5 14z" />
    <glyph glyph-name=".ttfautohint" horiz-adv-x="323" 
d="M0 0z" />
    </font>
</defs>
</svg>
