<?xml version="1.0" standalone="no"?>
<!DOCTYPE svg PUBLIC "-//W3C//DTD SVG 1.1//EN" "http://www.w3.org/Graphics/SVG/1.1/DTD/svg11.dtd" >
<svg xmlns="http://www.w3.org/2000/svg" xmlns:xlink="http://www.w3.org/1999/xlink" version="1.1">
<metadata>
Created by FontForge 20190801 at Wed Sep 13 07:33:35 2023
 By root
(c) 2019, 2021, 2023 by F37 Network Ltd. All rights reserved.
</metadata>
<defs>
<font id="F37Judge-BoldExtended" horiz-adv-x="568" >
  <font-face 
    font-family="F37 Judge Bold Extended"
    font-weight="700"
    font-stretch="expanded"
    units-per-em="1000"
    panose-1="0 0 0 0 0 0 0 0 0 0"
    ascent="800"
    descent="-200"
    x-height="550"
    cap-height="750"
    bbox="-71 -266 1183 1139"
    underline-thickness="50"
    underline-position="-125"
    unicode-range="U+0020-F8FF"
  />
<missing-glyph horiz-adv-x="800" 
d="M153 451q-27 -1 -44 -19.5t-17 -44.5q0 -18 9 -36t23 -23q-24 2 -44 28t-20 60t24 64t69 35v155h475v-447q42 -20 75 -20q22 0 37 5q-38 -42 -85 -42q-13 0 -27 3v-169h-475v451zM567 60v130q-61 29 -159 109l-95 77q-56 45 -100 62v-378h354zM281 485.5
q33 -19.5 74 -52.5l101 -83l30 -24q54 -46 81 -65v349h-354v-98q35 -7 68 -26.5z" />
    <glyph glyph-name=".notdef" horiz-adv-x="800" 
d="M153 451q-27 -1 -44 -19.5t-17 -44.5q0 -18 9 -36t23 -23q-24 2 -44 28t-20 60t24 64t69 35v155h475v-447q42 -20 75 -20q22 0 37 5q-38 -42 -85 -42q-13 0 -27 3v-169h-475v451zM567 60v130q-61 29 -159 109l-95 77q-56 45 -100 62v-378h354zM281 485.5
q33 -19.5 74 -52.5l101 -83l30 -24q54 -46 81 -65v349h-354v-98q35 -7 68 -26.5z" />
    <glyph glyph-name="space" unicode=" " horiz-adv-x="150" 
 />
    <glyph glyph-name="A" unicode="A" horiz-adv-x="565" 
d="M186 750h193l186 -750h-177l-20 101h-182l-20 -101h-166zM345 221l-67 340l-68 -340h135z" />
    <glyph glyph-name="Aacute" unicode="&#xc1;" horiz-adv-x="565" 
d="M186 750h193l186 -750h-177l-20 101h-182l-20 -101h-166zM345 221l-67 340l-68 -340h135zM256 950h167l-116 -135h-71z" />
    <glyph glyph-name="Abreve" unicode="&#x102;" horiz-adv-x="565" 
d="M186 750h193l186 -750h-177l-20 101h-182l-20 -101h-166zM345 221l-67 340l-68 -340h135zM167.5 853.5q-40.5 36.5 -35.5 96.5h88q-1 -23 16 -37t46 -14t45.5 14t15.5 37h84q5 -60 -35.5 -96.5t-111.5 -36.5q-72 0 -112.5 36.5z" />
    <glyph glyph-name="uni1EAE" unicode="&#x1eae;" horiz-adv-x="565" 
d="M186 750h193l186 -750h-177l-20 101h-182l-20 -101h-166zM345 221l-67 340l-68 -340h135zM167.5 853.5q-40.5 36.5 -35.5 96.5h88q-1 -23 16 -37t46 -14t45.5 14t15.5 37h84q5 -60 -35.5 -96.5t-111.5 -36.5q-72 0 -112.5 36.5zM260 1089h142l-99 -115h-60z" />
    <glyph glyph-name="uni1EB6" unicode="&#x1eb6;" horiz-adv-x="565" 
d="M186 750h193l186 -750h-177l-20 101h-182l-20 -101h-166zM345 221l-67 340l-68 -340h135zM224.5 -168.5q-21.5 21.5 -21.5 55.5t21.5 55.5t55.5 21.5t55.5 -21.5t21.5 -55.5t-21.5 -55.5t-55.5 -21.5t-55.5 21.5zM167.5 853.5q-40.5 36.5 -35.5 96.5h88q-1 -23 16 -37
t46 -14t45.5 14t15.5 37h84q5 -60 -35.5 -96.5t-111.5 -36.5q-72 0 -112.5 36.5z" />
    <glyph glyph-name="uni1EB0" unicode="&#x1eb0;" horiz-adv-x="565" 
d="M186 750h193l186 -750h-177l-20 101h-182l-20 -101h-166zM345 221l-67 340l-68 -340h135zM167.5 853.5q-40.5 36.5 -35.5 96.5h88q-1 -23 16 -37t46 -14t45.5 14t15.5 37h84q5 -60 -35.5 -96.5t-111.5 -36.5q-72 0 -112.5 36.5zM169 1089h142l17 -115h-61z" />
    <glyph glyph-name="uni1EB2" unicode="&#x1eb2;" horiz-adv-x="565" 
d="M186 750h193l186 -750h-177l-20 101h-182l-20 -101h-166zM345 221l-67 340l-68 -340h135zM167.5 853.5q-40.5 36.5 -35.5 96.5h88q-1 -23 16 -37t46 -14t45.5 14t15.5 37h84q5 -60 -35.5 -96.5t-111.5 -36.5q-72 0 -112.5 36.5zM285.5 1021.5q10.5 5.5 10.5 17.5
q0 13 -12.5 18t-41.5 5v77h14q132 0 132 -79q0 -30 -19 -47t-54 -22v-18h-64v41q24 2 34.5 7.5z" />
    <glyph glyph-name="uni1EB4" unicode="&#x1eb4;" horiz-adv-x="565" 
d="M186 750h193l186 -750h-177l-20 101h-182l-20 -101h-166zM345 221l-67 340l-68 -340h135zM173.5 853.5q-40.5 36.5 -35.5 96.5h88q-1 -23 16 -37t46 -14t45.5 14t15.5 37h84q5 -60 -35.5 -96.5t-111.5 -36.5q-72 0 -112.5 36.5zM315.5 996q-21.5 7 -47.5 18
q-30 13 -37 13q-11 0 -16 -7t-5 -28h-78q-1 8 -1 23q0 53 19.5 76t60.5 23q22 0 41 -6t49 -18q12 -5 22.5 -9t16.5 -4q11 0 16 6.5t5 27.5h77q1 -8 1 -23q0 -53 -19.5 -76t-59.5 -23q-23 0 -44.5 7z" />
    <glyph glyph-name="Acircumflex" unicode="&#xc2;" horiz-adv-x="565" 
d="M186 750h193l186 -750h-177l-20 101h-182l-20 -101h-166zM345 221l-67 340l-68 -340h135zM440 815h-102l-58 64l-58 -64h-102l91 135h138z" />
    <glyph glyph-name="uni1EA4" unicode="&#x1ea4;" horiz-adv-x="565" 
d="M186 750h193l186 -750h-177l-20 101h-182l-20 -101h-166zM345 221l-67 340l-68 -340h135zM211 950h138l91 -135h-102l-58 64l-58 -64h-102zM402 1060h142l-99 -115h-60z" />
    <glyph glyph-name="uni1EAC" unicode="&#x1eac;" horiz-adv-x="565" 
d="M186 750h193l186 -750h-177l-20 101h-182l-20 -101h-166zM345 221l-67 340l-68 -340h135zM224.5 -168.5q-21.5 21.5 -21.5 55.5t21.5 55.5t55.5 21.5t55.5 -21.5t21.5 -55.5t-21.5 -55.5t-55.5 -21.5t-55.5 21.5zM440 815h-102l-58 64l-58 -64h-102l91 135h138z" />
    <glyph glyph-name="uni1EA6" unicode="&#x1ea6;" horiz-adv-x="565" 
d="M186 750h193l186 -750h-177l-20 101h-182l-20 -101h-166zM345 221l-67 340l-68 -340h135zM211 950h138l91 -135h-102l-58 64l-58 -64h-102zM325 1060h142l17 -115h-61z" />
    <glyph glyph-name="uni1EA8" unicode="&#x1ea8;" horiz-adv-x="565" 
d="M186 750h193l186 -750h-177l-20 101h-182l-20 -101h-166zM345 221l-67 340l-68 -340h135zM211 950h138l91 -135h-102l-58 64l-58 -64h-102zM439 978q11 6 11 19t-13.5 18.5t-42.5 5.5v79h14q138 0 138 -81q0 -62 -76 -72v-19h-66v43q24 1 35 7z" />
    <glyph glyph-name="uni1EAA" unicode="&#x1eaa;" horiz-adv-x="565" 
d="M186 750h193l186 -750h-177l-20 101h-182l-20 -101h-166zM345 221l-67 340l-68 -340h135zM440 815h-102l-58 64l-58 -64h-102l91 135h138zM310.5 996q-21.5 7 -47.5 18q-30 13 -37 13q-11 0 -16 -7t-5 -28h-78q-1 8 -1 23q0 53 19.5 76t60.5 23q22 0 41 -6t49 -18
q12 -5 22.5 -9t16.5 -4q11 0 16 6.5t5 27.5h77q1 -8 1 -23q0 -53 -19.5 -76t-59.5 -23q-23 0 -44.5 7z" />
    <glyph glyph-name="Adieresis" unicode="&#xc4;" horiz-adv-x="565" 
d="M186 750h193l186 -750h-177l-20 101h-182l-20 -101h-166zM345 221l-67 340l-68 -340h135zM322 818q-22 22 -22 57t22 57t57 22t57 -22t22 -57t-22 -57t-57 -22t-57 22zM124.5 818q-22.5 22 -22.5 57t22.5 57t56.5 22q35 0 57 -22t22 -57t-22 -57t-57 -22q-34 0 -56.5 22z
" />
    <glyph glyph-name="uni1EA0" unicode="&#x1ea0;" horiz-adv-x="565" 
d="M186 750h193l186 -750h-177l-20 101h-182l-20 -101h-166zM345 221l-67 340l-68 -340h135zM224.5 -168.5q-21.5 21.5 -21.5 55.5t21.5 55.5t55.5 21.5t55.5 -21.5t21.5 -55.5t-21.5 -55.5t-55.5 -21.5t-55.5 21.5z" />
    <glyph glyph-name="Agrave" unicode="&#xc0;" horiz-adv-x="565" 
d="M186 750h193l186 -750h-177l-20 101h-182l-20 -101h-166zM345 221l-67 340l-68 -340h135zM243 815l-116 135h167l20 -135h-71z" />
    <glyph glyph-name="uni1EA2" unicode="&#x1ea2;" horiz-adv-x="565" 
d="M186 750h193l186 -750h-177l-20 101h-182l-20 -101h-166zM345 221l-67 340l-68 -340h135zM285.5 866.5q11.5 6.5 11.5 19.5t-13.5 19t-44.5 6v83h15q143 0 143 -85q0 -63 -79 -75v-19h-69v44q25 1 36.5 7.5z" />
    <glyph glyph-name="Amacron" unicode="&#x100;" horiz-adv-x="565" 
d="M186 750h193l186 -750h-177l-20 101h-182l-20 -101h-166zM345 221l-67 340l-68 -340h135zM426 931v-110h-292v110h292z" />
    <glyph glyph-name="Aogonek" unicode="&#x104;" horiz-adv-x="565" 
d="M186 750h193l186 -750q-39 -43 -39 -67q0 -13 9 -23t30 -10v-79l-27 -1q-69 0 -103.5 20.5t-34.5 57.5q0 57 98 102h-110l-20 101h-182l-20 -101h-166zM345 221l-67 340l-68 -340h135z" />
    <glyph glyph-name="Aring" unicode="&#xc5;" horiz-adv-x="565" 
d="M186 750h193l186 -750h-177l-20 101h-182l-20 -101h-166zM345 221l-67 340l-68 -340h135zM205 825q-28 25 -28 66t28 66t75 25t75 -25t28 -66t-28 -66t-75 -25t-75 25zM306.5 869q10.5 9 10.5 22t-10.5 22t-26.5 9t-26.5 -9t-10.5 -22t10.5 -22t26.5 -9t26.5 9z" />
    <glyph glyph-name="Atilde" unicode="&#xc3;" horiz-adv-x="565" 
d="M186 750h193l186 -750h-177l-20 101h-182l-20 -101h-166zM345 221l-67 340l-68 -340h135zM313 820.5q-24 7.5 -51 19.5q-31 14 -42 14q-12 0 -17.5 -7.5t-5.5 -30.5h-85q-1 9 -1 26q0 58 21.5 83t65.5 25q25 0 49 -7.5t51 -19.5q32 -14 42 -14q12 0 17.5 7.5t5.5 30.5h85
q1 -9 1 -26q0 -58 -21.5 -83t-65.5 -25q-25 0 -49 7.5z" />
    <glyph glyph-name="AE" unicode="&#xc6;" horiz-adv-x="845" 
d="M308 750h511v-140h-280v-156h237v-140h-237v-174h282v-140h-432v121h-172l-45 -121h-172zM389 241v339l-127 -339h127z" />
    <glyph glyph-name="B" unicode="B" horiz-adv-x="554" 
d="M32 750h288q99 0 150.5 -51t51.5 -140v-48q0 -93 -57 -138q67 -42 67 -144v-38q0 -89 -51.5 -140t-150.5 -51h-298v750zM365.5 156.5q15.5 16.5 15.5 56.5v14q0 40 -15.5 56.5t-53.5 16.5h-130v-160h130q38 0 53.5 16.5zM355.5 456.5q15.5 16.5 15.5 56.5v24
q0 40 -15.5 56.5t-53.5 16.5h-120v-170h120q38 0 53.5 16.5z" />
    <glyph glyph-name="C" unicode="C" 
d="M149.5 21q-58.5 31 -91.5 89t-33 137v260q0 78 33 135t91.5 87.5t134.5 30.5t134.5 -30.5t91.5 -87.5t33 -135v-50h-150v46q0 53 -30 85t-79 32t-79 -32t-30 -85v-256q0 -53 30 -85t79 -32t79 32t30 85v58h150v-58q0 -79 -33 -137t-91.5 -89t-134.5 -31t-134.5 31z" />
    <glyph glyph-name="Cacute" unicode="&#x106;" 
d="M149.5 21q-58.5 31 -91.5 89t-33 137v260q0 78 33 135t91.5 87.5t134.5 30.5t134.5 -30.5t91.5 -87.5t33 -135v-50h-150v46q0 53 -30 85t-79 32t-79 -32t-30 -85v-256q0 -53 30 -85t79 -32t79 32t30 85v58h150v-58q0 -79 -33 -137t-91.5 -89t-134.5 -31t-134.5 31z
M260 950h167l-116 -135h-71z" />
    <glyph glyph-name="Ccaron" unicode="&#x10c;" 
d="M149.5 21q-58.5 31 -91.5 89t-33 137v260q0 78 33 135t91.5 87.5t134.5 30.5t134.5 -30.5t91.5 -87.5t33 -135v-50h-150v46q0 53 -30 85t-79 32t-79 -32t-30 -85v-256q0 -53 30 -85t79 -32t79 32t30 85v58h150v-58q0 -79 -33 -137t-91.5 -89t-134.5 -31t-134.5 31z
M124 950h102l58 -64l58 64h102l-91 -135h-138z" />
    <glyph glyph-name="Ccedilla" unicode="&#xc7;" 
d="M149.5 21q-58.5 31 -91.5 89t-33 137v260q0 78 33 135t91.5 87.5t134.5 30.5t134.5 -30.5t91.5 -87.5t33 -135v-50h-150v46q0 53 -30 85t-79 32t-79 -32t-30 -85v-256q0 -53 30 -85t79 -32t79 32t30 85v58h150v-58q0 -79 -33 -137t-91.5 -89t-134.5 -31t-134.5 31z
M308 -200h-167l116 135h71z" />
    <glyph glyph-name="Ccircumflex" unicode="&#x108;" 
d="M149.5 21q-58.5 31 -91.5 89t-33 137v260q0 78 33 135t91.5 87.5t134.5 30.5t134.5 -30.5t91.5 -87.5t33 -135v-50h-150v46q0 53 -30 85t-79 32t-79 -32t-30 -85v-256q0 -53 30 -85t79 -32t79 32t30 85v58h150v-58q0 -79 -33 -137t-91.5 -89t-134.5 -31t-134.5 31z
M444 815h-102l-58 64l-58 -64h-102l91 135h138z" />
    <glyph glyph-name="Cdotaccent" unicode="&#x10a;" 
d="M149.5 21q-58.5 31 -91.5 89t-33 137v260q0 78 33 135t91.5 87.5t134.5 30.5t134.5 -30.5t91.5 -87.5t33 -135v-50h-150v46q0 53 -30 85t-79 32t-79 -32t-30 -85v-256q0 -53 30 -85t79 -32t79 32t30 85v58h150v-58q0 -79 -33 -137t-91.5 -89t-134.5 -31t-134.5 31z
M223 814q-24 24 -24 61t24 61t61 24q38 0 61.5 -23.5t23.5 -61.5q0 -37 -24 -61t-61 -24t-61 24z" />
    <glyph glyph-name="D" unicode="D" horiz-adv-x="559" 
d="M32 750h243q76 0 134.5 -31t91.5 -89t33 -137v-236q0 -79 -33 -137t-91.5 -89t-134.5 -31h-243v750zM354 172q30 32 30 85v236q0 53 -30 85t-79 32h-93v-470h93q49 0 79 32z" />
    <glyph glyph-name="Dcaron" unicode="&#x10e;" horiz-adv-x="559" 
d="M32 750h243q76 0 134.5 -31t91.5 -89t33 -137v-236q0 -79 -33 -137t-91.5 -89t-134.5 -31h-243v750zM354 172q30 32 30 85v236q0 53 -30 85t-79 32h-93v-470h93q49 0 79 32zM100 950h102l58 -64l58 64h102l-91 -135h-138z" />
    <glyph glyph-name="Dcroat" unicode="&#x110;" horiz-adv-x="579" 
d="M52 340h-52v110h52v300h243q76 0 134.5 -31t91.5 -89t33 -137v-236q0 -79 -33 -137t-91.5 -89t-134.5 -31h-243v340zM374 172q30 32 30 85v236q0 53 -30 85t-79 32h-93v-160h90v-110h-90v-200h93q49 0 79 32z" />
    <glyph glyph-name="Eth" unicode="&#xd0;" horiz-adv-x="579" 
d="M52 340h-52v110h52v300h243q76 0 134.5 -31t91.5 -89t33 -137v-236q0 -79 -33 -137t-91.5 -89t-134.5 -31h-243v340zM374 172q30 32 30 85v236q0 53 -30 85t-79 32h-93v-160h90v-110h-90v-200h93q49 0 79 32z" />
    <glyph glyph-name="E" unicode="E" horiz-adv-x="488" 
d="M32 750h430v-140h-280v-156h237v-140h-237v-174h282v-140h-432v750z" />
    <glyph glyph-name="Eacute" unicode="&#xc9;" horiz-adv-x="488" 
d="M32 750h430v-140h-280v-156h237v-140h-237v-174h282v-140h-432v750zM225 950h167l-116 -135h-71z" />
    <glyph glyph-name="Ecaron" unicode="&#x11a;" horiz-adv-x="488" 
d="M32 750h430v-140h-280v-156h237v-140h-237v-174h282v-140h-432v750zM89 950h102l58 -64l58 64h102l-91 -135h-138z" />
    <glyph glyph-name="Ecircumflex" unicode="&#xca;" horiz-adv-x="488" 
d="M32 750h430v-140h-280v-156h237v-140h-237v-174h282v-140h-432v750zM409 815h-102l-58 64l-58 -64h-102l91 135h138z" />
    <glyph glyph-name="uni1EBE" unicode="&#x1ebe;" horiz-adv-x="488" 
d="M32 750h430v-140h-280v-156h237v-140h-237v-174h282v-140h-432v750zM180 950h138l91 -135h-102l-58 64l-58 -64h-102zM371 1060h142l-99 -115h-60z" />
    <glyph glyph-name="uni1EC6" unicode="&#x1ec6;" horiz-adv-x="488" 
d="M32 750h430v-140h-280v-156h237v-140h-237v-174h282v-140h-432v750zM187.5 -168.5q-21.5 21.5 -21.5 55.5t21.5 55.5t55.5 21.5t55.5 -21.5t21.5 -55.5t-21.5 -55.5t-55.5 -21.5t-55.5 21.5zM409 815h-102l-58 64l-58 -64h-102l91 135h138z" />
    <glyph glyph-name="uni1EC0" unicode="&#x1ec0;" horiz-adv-x="488" 
d="M32 750h430v-140h-280v-156h237v-140h-237v-174h282v-140h-432v750zM180 950h138l91 -135h-102l-58 64l-58 -64h-102zM294 1060h142l17 -115h-61z" />
    <glyph glyph-name="uni1EC2" unicode="&#x1ec2;" horiz-adv-x="488" 
d="M32 750h430v-140h-280v-156h237v-140h-237v-174h282v-140h-432v750zM180 950h138l91 -135h-102l-58 64l-58 -64h-102zM408 978q11 6 11 19t-13.5 18.5t-42.5 5.5v79h14q138 0 138 -81q0 -62 -76 -72v-19h-66v43q24 1 35 7z" />
    <glyph glyph-name="uni1EC4" unicode="&#x1ec4;" horiz-adv-x="488" 
d="M32 750h430v-140h-280v-156h237v-140h-237v-174h282v-140h-432v750zM409 815h-102l-58 64l-58 -64h-102l91 135h138zM279.5 996q-21.5 7 -47.5 18q-30 13 -37 13q-11 0 -16 -7t-5 -28h-78q-1 8 -1 23q0 53 19.5 76t60.5 23q22 0 41 -6t49 -18q12 -5 22.5 -9t16.5 -4
q11 0 16 6.5t5 27.5h77q1 -8 1 -23q0 -53 -19.5 -76t-59.5 -23q-23 0 -44.5 7z" />
    <glyph glyph-name="Edieresis" unicode="&#xcb;" horiz-adv-x="488" 
d="M32 750h430v-140h-280v-156h237v-140h-237v-174h282v-140h-432v750zM291 818q-22 22 -22 57t22 57t57 22t57 -22t22 -57t-22 -57t-57 -22t-57 22zM93.5 818q-22.5 22 -22.5 57t22.5 57t56.5 22q35 0 57 -22t22 -57t-22 -57t-57 -22q-34 0 -56.5 22z" />
    <glyph glyph-name="Edotaccent" unicode="&#x116;" horiz-adv-x="488" 
d="M32 750h430v-140h-280v-156h237v-140h-237v-174h282v-140h-432v750zM188 814q-24 24 -24 61t24 61t61 24q38 0 61.5 -23.5t23.5 -61.5q0 -37 -24 -61t-61 -24t-61 24z" />
    <glyph glyph-name="uni1EB8" unicode="&#x1eb8;" horiz-adv-x="488" 
d="M32 750h430v-140h-280v-156h237v-140h-237v-174h282v-140h-432v750zM187.5 -168.5q-21.5 21.5 -21.5 55.5t21.5 55.5t55.5 21.5t55.5 -21.5t21.5 -55.5t-21.5 -55.5t-55.5 -21.5t-55.5 21.5z" />
    <glyph glyph-name="Egrave" unicode="&#xc8;" horiz-adv-x="488" 
d="M32 750h430v-140h-280v-156h237v-140h-237v-174h282v-140h-432v750zM212 815l-116 135h167l20 -135h-71z" />
    <glyph glyph-name="uni1EBA" unicode="&#x1eba;" horiz-adv-x="488" 
d="M32 750h430v-140h-280v-156h237v-140h-237v-174h282v-140h-432v750zM254.5 866.5q11.5 6.5 11.5 19.5t-13.5 19t-44.5 6v83h15q143 0 143 -85q0 -63 -79 -75v-19h-69v44q25 1 36.5 7.5z" />
    <glyph glyph-name="Emacron" unicode="&#x112;" horiz-adv-x="488" 
d="M32 750h430v-140h-280v-156h237v-140h-237v-174h282v-140h-432v750zM395 931v-110h-292v110h292z" />
    <glyph glyph-name="Eogonek" unicode="&#x118;" horiz-adv-x="488" 
d="M32 750h430v-140h-280v-156h237v-140h-237v-174h282v-140q-39 -43 -39 -67q0 -13 9 -23t30 -10v-79l-27 -1q-69 0 -103.5 20.5t-34.5 57.5q0 57 98 102h-365v750z" />
    <glyph glyph-name="uni1EBC" unicode="&#x1ebc;" horiz-adv-x="488" 
d="M32 750h430v-140h-280v-156h237v-140h-237v-174h282v-140h-432v750zM282 820.5q-24 7.5 -51 19.5q-31 14 -42 14q-12 0 -17.5 -7.5t-5.5 -30.5h-85q-1 9 -1 26q0 58 21.5 83t65.5 25q25 0 49 -7.5t51 -19.5q32 -14 42 -14q12 0 17.5 7.5t5.5 30.5h85q1 -9 1 -26
q0 -58 -21.5 -83t-65.5 -25q-25 0 -49 7.5z" />
    <glyph glyph-name="uni018F" unicode="&#x18f;" 
d="M149.5 20.5q-58.5 30.5 -91.5 87.5t-33 135v125h368v135q0 53 -30 85t-79 32t-79 -32t-30 -85v-58h-150v58q0 79 33 137t91.5 89t134.5 31t134.5 -31t91.5 -89t33 -137v-260q0 -78 -33 -135t-91.5 -87.5t-134.5 -30.5t-134.5 30.5zM363 162q30 32 30 85v21h-218v-21
q0 -53 30 -85t79 -32t79 32z" />
    <glyph glyph-name="F" unicode="F" horiz-adv-x="473" 
d="M32 750h424v-140h-274v-179h244v-140h-244v-291h-150v750z" />
    <glyph glyph-name="G" unicode="G" horiz-adv-x="594" 
d="M149.5 23q-58.5 31 -91.5 89t-33 137v258q0 78 33 135t91.5 87.5t134.5 30.5t134 -30.5t91 -87.5t34 -135v-27h-150v23q0 53 -30 85t-79 32t-79 -32t-30 -85v-254q0 -53 30 -85t79 -32t79 32t30 85v5h-96v140h286v-140h-40v-5q0 -79 -33 -137t-91.5 -89t-134.5 -31
t-134.5 31z" />
    <glyph glyph-name="Gbreve" unicode="&#x11e;" horiz-adv-x="594" 
d="M149.5 23q-58.5 31 -91.5 89t-33 137v258q0 78 33 135t91.5 87.5t134.5 30.5t134 -30.5t91 -87.5t34 -135v-27h-150v23q0 53 -30 85t-79 32t-79 -32t-30 -85v-254q0 -53 30 -85t79 -32t79 32t30 85v5h-96v140h286v-140h-40v-5q0 -79 -33 -137t-91.5 -89t-134.5 -31
t-134.5 31zM176.5 853.5q-40.5 36.5 -35.5 96.5h88q-1 -23 16 -37t46 -14t45.5 14t15.5 37h84q5 -60 -35.5 -96.5t-111.5 -36.5q-72 0 -112.5 36.5z" />
    <glyph glyph-name="Gcaron" unicode="&#x1e6;" horiz-adv-x="594" 
d="M149.5 23q-58.5 31 -91.5 89t-33 137v258q0 78 33 135t91.5 87.5t134.5 30.5t134 -30.5t91 -87.5t34 -135v-27h-150v23q0 53 -30 85t-79 32t-79 -32t-30 -85v-254q0 -53 30 -85t79 -32t79 32t30 85v5h-96v140h286v-140h-40v-5q0 -79 -33 -137t-91.5 -89t-134.5 -31
t-134.5 31zM129 950h102l58 -64l58 64h102l-91 -135h-138z" />
    <glyph glyph-name="Gcircumflex" unicode="&#x11c;" horiz-adv-x="594" 
d="M149.5 23q-58.5 31 -91.5 89t-33 137v258q0 78 33 135t91.5 87.5t134.5 30.5t134 -30.5t91 -87.5t34 -135v-27h-150v23q0 53 -30 85t-79 32t-79 -32t-30 -85v-254q0 -53 30 -85t79 -32t79 32t30 85v5h-96v140h286v-140h-40v-5q0 -79 -33 -137t-91.5 -89t-134.5 -31
t-134.5 31zM449 815h-102l-58 64l-58 -64h-102l91 135h138z" />
    <glyph glyph-name="uni0122" unicode="&#x122;" horiz-adv-x="594" 
d="M149.5 23q-58.5 31 -91.5 89t-33 137v258q0 78 33 135t91.5 87.5t134.5 30.5t134 -30.5t91 -87.5t34 -135v-27h-150v23q0 53 -30 85t-79 32t-79 -32t-30 -85v-254q0 -53 30 -85t79 -32t79 32t30 85v5h-96v140h286v-140h-40v-5q0 -79 -33 -137t-91.5 -89t-134.5 -31
t-134.5 31zM346 -150l-52 -116l-48 21l32 70q-26 3 -41 20.5t-15 44.5q0 29 19 48t48 19t48 -19t19 -48q0 -17 -10 -40z" />
    <glyph glyph-name="Gdotaccent" unicode="&#x120;" horiz-adv-x="594" 
d="M149.5 23q-58.5 31 -91.5 89t-33 137v258q0 78 33 135t91.5 87.5t134.5 30.5t134 -30.5t91 -87.5t34 -135v-27h-150v23q0 53 -30 85t-79 32t-79 -32t-30 -85v-254q0 -53 30 -85t79 -32t79 32t30 85v5h-96v140h286v-140h-40v-5q0 -79 -33 -137t-91.5 -89t-134.5 -31
t-134.5 31zM228 814q-24 24 -24 61t24 61t61 24q38 0 61.5 -23.5t23.5 -61.5q0 -37 -24 -61t-61 -24t-61 24z" />
    <glyph glyph-name="uni1E20" unicode="&#x1e20;" horiz-adv-x="594" 
d="M149.5 23q-58.5 31 -91.5 89t-33 137v258q0 78 33 135t91.5 87.5t134.5 30.5t134 -30.5t91 -87.5t34 -135v-27h-150v23q0 53 -30 85t-79 32t-79 -32t-30 -85v-254q0 -53 30 -85t79 -32t79 32t30 85v5h-96v140h286v-140h-40v-5q0 -79 -33 -137t-91.5 -89t-134.5 -31
t-134.5 31zM435 931v-110h-292v110h292z" />
    <glyph glyph-name="H" unicode="H" horiz-adv-x="581" 
d="M32 750h150v-304h217v304h150v-750h-150v306h-217v-306h-150v750z" />
    <glyph glyph-name="Hbar" unicode="&#x126;" horiz-adv-x="581" 
d="M32 556h-32v110h32v84h150v-84h217v84h150v-84h32v-110h-32v-556h-150v306h-217v-306h-150v556zM399 446v110h-217v-110h217z" />
    <glyph glyph-name="Hcircumflex" unicode="&#x124;" horiz-adv-x="581" 
d="M32 750h150v-304h217v304h150v-750h-150v306h-217v-306h-150v750zM451 815h-102l-58 64l-58 -64h-102l91 135h138z" />
    <glyph glyph-name="I" unicode="I" horiz-adv-x="214" 
d="M32 750h150v-750h-150v750z" />
    <glyph glyph-name="IJ" unicode="&#x132;" horiz-adv-x="694" 
d="M32 750h150v-750h-150v750zM292 47q-59 55 -59 158v52h150v-52q0 -69 66 -69t66 69v545h150v-545q0 -103 -59 -158t-157 -55t-157 55z" />
    <glyph glyph-name="Iacute" unicode="&#xcd;" horiz-adv-x="214" 
d="M32 750h150v-750h-150v750zM83 950h167l-116 -135h-71z" />
    <glyph glyph-name="Icircumflex" unicode="&#xce;" horiz-adv-x="214" 
d="M32 750h150v-750h-150v750zM267 815h-102l-58 64l-58 -64h-102l91 135h138z" />
    <glyph glyph-name="Idieresis" unicode="&#xcf;" horiz-adv-x="214" 
d="M32 750h150v-750h-150v750zM149 818q-22 22 -22 57t22 57t57 22t57 -22t22 -57t-22 -57t-57 -22t-57 22zM-48.5 818q-22.5 22 -22.5 57t22.5 57t56.5 22q35 0 57 -22t22 -57t-22 -57t-57 -22q-34 0 -56.5 22z" />
    <glyph glyph-name="Idotaccent" unicode="&#x130;" horiz-adv-x="214" 
d="M32 750h150v-750h-150v750zM46 814q-24 24 -24 61t24 61t61 24q38 0 61.5 -23.5t23.5 -61.5q0 -37 -24 -61t-61 -24t-61 24z" />
    <glyph glyph-name="uni1ECA" unicode="&#x1eca;" horiz-adv-x="214" 
d="M32 750h150v-750h-150v750zM51.5 -168.5q-21.5 21.5 -21.5 55.5t21.5 55.5t55.5 21.5t55.5 -21.5t21.5 -55.5t-21.5 -55.5t-55.5 -21.5t-55.5 21.5z" />
    <glyph glyph-name="Igrave" unicode="&#xcc;" horiz-adv-x="214" 
d="M32 750h150v-750h-150v750zM70 815l-116 135h167l20 -135h-71z" />
    <glyph glyph-name="uni1EC8" unicode="&#x1ec8;" horiz-adv-x="214" 
d="M32 750h150v-750h-150v750zM112.5 866.5q11.5 6.5 11.5 19.5t-13.5 19t-44.5 6v83h15q143 0 143 -85q0 -63 -79 -75v-19h-69v44q25 1 36.5 7.5z" />
    <glyph glyph-name="Imacron" unicode="&#x12a;" horiz-adv-x="214" 
d="M32 750h150v-750h-150v750zM253 931v-110h-292v110h292z" />
    <glyph glyph-name="Iogonek" unicode="&#x12e;" horiz-adv-x="214" 
d="M32 750h150v-750q-39 -43 -39 -67q0 -13 9 -23t30 -10v-79l-27 -1q-69 0 -103.5 20.5t-34.5 57.5q0 57 98 102h-83v750z" />
    <glyph glyph-name="Itilde" unicode="&#x128;" horiz-adv-x="214" 
d="M32 750h150v-750h-150v750zM140 820.5q-24 7.5 -51 19.5q-31 14 -42 14q-12 0 -17.5 -7.5t-5.5 -30.5h-85q-1 9 -1 26q0 58 21.5 83t65.5 25q25 0 49 -7.5t51 -19.5q32 -14 42 -14q12 0 17.5 7.5t5.5 30.5h85q1 -9 1 -26q0 -58 -21.5 -83t-65.5 -25q-25 0 -49 7.5z" />
    <glyph glyph-name="J" unicode="J" horiz-adv-x="480" 
d="M78 47q-59 55 -59 158v52h150v-52q0 -69 66 -69t66 69v545h150v-545q0 -103 -59 -158t-157 -55t-157 55z" />
    <glyph glyph-name="uni004A0301" horiz-adv-x="480" 
d="M78 47q-59 55 -59 158v52h150v-52q0 -69 66 -69t66 69v545h150v-545q0 -103 -59 -158t-157 -55t-157 55zM355 950h167l-116 -135h-71z" />
    <glyph glyph-name="Jcircumflex" unicode="&#x134;" horiz-adv-x="480" 
d="M78 47q-59 55 -59 158v52h150v-52q0 -69 66 -69t66 69v545h150v-545q0 -103 -59 -158t-157 -55t-157 55zM539 815h-102l-58 64l-58 -64h-102l91 135h138z" />
    <glyph glyph-name="K" unicode="K" 
d="M32 750h150v-300l194 300h179l-234 -349l251 -401h-187l-203 341v-341h-150v750z" />
    <glyph glyph-name="uni0136" unicode="&#x136;" 
d="M32 750h150v-300l194 300h179l-234 -349l251 -401h-187l-203 341v-341h-150v750zM343 -150l-52 -116l-48 21l32 70q-26 3 -41 20.5t-15 44.5q0 29 19 48t48 19t48 -19t19 -48q0 -17 -10 -40z" />
    <glyph glyph-name="L" unicode="L" horiz-adv-x="449" 
d="M32 750h150v-610h261v-140h-411v750z" />
    <glyph glyph-name="Lacute" unicode="&#x139;" horiz-adv-x="449" 
d="M32 750h150v-610h261v-140h-411v750zM86 950h167l-116 -135h-71z" />
    <glyph glyph-name="Lcaron" unicode="&#x13d;" horiz-adv-x="449" 
d="M272 750h137l-55 -175h-82v175zM32 750h150v-610h261v-140h-411v750z" />
    <glyph glyph-name="uni013B" unicode="&#x13b;" horiz-adv-x="449" 
d="M32 750h150v-610h261v-140h-411v750zM290 -150l-52 -116l-48 21l32 70q-26 3 -41 20.5t-15 44.5q0 29 19 48t48 19t48 -19t19 -48q0 -17 -10 -40z" />
    <glyph glyph-name="Ldot" unicode="&#x13f;" horiz-adv-x="449" 
d="M32 750h150v-610h261v-140h-411v750zM271 317q-25 25 -25 65t25 65t65 25t65 -25t25 -65t-25 -65t-65 -25t-65 25z" />
    <glyph glyph-name="Lslash" unicode="&#x141;" horiz-adv-x="499" 
d="M24 397l58 20v333h150v-281l155 53v-157l-155 -53v-172h261v-140h-411v260l-58 -20v157z" />
    <glyph glyph-name="M" unicode="M" horiz-adv-x="708" 
d="M32 750h212l113 -410l113 410h206v-750h-151v469l-128 -469h-86l-128 469v-469h-151v750z" />
    <glyph glyph-name="N" unicode="N" horiz-adv-x="588" 
d="M32 750h134l240 -427v427h150v-750h-134l-240 427v-427h-150v750z" />
    <glyph glyph-name="Nacute" unicode="&#x143;" horiz-adv-x="588" 
d="M32 750h134l240 -427v427h150v-750h-134l-240 427v-427h-150v750zM270 950h167l-116 -135h-71z" />
    <glyph glyph-name="Ncaron" unicode="&#x147;" horiz-adv-x="588" 
d="M32 750h134l240 -427v427h150v-750h-134l-240 427v-427h-150v750zM134 950h102l58 -64l58 64h102l-91 -135h-138z" />
    <glyph glyph-name="uni0145" unicode="&#x145;" horiz-adv-x="588" 
d="M32 750h134l240 -427v427h150v-750h-134l-240 427v-427h-150v750zM351 -150l-52 -116l-48 21l32 70q-26 3 -41 20.5t-15 44.5q0 29 19 48t48 19t48 -19t19 -48q0 -17 -10 -40z" />
    <glyph glyph-name="uni019D" unicode="&#x19d;" horiz-adv-x="588" 
d="M-68 -181v137h36q33 0 48.5 13.5t15.5 43.5v737h134l240 -427v427h150v-750h-134l-240 427v-433q0 -182 -170 -182q-28 0 -80 7z" />
    <glyph glyph-name="Ntilde" unicode="&#xd1;" horiz-adv-x="588" 
d="M32 750h134l240 -427v427h150v-750h-134l-240 427v-427h-150v750zM327 820.5q-24 7.5 -51 19.5q-31 14 -42 14q-12 0 -17.5 -7.5t-5.5 -30.5h-85q-1 9 -1 26q0 58 21.5 83t65.5 25q25 0 49 -7.5t51 -19.5q32 -14 42 -14q12 0 17.5 7.5t5.5 30.5h85q1 -9 1 -26
q0 -58 -21.5 -83t-65.5 -25q-25 0 -49 7.5z" />
    <glyph glyph-name="Eng" unicode="&#x14a;" horiz-adv-x="588" 
d="M306 -181v137h36q33 0 48.5 13.5t15.5 43.5v15l-224 399v-427h-150v750h134l240 -427v427h150v-756q0 -182 -170 -182q-28 0 -80 7z" />
    <glyph glyph-name="O" unicode="O" 
d="M149.5 21q-58.5 31 -91.5 89t-33 137v256q0 79 33 137t91.5 89t134.5 31t134.5 -31t91.5 -89t33 -137v-256q0 -79 -33 -137t-91.5 -89t-134.5 -31t-134.5 31zM363 162q30 32 30 85v256q0 53 -30 85t-79 32t-79 -32t-30 -85v-256q0 -53 30 -85t79 -32t79 32z" />
    <glyph glyph-name="Oacute" unicode="&#xd3;" 
d="M149.5 21q-58.5 31 -91.5 89t-33 137v256q0 79 33 137t91.5 89t134.5 31t134.5 -31t91.5 -89t33 -137v-256q0 -79 -33 -137t-91.5 -89t-134.5 -31t-134.5 31zM363 162q30 32 30 85v256q0 53 -30 85t-79 32t-79 -32t-30 -85v-256q0 -53 30 -85t79 -32t79 32zM260 950h167
l-116 -135h-71z" />
    <glyph glyph-name="Ocircumflex" unicode="&#xd4;" 
d="M149.5 21q-58.5 31 -91.5 89t-33 137v256q0 79 33 137t91.5 89t134.5 31t134.5 -31t91.5 -89t33 -137v-256q0 -79 -33 -137t-91.5 -89t-134.5 -31t-134.5 31zM363 162q30 32 30 85v256q0 53 -30 85t-79 32t-79 -32t-30 -85v-256q0 -53 30 -85t79 -32t79 32zM444 815h-102
l-58 64l-58 -64h-102l91 135h138z" />
    <glyph glyph-name="uni1ED0" unicode="&#x1ed0;" 
d="M149.5 21q-58.5 31 -91.5 89t-33 137v256q0 79 33 137t91.5 89t134.5 31t134.5 -31t91.5 -89t33 -137v-256q0 -79 -33 -137t-91.5 -89t-134.5 -31t-134.5 31zM363 162q30 32 30 85v256q0 53 -30 85t-79 32t-79 -32t-30 -85v-256q0 -53 30 -85t79 -32t79 32zM215 950h138
l91 -135h-102l-58 64l-58 -64h-102zM406 1060h142l-99 -115h-60z" />
    <glyph glyph-name="uni1ED8" unicode="&#x1ed8;" 
d="M149.5 21q-58.5 31 -91.5 89t-33 137v256q0 79 33 137t91.5 89t134.5 31t134.5 -31t91.5 -89t33 -137v-256q0 -79 -33 -137t-91.5 -89t-134.5 -31t-134.5 31zM363 162q30 32 30 85v256q0 53 -30 85t-79 32t-79 -32t-30 -85v-256q0 -53 30 -85t79 -32t79 32zM228.5 -168.5
q-21.5 21.5 -21.5 55.5t21.5 55.5t55.5 21.5t55.5 -21.5t21.5 -55.5t-21.5 -55.5t-55.5 -21.5t-55.5 21.5zM444 815h-102l-58 64l-58 -64h-102l91 135h138z" />
    <glyph glyph-name="uni1ED2" unicode="&#x1ed2;" 
d="M149.5 21q-58.5 31 -91.5 89t-33 137v256q0 79 33 137t91.5 89t134.5 31t134.5 -31t91.5 -89t33 -137v-256q0 -79 -33 -137t-91.5 -89t-134.5 -31t-134.5 31zM363 162q30 32 30 85v256q0 53 -30 85t-79 32t-79 -32t-30 -85v-256q0 -53 30 -85t79 -32t79 32zM215 950h138
l91 -135h-102l-58 64l-58 -64h-102zM329 1060h142l17 -115h-61z" />
    <glyph glyph-name="uni1ED4" unicode="&#x1ed4;" 
d="M149.5 21q-58.5 31 -91.5 89t-33 137v256q0 79 33 137t91.5 89t134.5 31t134.5 -31t91.5 -89t33 -137v-256q0 -79 -33 -137t-91.5 -89t-134.5 -31t-134.5 31zM363 162q30 32 30 85v256q0 53 -30 85t-79 32t-79 -32t-30 -85v-256q0 -53 30 -85t79 -32t79 32zM215 950h138
l91 -135h-102l-58 64l-58 -64h-102zM443 978q11 6 11 19t-13.5 18.5t-42.5 5.5v79h14q138 0 138 -81q0 -62 -76 -72v-19h-66v43q24 1 35 7z" />
    <glyph glyph-name="uni1ED6" unicode="&#x1ed6;" 
d="M149.5 21q-58.5 31 -91.5 89t-33 137v256q0 79 33 137t91.5 89t134.5 31t134.5 -31t91.5 -89t33 -137v-256q0 -79 -33 -137t-91.5 -89t-134.5 -31t-134.5 31zM363 162q30 32 30 85v256q0 53 -30 85t-79 32t-79 -32t-30 -85v-256q0 -53 30 -85t79 -32t79 32zM444 815h-102
l-58 64l-58 -64h-102l91 135h138zM314.5 996q-21.5 7 -47.5 18q-30 13 -37 13q-11 0 -16 -7t-5 -28h-78q-1 8 -1 23q0 53 19.5 76t60.5 23q22 0 41 -6t49 -18q12 -5 22.5 -9t16.5 -4q11 0 16 6.5t5 27.5h77q1 -8 1 -23q0 -53 -19.5 -76t-59.5 -23q-23 0 -44.5 7z" />
    <glyph glyph-name="Odieresis" unicode="&#xd6;" 
d="M149.5 21q-58.5 31 -91.5 89t-33 137v256q0 79 33 137t91.5 89t134.5 31t134.5 -31t91.5 -89t33 -137v-256q0 -79 -33 -137t-91.5 -89t-134.5 -31t-134.5 31zM363 162q30 32 30 85v256q0 53 -30 85t-79 32t-79 -32t-30 -85v-256q0 -53 30 -85t79 -32t79 32zM326 818
q-22 22 -22 57t22 57t57 22t57 -22t22 -57t-22 -57t-57 -22t-57 22zM128.5 818q-22.5 22 -22.5 57t22.5 57t56.5 22q35 0 57 -22t22 -57t-22 -57t-57 -22q-34 0 -56.5 22z" />
    <glyph glyph-name="uni1ECC" unicode="&#x1ecc;" 
d="M149.5 21q-58.5 31 -91.5 89t-33 137v256q0 79 33 137t91.5 89t134.5 31t134.5 -31t91.5 -89t33 -137v-256q0 -79 -33 -137t-91.5 -89t-134.5 -31t-134.5 31zM363 162q30 32 30 85v256q0 53 -30 85t-79 32t-79 -32t-30 -85v-256q0 -53 30 -85t79 -32t79 32zM228.5 -168.5
q-21.5 21.5 -21.5 55.5t21.5 55.5t55.5 21.5t55.5 -21.5t21.5 -55.5t-21.5 -55.5t-55.5 -21.5t-55.5 21.5z" />
    <glyph glyph-name="Ograve" unicode="&#xd2;" 
d="M149.5 21q-58.5 31 -91.5 89t-33 137v256q0 79 33 137t91.5 89t134.5 31t134.5 -31t91.5 -89t33 -137v-256q0 -79 -33 -137t-91.5 -89t-134.5 -31t-134.5 31zM363 162q30 32 30 85v256q0 53 -30 85t-79 32t-79 -32t-30 -85v-256q0 -53 30 -85t79 -32t79 32zM247 815
l-116 135h167l20 -135h-71z" />
    <glyph glyph-name="uni1ECE" unicode="&#x1ece;" 
d="M149.5 21q-58.5 31 -91.5 89t-33 137v256q0 79 33 137t91.5 89t134.5 31t134.5 -31t91.5 -89t33 -137v-256q0 -79 -33 -137t-91.5 -89t-134.5 -31t-134.5 31zM363 162q30 32 30 85v256q0 53 -30 85t-79 32t-79 -32t-30 -85v-256q0 -53 30 -85t79 -32t79 32zM289.5 866.5
q11.5 6.5 11.5 19.5t-13.5 19t-44.5 6v83h15q143 0 143 -85q0 -63 -79 -75v-19h-69v44q25 1 36.5 7.5z" />
    <glyph glyph-name="Ohorn" unicode="&#x1a0;" 
d="M149.5 21q-58.5 31 -91.5 89t-33 137v256q0 79 33 137t91.5 89t134.5 31q22 0 60 -6q36 -6 52 -6q31 0 46.5 15t15.5 44q0 26 -11 62h112q13 -45 13 -79q0 -87 -94 -117q65 -56 65 -170v-256q0 -79 -33 -137t-91.5 -89t-134.5 -31t-134.5 31zM363 162q30 32 30 85v256
q0 53 -30 85t-79 32t-79 -32t-30 -85v-256q0 -53 30 -85t79 -32t79 32z" />
    <glyph glyph-name="uni1EDA" unicode="&#x1eda;" 
d="M149.5 21q-58.5 31 -91.5 89t-33 137v256q0 79 33 137t91.5 89t134.5 31q22 0 60 -6q36 -6 52 -6q31 0 46.5 15t15.5 44q0 26 -11 62h112q13 -45 13 -79q0 -87 -94 -117q65 -56 65 -170v-256q0 -79 -33 -137t-91.5 -89t-134.5 -31t-134.5 31zM363 162q30 32 30 85v256
q0 53 -30 85t-79 32t-79 -32t-30 -85v-256q0 -53 30 -85t79 -32t79 32zM260 950h167l-116 -135h-71z" />
    <glyph glyph-name="uni1EE2" unicode="&#x1ee2;" 
d="M149.5 21q-58.5 31 -91.5 89t-33 137v256q0 79 33 137t91.5 89t134.5 31q22 0 60 -6q36 -6 52 -6q31 0 46.5 15t15.5 44q0 26 -11 62h112q13 -45 13 -79q0 -87 -94 -117q65 -56 65 -170v-256q0 -79 -33 -137t-91.5 -89t-134.5 -31t-134.5 31zM363 162q30 32 30 85v256
q0 53 -30 85t-79 32t-79 -32t-30 -85v-256q0 -53 30 -85t79 -32t79 32zM228.5 -168.5q-21.5 21.5 -21.5 55.5t21.5 55.5t55.5 21.5t55.5 -21.5t21.5 -55.5t-21.5 -55.5t-55.5 -21.5t-55.5 21.5z" />
    <glyph glyph-name="uni1EDC" unicode="&#x1edc;" 
d="M149.5 21q-58.5 31 -91.5 89t-33 137v256q0 79 33 137t91.5 89t134.5 31q22 0 60 -6q36 -6 52 -6q31 0 46.5 15t15.5 44q0 26 -11 62h112q13 -45 13 -79q0 -87 -94 -117q65 -56 65 -170v-256q0 -79 -33 -137t-91.5 -89t-134.5 -31t-134.5 31zM363 162q30 32 30 85v256
q0 53 -30 85t-79 32t-79 -32t-30 -85v-256q0 -53 30 -85t79 -32t79 32zM247 815l-116 135h167l20 -135h-71z" />
    <glyph glyph-name="uni1EDE" unicode="&#x1ede;" 
d="M149.5 21q-58.5 31 -91.5 89t-33 137v256q0 79 33 137t91.5 89t134.5 31q22 0 60 -6q36 -6 52 -6q31 0 46.5 15t15.5 44q0 26 -11 62h112q13 -45 13 -79q0 -87 -94 -117q65 -56 65 -170v-256q0 -79 -33 -137t-91.5 -89t-134.5 -31t-134.5 31zM363 162q30 32 30 85v256
q0 53 -30 85t-79 32t-79 -32t-30 -85v-256q0 -53 30 -85t79 -32t79 32zM289.5 866.5q11.5 6.5 11.5 19.5t-13.5 19t-44.5 6v83h15q143 0 143 -85q0 -63 -79 -75v-19h-69v44q25 1 36.5 7.5z" />
    <glyph glyph-name="uni1EE0" unicode="&#x1ee0;" 
d="M149.5 21q-58.5 31 -91.5 89t-33 137v256q0 79 33 137t91.5 89t134.5 31q22 0 60 -6q36 -6 52 -6q31 0 46.5 15t15.5 44q0 26 -11 62h112q13 -45 13 -79q0 -87 -94 -117q65 -56 65 -170v-256q0 -79 -33 -137t-91.5 -89t-134.5 -31t-134.5 31zM363 162q30 32 30 85v256
q0 53 -30 85t-79 32t-79 -32t-30 -85v-256q0 -53 30 -85t79 -32t79 32zM317 820.5q-24 7.5 -51 19.5q-31 14 -42 14q-12 0 -17.5 -7.5t-5.5 -30.5h-85q-1 9 -1 26q0 58 21.5 83t65.5 25q25 0 49 -7.5t51 -19.5q32 -14 42 -14q12 0 17.5 7.5t5.5 30.5h85q1 -9 1 -26
q0 -58 -21.5 -83t-65.5 -25q-25 0 -49 7.5z" />
    <glyph glyph-name="Ohungarumlaut" unicode="&#x150;" 
d="M149.5 21q-58.5 31 -91.5 89t-33 137v256q0 79 33 137t91.5 89t134.5 31t134.5 -31t91.5 -89t33 -137v-256q0 -79 -33 -137t-91.5 -89t-134.5 -31t-134.5 31zM363 162q30 32 30 85v256q0 53 -30 85t-79 32t-79 -32t-30 -85v-256q0 -53 30 -85t79 -32t79 32zM338 950h167
l-116 -135h-71zM163 950h167l-116 -135h-71z" />
    <glyph glyph-name="Omacron" unicode="&#x14c;" 
d="M149.5 21q-58.5 31 -91.5 89t-33 137v256q0 79 33 137t91.5 89t134.5 31t134.5 -31t91.5 -89t33 -137v-256q0 -79 -33 -137t-91.5 -89t-134.5 -31t-134.5 31zM363 162q30 32 30 85v256q0 53 -30 85t-79 32t-79 -32t-30 -85v-256q0 -53 30 -85t79 -32t79 32zM430 931v-110
h-292v110h292z" />
    <glyph glyph-name="Oslash" unicode="&#xd8;" 
d="M86 71q-61 67 -61 176v256q0 79 33 137t91.5 89t134.5 31q69 0 122 -25l20 37h109l-50 -95q58 -69 58 -174v-256q0 -79 -33 -137t-91.5 -89t-134.5 -31q-66 0 -118 23l-23 -39h-109zM363 162q30 32 30 85v242l-162 -347q23 -12 53 -12q49 0 79 32zM339 607q-26 13 -55 13
q-49 0 -79 -32t-30 -85v-247z" />
    <glyph glyph-name="Otilde" unicode="&#xd5;" 
d="M149.5 21q-58.5 31 -91.5 89t-33 137v256q0 79 33 137t91.5 89t134.5 31t134.5 -31t91.5 -89t33 -137v-256q0 -79 -33 -137t-91.5 -89t-134.5 -31t-134.5 31zM363 162q30 32 30 85v256q0 53 -30 85t-79 32t-79 -32t-30 -85v-256q0 -53 30 -85t79 -32t79 32zM317 820.5
q-24 7.5 -51 19.5q-31 14 -42 14q-12 0 -17.5 -7.5t-5.5 -30.5h-85q-1 9 -1 26q0 58 21.5 83t65.5 25q25 0 49 -7.5t51 -19.5q32 -14 42 -14q12 0 17.5 7.5t5.5 30.5h85q1 -9 1 -26q0 -58 -21.5 -83t-65.5 -25q-25 0 -49 7.5z" />
    <glyph glyph-name="OE" unicode="&#x152;" horiz-adv-x="833" 
d="M149.5 31q-58.5 31 -91.5 89t-33 137v236q0 79 33 137t91.5 89t134.5 31h523v-140h-280v-156h237v-140h-237v-174h282v-140h-525q-76 0 -134.5 31zM377 140v470h-93q-49 0 -79 -32t-30 -85v-236q0 -53 30 -85t79 -32h93z" />
    <glyph glyph-name="P" unicode="P" horiz-adv-x="553" 
d="M32 750h253q114 0 179 -55t65 -178v-3q0 -123 -67 -178.5t-177 -55.5h-103v-280h-150v750zM378 514v2q0 45 -22.5 69.5t-64.5 24.5h-109v-190h109q87 0 87 94z" />
    <glyph glyph-name="Thorn" unicode="&#xde;" horiz-adv-x="553" 
d="M32 750h150v-120h103q114 0 179 -55t65 -178v-3q0 -123 -67 -178.5t-177 -55.5h-103v-160h-150v750zM378 394v2q0 45 -22.5 69.5t-64.5 24.5h-109v-190h109q87 0 87 94z" />
    <glyph glyph-name="Q" unicode="Q" 
d="M281 -142.5q-44 37.5 -44 121.5v14q-97 14 -154.5 81t-57.5 173v256q0 79 33 137t91.5 89t134.5 31t134.5 -31t91.5 -89t33 -137v-256q0 -105 -56.5 -171.5t-152.5 -81.5q1 -25 22 -33t61 -8h55v-133h-63q-84 0 -128 37.5zM363 162q30 32 30 85v256q0 53 -30 85t-79 32
t-79 -32t-30 -85v-256q0 -53 30 -85t79 -32t79 32z" />
    <glyph glyph-name="R" unicode="R" horiz-adv-x="574" 
d="M32 750h264q117 0 180.5 -52.5t63.5 -182.5v-10q0 -77 -28 -128t-78 -77l127 -300h-166l-107 270h-106v-270h-150v750zM389 505v10q0 95 -87 95h-120v-200h120q87 0 87 95z" />
    <glyph glyph-name="Racute" unicode="&#x154;" horiz-adv-x="574" 
d="M32 750h264q117 0 180.5 -52.5t63.5 -182.5v-10q0 -77 -28 -128t-78 -77l127 -300h-166l-107 270h-106v-270h-150v750zM389 505v10q0 95 -87 95h-120v-200h120q87 0 87 95zM263 950h167l-116 -135h-71z" />
    <glyph glyph-name="Rcaron" unicode="&#x158;" horiz-adv-x="574" 
d="M32 750h264q117 0 180.5 -52.5t63.5 -182.5v-10q0 -77 -28 -128t-78 -77l127 -300h-166l-107 270h-106v-270h-150v750zM389 505v10q0 95 -87 95h-120v-200h120q87 0 87 95zM127 950h102l58 -64l58 64h102l-91 -135h-138z" />
    <glyph glyph-name="uni0156" unicode="&#x156;" horiz-adv-x="574" 
d="M32 750h264q117 0 180.5 -52.5t63.5 -182.5v-10q0 -77 -28 -128t-78 -77l127 -300h-166l-107 270h-106v-270h-150v750zM389 505v10q0 95 -87 95h-120v-200h120q87 0 87 95zM344 -150l-52 -116l-48 21l32 70q-26 3 -41 20.5t-15 44.5q0 29 19 48t48 19t48 -19t19 -48
q0 -17 -10 -40z" />
    <glyph glyph-name="S" unicode="S" horiz-adv-x="563" 
d="M152.5 15q-61.5 25 -97 75.5t-35.5 123.5v36h150v-20q0 -48 32 -74t91 -26q50 0 75 21.5t25 60.5q0 37 -24.5 55t-87.5 37l-73 22q-57 17 -94.5 39t-60.5 62.5t-23 104.5q0 70 31 121.5t87.5 79t130.5 27.5q76 0 132.5 -27.5t87 -77.5t30.5 -117v-38h-150v29
q0 45 -28.5 68t-79.5 23q-44 0 -67.5 -20t-23.5 -57q0 -34 25 -50.5t82 -33.5l68 -20q54 -16 94 -38t67 -65.5t27 -113.5q0 -116 -69.5 -174t-182.5 -58q-77 0 -138.5 25z" />
    <glyph glyph-name="Sacute" unicode="&#x15a;" horiz-adv-x="563" 
d="M152.5 15q-61.5 25 -97 75.5t-35.5 123.5v36h150v-20q0 -48 32 -74t91 -26q50 0 75 21.5t25 60.5q0 37 -24.5 55t-87.5 37l-73 22q-57 17 -94.5 39t-60.5 62.5t-23 104.5q0 70 31 121.5t87.5 79t130.5 27.5q76 0 132.5 -27.5t87 -77.5t30.5 -117v-38h-150v29
q0 45 -28.5 68t-79.5 23q-44 0 -67.5 -20t-23.5 -57q0 -34 25 -50.5t82 -33.5l68 -20q54 -16 94 -38t67 -65.5t27 -113.5q0 -116 -69.5 -174t-182.5 -58q-77 0 -138.5 25zM258 950h167l-116 -135h-71z" />
    <glyph glyph-name="Scaron" unicode="&#x160;" horiz-adv-x="563" 
d="M152.5 15q-61.5 25 -97 75.5t-35.5 123.5v36h150v-20q0 -48 32 -74t91 -26q50 0 75 21.5t25 60.5q0 37 -24.5 55t-87.5 37l-73 22q-57 17 -94.5 39t-60.5 62.5t-23 104.5q0 70 31 121.5t87.5 79t130.5 27.5q76 0 132.5 -27.5t87 -77.5t30.5 -117v-38h-150v29
q0 45 -28.5 68t-79.5 23q-44 0 -67.5 -20t-23.5 -57q0 -34 25 -50.5t82 -33.5l68 -20q54 -16 94 -38t67 -65.5t27 -113.5q0 -116 -69.5 -174t-182.5 -58q-77 0 -138.5 25zM122 950h102l58 -64l58 64h102l-91 -135h-138z" />
    <glyph glyph-name="Scedilla" unicode="&#x15e;" horiz-adv-x="563" 
d="M152.5 15q-61.5 25 -97 75.5t-35.5 123.5v36h150v-20q0 -48 32 -74t91 -26q50 0 75 21.5t25 60.5q0 37 -24.5 55t-87.5 37l-73 22q-57 17 -94.5 39t-60.5 62.5t-23 104.5q0 70 31 121.5t87.5 79t130.5 27.5q76 0 132.5 -27.5t87 -77.5t30.5 -117v-38h-150v29
q0 45 -28.5 68t-79.5 23q-44 0 -67.5 -20t-23.5 -57q0 -34 25 -50.5t82 -33.5l68 -20q54 -16 94 -38t67 -65.5t27 -113.5q0 -116 -69.5 -174t-182.5 -58q-77 0 -138.5 25zM306 -200h-167l116 135h71z" />
    <glyph glyph-name="Scircumflex" unicode="&#x15c;" horiz-adv-x="563" 
d="M152.5 15q-61.5 25 -97 75.5t-35.5 123.5v36h150v-20q0 -48 32 -74t91 -26q50 0 75 21.5t25 60.5q0 37 -24.5 55t-87.5 37l-73 22q-57 17 -94.5 39t-60.5 62.5t-23 104.5q0 70 31 121.5t87.5 79t130.5 27.5q76 0 132.5 -27.5t87 -77.5t30.5 -117v-38h-150v29
q0 45 -28.5 68t-79.5 23q-44 0 -67.5 -20t-23.5 -57q0 -34 25 -50.5t82 -33.5l68 -20q54 -16 94 -38t67 -65.5t27 -113.5q0 -116 -69.5 -174t-182.5 -58q-77 0 -138.5 25zM442 815h-102l-58 64l-58 -64h-102l91 135h138z" />
    <glyph glyph-name="uni0218" unicode="&#x218;" horiz-adv-x="563" 
d="M152.5 15q-61.5 25 -97 75.5t-35.5 123.5v36h150v-20q0 -48 32 -74t91 -26q50 0 75 21.5t25 60.5q0 37 -24.5 55t-87.5 37l-73 22q-57 17 -94.5 39t-60.5 62.5t-23 104.5q0 70 31 121.5t87.5 79t130.5 27.5q76 0 132.5 -27.5t87 -77.5t30.5 -117v-38h-150v29
q0 45 -28.5 68t-79.5 23q-44 0 -67.5 -20t-23.5 -57q0 -34 25 -50.5t82 -33.5l68 -20q54 -16 94 -38t67 -65.5t27 -113.5q0 -116 -69.5 -174t-182.5 -58q-77 0 -138.5 25zM339 -150l-52 -116l-48 21l32 70q-26 3 -41 20.5t-15 44.5q0 29 19 48t48 19t48 -19t19 -48
q0 -17 -10 -40z" />
    <glyph glyph-name="uni1E9E" unicode="&#x1e9e;" horiz-adv-x="603" 
d="M390 152q41 25 41 72v3q0 40 -32.5 63.5t-87.5 23.5h-35v129h33q46 0 70.5 22t24.5 62v2q0 44 -29.5 67.5t-79.5 23.5q-28 0 -58.5 -7t-54.5 -21v-592h-150v693q63 33 134 50t129 17q77 0 136 -26t91 -73.5t32 -110.5v-2q0 -54 -23 -96t-64 -69q53 -25 83.5 -67
t30.5 -111v-3q0 -212 -305 -212v137q73 0 114 25z" />
    <glyph glyph-name="T" unicode="T" horiz-adv-x="512" 
d="M181 609h-175v140h500v-140h-175v-610h-150v610z" />
    <glyph glyph-name="Tbar" unicode="&#x166;" horiz-adv-x="512" 
d="M181 309h-71v110h71v190h-175v140h500v-140h-175v-190h71v-110h-71v-310h-150v310z" />
    <glyph glyph-name="Tcaron" unicode="&#x164;" horiz-adv-x="512" 
d="M181 609h-175v140h500v-140h-175v-610h-150v610zM96 950h102l58 -64l58 64h102l-91 -135h-138z" />
    <glyph glyph-name="uni0162" unicode="&#x162;" horiz-adv-x="512" 
d="M181 609h-175v140h500v-140h-175v-610h-150v610zM280 -200h-167l116 135h71z" />
    <glyph glyph-name="uni021A" unicode="&#x21a;" horiz-adv-x="512" 
d="M181 609h-175v140h500v-140h-175v-610h-150v610zM313 -150l-52 -116l-48 21l32 70q-26 3 -41 20.5t-15 44.5q0 29 19 48t48 19t48 -19t19 -48q0 -17 -10 -40z" />
    <glyph glyph-name="U" unicode="U" horiz-adv-x="576" 
d="M153.5 21q-58.5 31 -91.5 89t-33 137v503h150v-503q0 -53 30 -85t79 -32t79 32t30 85v503h150v-503q0 -79 -33 -137t-91.5 -89t-134.5 -31t-134.5 31z" />
    <glyph glyph-name="Uacute" unicode="&#xda;" horiz-adv-x="576" 
d="M153.5 21q-58.5 31 -91.5 89t-33 137v503h150v-503q0 -53 30 -85t79 -32t79 32t30 85v503h150v-503q0 -79 -33 -137t-91.5 -89t-134.5 -31t-134.5 31zM264 950h167l-116 -135h-71z" />
    <glyph glyph-name="Ubreve" unicode="&#x16c;" horiz-adv-x="576" 
d="M153.5 21q-58.5 31 -91.5 89t-33 137v503h150v-503q0 -53 30 -85t79 -32t79 32t30 85v503h150v-503q0 -79 -33 -137t-91.5 -89t-134.5 -31t-134.5 31zM175.5 853.5q-40.5 36.5 -35.5 96.5h88q-1 -23 16 -37t46 -14t45.5 14t15.5 37h84q5 -60 -35.5 -96.5t-111.5 -36.5
q-72 0 -112.5 36.5z" />
    <glyph glyph-name="Ucircumflex" unicode="&#xdb;" horiz-adv-x="576" 
d="M153.5 21q-58.5 31 -91.5 89t-33 137v503h150v-503q0 -53 30 -85t79 -32t79 32t30 85v503h150v-503q0 -79 -33 -137t-91.5 -89t-134.5 -31t-134.5 31zM448 815h-102l-58 64l-58 -64h-102l91 135h138z" />
    <glyph glyph-name="Udieresis" unicode="&#xdc;" horiz-adv-x="576" 
d="M153.5 21q-58.5 31 -91.5 89t-33 137v503h150v-503q0 -53 30 -85t79 -32t79 32t30 85v503h150v-503q0 -79 -33 -137t-91.5 -89t-134.5 -31t-134.5 31zM330 818q-22 22 -22 57t22 57t57 22t57 -22t22 -57t-22 -57t-57 -22t-57 22zM132.5 818q-22.5 22 -22.5 57t22.5 57
t56.5 22q35 0 57 -22t22 -57t-22 -57t-57 -22q-34 0 -56.5 22z" />
    <glyph glyph-name="uni1EE4" unicode="&#x1ee4;" horiz-adv-x="576" 
d="M153.5 21q-58.5 31 -91.5 89t-33 137v503h150v-503q0 -53 30 -85t79 -32t79 32t30 85v503h150v-503q0 -79 -33 -137t-91.5 -89t-134.5 -31t-134.5 31zM232.5 -168.5q-21.5 21.5 -21.5 55.5t21.5 55.5t55.5 21.5t55.5 -21.5t21.5 -55.5t-21.5 -55.5t-55.5 -21.5
t-55.5 21.5z" />
    <glyph glyph-name="Ugrave" unicode="&#xd9;" horiz-adv-x="576" 
d="M153.5 21q-58.5 31 -91.5 89t-33 137v503h150v-503q0 -53 30 -85t79 -32t79 32t30 85v503h150v-503q0 -79 -33 -137t-91.5 -89t-134.5 -31t-134.5 31zM251 815l-116 135h167l20 -135h-71z" />
    <glyph glyph-name="uni1EE6" unicode="&#x1ee6;" horiz-adv-x="576" 
d="M153.5 21q-58.5 31 -91.5 89t-33 137v503h150v-503q0 -53 30 -85t79 -32t79 32t30 85v503h150v-503q0 -79 -33 -137t-91.5 -89t-134.5 -31t-134.5 31zM293.5 866.5q11.5 6.5 11.5 19.5t-13.5 19t-44.5 6v83h15q143 0 143 -85q0 -63 -79 -75v-19h-69v44q25 1 36.5 7.5z
" />
    <glyph glyph-name="Uhorn" unicode="&#x1af;" horiz-adv-x="588" 
d="M153.5 21q-58.5 31 -91.5 89t-33 137v503h150v-503q0 -53 30 -85t79 -32t79 32t30 85v503h40q31 0 48 14.5t17 42.5q0 26 -11 62h112q13 -45 13 -79q0 -37 -17.5 -65.5t-51.5 -44.5v-433q0 -79 -33 -137t-91.5 -89t-134.5 -31t-134.5 31z" />
    <glyph glyph-name="uni1EE8" unicode="&#x1ee8;" horiz-adv-x="588" 
d="M153.5 21q-58.5 31 -91.5 89t-33 137v503h150v-503q0 -53 30 -85t79 -32t79 32t30 85v503h40q31 0 48 14.5t17 42.5q0 26 -11 62h112q13 -45 13 -79q0 -37 -17.5 -65.5t-51.5 -44.5v-433q0 -79 -33 -137t-91.5 -89t-134.5 -31t-134.5 31zM264 950h167l-116 -135h-71z" />
    <glyph glyph-name="uni1EF0" unicode="&#x1ef0;" horiz-adv-x="588" 
d="M153.5 21q-58.5 31 -91.5 89t-33 137v503h150v-503q0 -53 30 -85t79 -32t79 32t30 85v503h40q31 0 48 14.5t17 42.5q0 26 -11 62h112q13 -45 13 -79q0 -37 -17.5 -65.5t-51.5 -44.5v-433q0 -79 -33 -137t-91.5 -89t-134.5 -31t-134.5 31zM232.5 -168.5
q-21.5 21.5 -21.5 55.5t21.5 55.5t55.5 21.5t55.5 -21.5t21.5 -55.5t-21.5 -55.5t-55.5 -21.5t-55.5 21.5z" />
    <glyph glyph-name="uni1EEA" unicode="&#x1eea;" horiz-adv-x="588" 
d="M153.5 21q-58.5 31 -91.5 89t-33 137v503h150v-503q0 -53 30 -85t79 -32t79 32t30 85v503h40q31 0 48 14.5t17 42.5q0 26 -11 62h112q13 -45 13 -79q0 -37 -17.5 -65.5t-51.5 -44.5v-433q0 -79 -33 -137t-91.5 -89t-134.5 -31t-134.5 31zM251 815l-116 135h167l20 -135
h-71z" />
    <glyph glyph-name="uni1EEC" unicode="&#x1eec;" horiz-adv-x="588" 
d="M153.5 21q-58.5 31 -91.5 89t-33 137v503h150v-503q0 -53 30 -85t79 -32t79 32t30 85v503h40q31 0 48 14.5t17 42.5q0 26 -11 62h112q13 -45 13 -79q0 -37 -17.5 -65.5t-51.5 -44.5v-433q0 -79 -33 -137t-91.5 -89t-134.5 -31t-134.5 31zM293.5 866.5q11.5 6.5 11.5 19.5
t-13.5 19t-44.5 6v83h15q143 0 143 -85q0 -63 -79 -75v-19h-69v44q25 1 36.5 7.5z" />
    <glyph glyph-name="uni1EEE" unicode="&#x1eee;" horiz-adv-x="588" 
d="M153.5 21q-58.5 31 -91.5 89t-33 137v503h150v-503q0 -53 30 -85t79 -32t79 32t30 85v503h40q31 0 48 14.5t17 42.5q0 26 -11 62h112q13 -45 13 -79q0 -37 -17.5 -65.5t-51.5 -44.5v-433q0 -79 -33 -137t-91.5 -89t-134.5 -31t-134.5 31zM321 820.5q-24 7.5 -51 19.5
q-31 14 -42 14q-12 0 -17.5 -7.5t-5.5 -30.5h-85q-1 9 -1 26q0 58 21.5 83t65.5 25q25 0 49 -7.5t51 -19.5q32 -14 42 -14q12 0 17.5 7.5t5.5 30.5h85q1 -9 1 -26q0 -58 -21.5 -83t-65.5 -25q-25 0 -49 7.5z" />
    <glyph glyph-name="Uhungarumlaut" unicode="&#x170;" horiz-adv-x="576" 
d="M153.5 21q-58.5 31 -91.5 89t-33 137v503h150v-503q0 -53 30 -85t79 -32t79 32t30 85v503h150v-503q0 -79 -33 -137t-91.5 -89t-134.5 -31t-134.5 31zM342 950h167l-116 -135h-71zM167 950h167l-116 -135h-71z" />
    <glyph glyph-name="Umacron" unicode="&#x16a;" horiz-adv-x="576" 
d="M153.5 21q-58.5 31 -91.5 89t-33 137v503h150v-503q0 -53 30 -85t79 -32t79 32t30 85v503h150v-503q0 -79 -33 -137t-91.5 -89t-134.5 -31t-134.5 31zM434 931v-110h-292v110h292z" />
    <glyph glyph-name="Uogonek" unicode="&#x172;" horiz-adv-x="576" 
d="M343 -179q-69 0 -103.5 20.5t-34.5 57.5q0 51 76 91q-74 2 -131 33t-89 88.5t-32 135.5v503h150v-503q0 -53 30 -85t79 -32t79 32t30 85v503h150v-503q0 -96 -47.5 -160.5t-130.5 -86.5q-38 -42 -38 -66q0 -13 9 -23t30 -10v-79z" />
    <glyph glyph-name="Uring" unicode="&#x16e;" horiz-adv-x="576" 
d="M153.5 21q-58.5 31 -91.5 89t-33 137v503h150v-503q0 -53 30 -85t79 -32t79 32t30 85v503h150v-503q0 -79 -33 -137t-91.5 -89t-134.5 -31t-134.5 31zM213 825q-28 25 -28 66t28 66t75 25t75 -25t28 -66t-28 -66t-75 -25t-75 25zM314.5 869q10.5 9 10.5 22t-10.5 22
t-26.5 9t-26.5 -9t-10.5 -22t10.5 -22t26.5 -9t26.5 9z" />
    <glyph glyph-name="Utilde" unicode="&#x168;" horiz-adv-x="576" 
d="M153.5 21q-58.5 31 -91.5 89t-33 137v503h150v-503q0 -53 30 -85t79 -32t79 32t30 85v503h150v-503q0 -79 -33 -137t-91.5 -89t-134.5 -31t-134.5 31zM321 820.5q-24 7.5 -51 19.5q-31 14 -42 14q-12 0 -17.5 -7.5t-5.5 -30.5h-85q-1 9 -1 26q0 58 21.5 83t65.5 25
q25 0 49 -7.5t51 -19.5q32 -14 42 -14q12 0 17.5 7.5t5.5 30.5h85q1 -9 1 -26q0 -58 -21.5 -83t-65.5 -25q-25 0 -49 7.5z" />
    <glyph glyph-name="V" unicode="V" horiz-adv-x="565" 
d="M0 750h177l110 -561l112 561h166l-186 -750h-193z" />
    <glyph glyph-name="W" unicode="W" horiz-adv-x="768" 
d="M8 750h171l58 -498l64 498h174l63 -490l57 490h165l-137 -750h-175l-64 450l-63 -450h-175z" />
    <glyph glyph-name="Wacute" unicode="&#x1e82;" horiz-adv-x="768" 
d="M8 750h171l58 -498l64 498h174l63 -490l57 490h165l-137 -750h-175l-64 450l-63 -450h-175zM360 950h167l-116 -135h-71z" />
    <glyph glyph-name="Wcircumflex" unicode="&#x174;" horiz-adv-x="768" 
d="M8 750h171l58 -498l64 498h174l63 -490l57 490h165l-137 -750h-175l-64 450l-63 -450h-175zM544 815h-102l-58 64l-58 -64h-102l91 135h138z" />
    <glyph glyph-name="Wdieresis" unicode="&#x1e84;" horiz-adv-x="768" 
d="M8 750h171l58 -498l64 498h174l63 -490l57 490h165l-137 -750h-175l-64 450l-63 -450h-175zM426 818q-22 22 -22 57t22 57t57 22t57 -22t22 -57t-22 -57t-57 -22t-57 22zM228.5 818q-22.5 22 -22.5 57t22.5 57t56.5 22q35 0 57 -22t22 -57t-22 -57t-57 -22
q-34 0 -56.5 22z" />
    <glyph glyph-name="Wgrave" unicode="&#x1e80;" horiz-adv-x="768" 
d="M8 750h171l58 -498l64 498h174l63 -490l57 490h165l-137 -750h-175l-64 450l-63 -450h-175zM347 815l-116 135h167l20 -135h-71z" />
    <glyph glyph-name="X" unicode="X" horiz-adv-x="570" 
d="M184 380l-174 370h181l101 -244l101 244h167l-174 -370l179 -380h-181l-106 252l-106 -252h-167z" />
    <glyph glyph-name="Y" unicode="Y" horiz-adv-x="547" 
d="M198 253l-202 497h172l108 -305l109 305h166l-203 -497v-253h-150v253z" />
    <glyph glyph-name="Yacute" unicode="&#xdd;" horiz-adv-x="547" 
d="M198 253l-202 497h172l108 -305l109 305h166l-203 -497v-253h-150v253zM249 950h167l-116 -135h-71z" />
    <glyph glyph-name="Ycircumflex" unicode="&#x176;" horiz-adv-x="547" 
d="M198 253l-202 497h172l108 -305l109 305h166l-203 -497v-253h-150v253zM433 815h-102l-58 64l-58 -64h-102l91 135h138z" />
    <glyph glyph-name="Ydieresis" unicode="&#x178;" horiz-adv-x="547" 
d="M198 253l-202 497h172l108 -305l109 305h166l-203 -497v-253h-150v253zM315 818q-22 22 -22 57t22 57t57 22t57 -22t22 -57t-22 -57t-57 -22t-57 22zM117.5 818q-22.5 22 -22.5 57t22.5 57t56.5 22q35 0 57 -22t22 -57t-22 -57t-57 -22q-34 0 -56.5 22z" />
    <glyph glyph-name="uni1EF4" unicode="&#x1ef4;" horiz-adv-x="547" 
d="M198 253l-202 497h172l108 -305l109 305h166l-203 -497v-253h-150v253zM217.5 -168.5q-21.5 21.5 -21.5 55.5t21.5 55.5t55.5 21.5t55.5 -21.5t21.5 -55.5t-21.5 -55.5t-55.5 -21.5t-55.5 21.5z" />
    <glyph glyph-name="Ygrave" unicode="&#x1ef2;" horiz-adv-x="547" 
d="M198 253l-202 497h172l108 -305l109 305h166l-203 -497v-253h-150v253zM236 815l-116 135h167l20 -135h-71z" />
    <glyph glyph-name="uni1EF6" unicode="&#x1ef6;" horiz-adv-x="547" 
d="M198 253l-202 497h172l108 -305l109 305h166l-203 -497v-253h-150v253zM278.5 866.5q11.5 6.5 11.5 19.5t-13.5 19t-44.5 6v83h15q143 0 143 -85q0 -63 -79 -75v-19h-69v44q25 1 36.5 7.5z" />
    <glyph glyph-name="uni0232" unicode="&#x232;" horiz-adv-x="547" 
d="M198 253l-202 497h172l108 -305l109 305h166l-203 -497v-253h-150v253zM419 931v-110h-292v110h292z" />
    <glyph glyph-name="uni1EF8" unicode="&#x1ef8;" horiz-adv-x="547" 
d="M198 253l-202 497h172l108 -305l109 305h166l-203 -497v-253h-150v253zM306 820.5q-24 7.5 -51 19.5q-31 14 -42 14q-12 0 -17.5 -7.5t-5.5 -30.5h-85q-1 9 -1 26q0 58 21.5 83t65.5 25q25 0 49 -7.5t51 -19.5q32 -14 42 -14q12 0 17.5 7.5t5.5 30.5h85q1 -9 1 -26
q0 -58 -21.5 -83t-65.5 -25q-25 0 -49 7.5z" />
    <glyph glyph-name="Z" unicode="Z" horiz-adv-x="508" 
d="M22 105l275 505h-275v140h464v-105l-275 -505h275v-140h-464v105z" />
    <glyph glyph-name="Zacute" unicode="&#x179;" horiz-adv-x="508" 
d="M22 105l275 505h-275v140h464v-105l-275 -505h275v-140h-464v105zM230 950h167l-116 -135h-71z" />
    <glyph glyph-name="Zcaron" unicode="&#x17d;" horiz-adv-x="508" 
d="M22 105l275 505h-275v140h464v-105l-275 -505h275v-140h-464v105zM94 950h102l58 -64l58 64h102l-91 -135h-138z" />
    <glyph glyph-name="Zdotaccent" unicode="&#x17b;" horiz-adv-x="508" 
d="M22 105l275 505h-275v140h464v-105l-275 -505h275v-140h-464v105zM193 814q-24 24 -24 61t24 61t61 24q38 0 61.5 -23.5t23.5 -61.5q0 -37 -24 -61t-61 -24t-61 24z" />
    <glyph glyph-name="uniA78B" unicode="&#xa78b;" horiz-adv-x="214" 
d="M32 750h150v-498h-150v498z" />
    <glyph glyph-name="Cacute.loclPLK" 
d="M149.5 21q-58.5 31 -91.5 89t-33 137v260q0 78 33 135t91.5 87.5t134.5 30.5t134.5 -30.5t91.5 -87.5t33 -135v-50h-150v46q0 53 -30 85t-79 32t-79 -32t-30 -85v-256q0 -53 30 -85t79 -32t79 32t30 85v58h150v-58q0 -79 -33 -137t-91.5 -89t-134.5 -31t-134.5 31z
M240 950h167l-96 -135h-71v135z" />
    <glyph glyph-name="Nacute.loclPLK" horiz-adv-x="588" 
d="M32 750h134l240 -427v427h150v-750h-134l-240 427v-427h-150v750zM250 950h167l-96 -135h-71v135z" />
    <glyph glyph-name="Oacute.loclPLK" 
d="M149.5 21q-58.5 31 -91.5 89t-33 137v256q0 79 33 137t91.5 89t134.5 31t134.5 -31t91.5 -89t33 -137v-256q0 -79 -33 -137t-91.5 -89t-134.5 -31t-134.5 31zM363 162q30 32 30 85v256q0 53 -30 85t-79 32t-79 -32t-30 -85v-256q0 -53 30 -85t79 -32t79 32zM240 950h167
l-96 -135h-71v135z" />
    <glyph glyph-name="Sacute.loclPLK" horiz-adv-x="563" 
d="M152.5 15q-61.5 25 -97 75.5t-35.5 123.5v36h150v-20q0 -48 32 -74t91 -26q50 0 75 21.5t25 60.5q0 37 -24.5 55t-87.5 37l-73 22q-57 17 -94.5 39t-60.5 62.5t-23 104.5q0 70 31 121.5t87.5 79t130.5 27.5q76 0 132.5 -27.5t87 -77.5t30.5 -117v-38h-150v29
q0 45 -28.5 68t-79.5 23q-44 0 -67.5 -20t-23.5 -57q0 -34 25 -50.5t82 -33.5l68 -20q54 -16 94 -38t67 -65.5t27 -113.5q0 -116 -69.5 -174t-182.5 -58q-77 0 -138.5 25zM238 950h167l-96 -135h-71v135z" />
    <glyph glyph-name="Zacute.loclPLK" horiz-adv-x="508" 
d="M22 105l275 505h-275v140h464v-105l-275 -505h275v-140h-464v105zM210 950h167l-96 -135h-71v135z" />
    <glyph glyph-name="Aacute.ss01" horiz-adv-x="565" 
d="M186 750h39v-62h91l47 62h16l186 -750h-179l-20 101h-178l-20 -101h-168zM343 221l-65 332l-66 -332h131zM238 835h167l-96 -135h-71v135z" />
    <glyph glyph-name="Abreve.ss01" horiz-adv-x="565" 
d="M283 688q69 0 103 30l179 -718h-177l-20 101h-181l-21 -101h-166l179 720q33 -32 104 -32zM344 221l-66 340l-68 -340h134zM188.5 727.5q-32.5 27.5 -32.5 82.5q0 15 1 23h88q-5 -51 40 -51q44 0 39 51h84q1 -8 1 -23q0 -110 -126 -110q-62 0 -94.5 27.5z" />
    <glyph glyph-name="Acircumflex.ss01" horiz-adv-x="564" 
d="M170 688h79l33 45l33 -45h79l170 -688h-176l-21 101h-181l-21 -101h-165zM343 221l-66 341l-68 -341h134zM209 835h146l57 -135h-92l-38 52l-38 -52h-92z" />
    <glyph glyph-name="Adieresis.ss01" horiz-adv-x="566" 
d="M203 688q26 0 47.5 13t31.5 36h2q10 -23 31.5 -36t47.5 -13q14 0 32 5l171 -693h-178l-20 101h-182l-21 -101h-165l171 693q18 -5 32 -5zM344 221l-66 338l-68 -338h134zM147.5 721q-21.5 21 -21.5 55t21.5 55t54.5 21q34 0 55 -21t21 -55t-21 -55t-55 -21
q-33 0 -54.5 21zM309.5 721q-21.5 21 -21.5 55t21.5 55t54.5 21q34 0 55 -21t21 -55t-21 -55t-55 -21q-33 0 -54.5 21z" />
    <glyph glyph-name="Agrave.ss01" horiz-adv-x="565" 
d="M186 750h15l47 -62h91v62h40l186 -750h-177l-20 101h-182l-19 -101h-167zM344 221l-66 336l-68 -336h134zM159 835h167v-135h-71z" />
    <glyph glyph-name="Amacron.ss01" horiz-adv-x="565" 
d="M170 688h224l171 -688h-177l-20 101h-182l-20 -101h-166zM163 810h232v-110h-232v110zM345 221l-67 339l-68 -339h135z" />
    <glyph glyph-name="Aring.ss01" horiz-adv-x="565" 
d="M219.5 687q26.5 -18 62.5 -18q37 0 63 17.5t38 47.5l182 -734h-177l-20 101h-182l-19 -101h-167l181 734q12 -29 38.5 -47zM344 221l-66 340l-67 -340h133zM213 707q-26 26 -26 65t26 65t69 26t69 -26t26 -65t-26 -65t-69 -26t-69 26zM303 751.5q8 8.5 8 20.5t-8 20.5
t-21 8.5t-21 -8.5t-8 -20.5t8 -20.5t21 -8.5t21 8.5z" />
    <glyph glyph-name="Atilde.ss01" horiz-adv-x="565" 
d="M172 697h61v34h7q5 0 20 -10q22 -14 41.5 -22t45.5 -8q22 0 44 7l173 -698h-176l-20 101h-182l-20 -101h-166zM344 221l-66 340l-68 -340h134zM302.5 710.5q-18.5 7.5 -37.5 20.5q-20 13 -28 13q-16 0 -16 -33h-85q-1 9 -1 25q0 55 21.5 79.5t65.5 24.5q26 0 45 -8
t41 -22q7 -4 13 -7.5t10 -3.5q16 0 16 33h85q1 -9 1 -25q0 -55 -21.5 -79.5t-65.5 -24.5q-25 0 -43.5 7.5z" />
    <glyph glyph-name="Cacute.ss01" 
d="M149.5 23q-58.5 31 -91.5 89t-33 137v258q1 102 55.5 167t145.5 81v-67h91l47 62q82 -21 130.5 -84.5t48.5 -158.5v-50h-150v46q0 53 -30 85t-79 32t-79 -32t-30 -85v-254q0 -53 30 -85t79 -32t79 32t30 85v57h150v-57q0 -79 -33 -137t-91.5 -89t-134.5 -31t-134.5 31z
M239 835h167l-96 -135h-71v135z" />
    <glyph glyph-name="Ccaron.ss01" 
d="M149.5 23q-58.5 31 -91.5 89t-33 137v258q0 85 39.5 145.5t108.5 88.5l21 -53h180l20 53q69 -28 109 -88.5t40 -145.5v-50h-150v46q0 53 -30 85t-79 32t-79 -32t-30 -85v-254q0 -53 30 -85t79 -32t79 32t30 85v57h150v-57q0 -79 -33 -137t-91.5 -89t-134.5 -31t-134.5 31
zM154 835h92l38 -57l38 57h92l-52 -135h-156z" />
    <glyph glyph-name="Dcaron.ss01" horiz-adv-x="559" 
d="M32 750h116l24 -62h180l19 48q76 -25 119.5 -88.5t43.5 -154.5v-236q0 -79 -33 -137t-91.5 -89t-134.5 -31h-243v750zM354 172q30 32 30 85v236q0 53 -30 85t-79 32h-93v-470h93q49 0 79 32zM132 835h92l38 -57l38 57h92l-52 -135h-156z" />
    <glyph glyph-name="Eacute.ss01" horiz-adv-x="488" 
d="M32 750h171v-62h91l46 62h122v-140h-280v-156h237v-140h-237v-174h282v-140h-432v750zM216 835h167l-96 -135h-71v135z" />
    <glyph glyph-name="Ecaron.ss01" horiz-adv-x="488" 
d="M32 750h105l24 -62h180l24 62h97v-140h-280v-156h237v-140h-237v-174h282v-140h-432v750zM121 835h92l38 -57l38 57h92l-52 -135h-156z" />
    <glyph glyph-name="Ecircumflex.ss01" horiz-adv-x="488" 
d="M32 750h91l-28 -62h119l34 45l31 -45h120l-28 62h91v-140h-280v-156h237v-140h-237v-174h282v-140h-432v750zM174 835h146l57 -135h-92l-38 51l-38 -51h-92z" />
    <glyph glyph-name="Edieresis.ss01" horiz-adv-x="488" 
d="M32 750h51q8 -28 30.5 -45t54.5 -17q27 0 48 13.5t32 36.5q10 -23 31 -36.5t49 -13.5q31 0 53.5 16.5t30.5 45.5h51v-140h-281v-156h237v-140h-237v-174h282v-140h-432v750zM113 721q-21 21 -21 55t21 55t55 21q33 0 54 -21t21 -55t-21 -55t-54 -21q-34 0 -55 21z
M273 721q-21 21 -21 55t21 55t55 21q33 0 54 -21t21 -55t-21 -55t-54 -21q-34 0 -55 21z" />
    <glyph glyph-name="Edotaccent.ss01" horiz-adv-x="488" 
d="M32 750h133q8 -28 31.5 -45t54.5 -17t54 17t31 45h127v-140h-281v-156h237v-140h-237v-174h282v-140h-432v750zM198.5 724.5q-20.5 20.5 -20.5 52.5t20.5 52.5t52.5 20.5t52.5 -20.5t20.5 -52.5t-20.5 -52.5t-52.5 -20.5t-52.5 20.5z" />
    <glyph glyph-name="Egrave.ss01" horiz-adv-x="488" 
d="M32 750h146l46 -62h91v62h148v-140h-281v-156h237v-140h-237v-174h282v-140h-432v750zM135 835h167v-135h-71z" />
    <glyph glyph-name="Emacron.ss01" horiz-adv-x="488" 
d="M32 750h93v-62h257v62h81v-140h-281v-156h237v-140h-237v-174h282v-140h-432v750zM138 810h231v-110h-231v110z" />
    <glyph glyph-name="Gbreve.ss01" horiz-adv-x="594" 
d="M149.5 23q-58.5 31 -91.5 89t-33 137v258q1 85 39.5 144.5t105.5 87.5q32 -51 121 -51q84 0 117 46q63 -29 98.5 -87.5t36.5 -139.5v-27h-150v23q0 53 -30 85t-79 32t-79 -32t-30 -85v-254q0 -53 30 -85t79 -32t79 32t30 85v5h-96v140h286v-140h-40v-5q0 -79 -33 -137
t-91.5 -89t-134.5 -31t-134.5 31zM293 782q44 0 39 51h84q1 -8 1 -23q0 -110 -126 -110q-62 0 -94.5 27.5t-32.5 82.5q0 15 1 23h88q-5 -51 40 -51z" />
    <glyph glyph-name="Iacute.ss01" horiz-adv-x="214" 
d="M32 750h17v-62h91l42 56v-744h-150v750zM62 835h167l-96 -135h-71v135z" />
    <glyph glyph-name="Icircumflex.ss01" horiz-adv-x="214" 
d="M32 688h41l34 47l34 -47h41v-688h-150v688zM34 835h146l57 -135h-92l-38 52l-38 -52h-92z" />
    <glyph glyph-name="Idieresis.ss01" horiz-adv-x="214" 
d="M78.5 700.5q19.5 12.5 28.5 33.5q9 -21 29 -33.5t46 -12.5v-688h-150v688q27 0 46.5 12.5zM-30 721q-21 21 -21 55t21 55t55 21t55 -21t21 -55t-21 -55t-55 -21t-55 21zM134 721q-21 21 -21 55t21 55t55 21t55 -21t21 -55t-21 -55t-55 -21t-55 21z" />
    <glyph glyph-name="Idotaccent.ss01" horiz-adv-x="214" 
d="M62.5 696.5q19.5 -10.5 44.5 -10.5t44.5 10.5t30.5 29.5v-726h-150v726q11 -19 30.5 -29.5zM52.5 719q-21.5 21 -21.5 55t21.5 55t54.5 21t54.5 -21t21.5 -55t-21.5 -55t-54.5 -21t-54.5 21z" />
    <glyph glyph-name="Igrave.ss01" horiz-adv-x="214" 
d="M32 744l42 -56h91v62h17v-750h-150v744zM-15 835h167v-135h-71z" />
    <glyph glyph-name="Imacron.ss01" horiz-adv-x="214" 
d="M32 688h150v-688h-150v688zM-9 810h232v-110h-232v110z" />
    <glyph glyph-name="Lacute.ss01" horiz-adv-x="459" 
d="M32 750h14v-62h91l45 60v-608h271v-140h-421v750zM59 835h167l-101 -135h-66v135z" />
    <glyph glyph-name="Nacute.ss01" horiz-adv-x="588" 
d="M32 750h134l240 -427v427h150v-750h-134l-240 427v-427h-150v750zM253 835h167l-96 -135h-71v135z" />
    <glyph glyph-name="Ncaron.ss01" horiz-adv-x="588" 
d="M32 750h134l240 -427v427h150v-750h-134l-240 427v-427h-150v750zM164 834h92l38 -57l38 57h92l-52 -135h-156z" />
    <glyph glyph-name="Oacute.ss01" 
d="M149.5 21q-58.5 31 -91.5 89t-33 137v256q0 103 54.5 169.5t146.5 82.5v-67h91l47 63q83 -22 131 -87t48 -161v-256q0 -79 -33 -137t-91.5 -89t-134.5 -31t-134.5 31zM363 162q30 32 30 85v256q0 53 -30 85t-79 32t-79 -32t-30 -85v-256q0 -53 30 -85t79 -32t79 32z
M239 835h167l-96 -135h-71v135z" />
    <glyph glyph-name="Ocircumflex.ss01" 
d="M149.5 21q-58.5 31 -91.5 89t-33 137v256q0 116 69 185h143l45 58l47 -58h146q33 -34 50.5 -80.5t17.5 -104.5v-256q0 -79 -33 -137t-91.5 -89t-134.5 -31t-134.5 31zM363 162q30 32 30 85v256q0 53 -30 85t-79 32t-79 -32t-30 -85v-256q0 -53 30 -85t79 -32t79 32z
M200 835h163l67 -135h-92l-56 70l-57 -70h-92z" />
    <glyph glyph-name="Odieresis.ss01" 
d="M149.5 21q-58.5 31 -91.5 89t-33 137v256q0 74 28.5 129.5t80.5 88.5q11 -16 29.5 -24.5t40.5 -8.5q27 0 48 13.5t32 36.5q11 -23 32 -36.5t48 -13.5q22 0 40.5 8.5t29.5 24.5q52 -32 80.5 -88t28.5 -130v-256q0 -79 -33 -137t-91.5 -89t-134.5 -31t-134.5 31zM363 162
q30 32 30 85v256q0 53 -30 85t-79 32t-79 -32t-30 -85v-256q0 -53 30 -85t79 -32t79 32zM148 721q-21 21 -21 55t21 55t55 21t55 -21t21 -55t-21 -55t-55 -21t-55 21zM310 721q-21 21 -21 55t21 55t55 21t55 -21t21 -55t-21 -55t-55 -21t-55 21z" />
    <glyph glyph-name="Ograve.ss01" 
d="M149.5 21q-58.5 31 -91.5 89t-33 137v256q0 96 48 161t131 87l47 -63h91v67q92 -16 146.5 -82.5t54.5 -169.5v-256q0 -79 -33 -137t-91.5 -89t-134.5 -31t-134.5 31zM363 162q30 32 30 85v256q0 53 -30 85t-79 32t-79 -32t-30 -85v-256q0 -53 30 -85t79 -32t79 32z
M162 835h167v-135h-71z" />
    <glyph glyph-name="Ohungarumlaut.ss01" 
d="M149.5 21q-58.5 31 -91.5 89t-33 137v256q0 58 17.5 104.5t50.5 80.5h120l53 71q7 1 18 1q15 0 23 -1v-71h91l28 37q56 -32 86.5 -88.5t30.5 -133.5v-256q0 -79 -33 -137t-91.5 -89t-134.5 -31t-134.5 31zM363 162q30 32 30 85v256q0 53 -30 85t-79 32t-79 -32t-30 -85
v-256q0 -53 30 -85t79 -32t79 32zM135 835h167l-96 -135h-71v135zM320 835h167l-96 -135h-71v135z" />
    <glyph glyph-name="Omacron.ss01" 
d="M149.5 21q-58.5 31 -91.5 89t-33 137v256q0 115 68 185h382q68 -70 68 -185v-256q0 -79 -33 -137t-91.5 -89t-134.5 -31t-134.5 31zM363 162q30 32 30 85v256q0 53 -30 85t-79 32t-79 -32t-30 -85v-256q0 -53 30 -85t79 -32t79 32zM118 810h332v-110h-332v110z" />
    <glyph glyph-name="Otilde.ss01" 
d="M149.5 21q-58.5 31 -91.5 89t-33 137v256q0 58 17.5 104.5t50.5 80.5h135l-1 13q0 19 10 19q5 0 19 -9q22 -14 43.5 -22.5t53.5 -8.5q58 0 82 40q51 -32 79.5 -87.5t28.5 -129.5v-256q0 -79 -33 -137t-91.5 -89t-134.5 -31t-134.5 31zM363 162q30 32 30 85v256
q0 53 -30 85t-79 32t-79 -32t-30 -85v-256q0 -53 30 -85t79 -32t79 32zM302.5 700q-20.5 8 -41.5 21q-19 12 -27 12q-16 0 -16 -33h-95q-1 9 -1 25q0 55 23.5 79.5t73.5 24.5q26 0 45 -8t41 -22q7 -4 13 -7.5t10 -3.5q16 0 16 33h95q1 -9 1 -25q0 -55 -21.5 -79.5
t-65.5 -24.5q-30 0 -50.5 8z" />
    <glyph glyph-name="Racute.ss01" horiz-adv-x="574" 
d="M32 750h199v-62h91l43 58q85 -14 130 -68t45 -163v-10q0 -77 -28 -128t-78 -77l127 -300h-166l-107 270h-106v-270h-150v750zM389 505v10q0 95 -87 95h-120v-200h120q87 0 87 95zM244 835h167l-96 -135h-71v135z" />
    <glyph glyph-name="Rcaron.ss01" horiz-adv-x="573" 
d="M32 750h112l25 -63h180l22 57q81 -14 125 -68t44 -161v-10q0 -149 -106 -205l126 -300h-165l-107 270h-106v-270h-150v750zM389 505v10q0 95 -87 95h-120v-200h120q87 0 87 95zM129 834h92l38 -57l38 57h92l-52 -135h-156z" />
    <glyph glyph-name="Sacute.ss01" horiz-adv-x="563" 
d="M152.5 15q-61.5 25 -97 75.5t-35.5 123.5v36h150v-20q0 -48 32 -74t91 -26q50 0 75 21.5t25 60.5q0 37 -24.5 55t-87.5 37l-73 22q-57 17 -94.5 39t-60.5 62.5t-23 104.5q0 93 52 152t143 72v-68h91l45 63q78 -18 123 -74.5t45 -138.5v-38h-150v29q0 45 -28.5 68
t-79.5 23q-44 0 -67.5 -20t-23.5 -57q0 -34 25 -50.5t82 -33.5l68 -20q55 -16 94.5 -38t66.5 -65.5t27 -113.5q0 -116 -69.5 -174t-182.5 -58q-77 0 -138.5 25zM237 835h167l-96 -135h-71v135z" />
    <glyph glyph-name="Scaron.ss01" horiz-adv-x="563" 
d="M152.5 15q-61.5 25 -97 75.5t-35.5 123.5v36h150v-20q0 -48 32 -74t91 -26q50 0 75 21.5t25 60.5q0 37 -24.5 55t-87.5 37l-73 22q-57 17 -94.5 39t-60.5 62.5t-23 104.5q0 76 37 130.5t104 78.5l21 -54h180l20 53q66 -25 101.5 -77.5t35.5 -124.5v-38h-150v29
q0 45 -28.5 68t-79.5 23q-44 0 -67.5 -20t-23.5 -57q0 -34 25 -50.5t82 -33.5l68 -20q54 -16 94 -38t67 -65.5t27 -113.5q0 -116 -69.5 -174t-182.5 -58q-77 0 -138.5 25zM152 834h92l38 -57l38 57h92l-52 -135h-156z" />
    <glyph glyph-name="Tcaron.ss01" horiz-adv-x="512" 
d="M181 609h-175v140h132l24 -61h180l23 61h141v-140h-175v-610h-150v610zM122 835h92l38 -57l38 57h92l-52 -135h-156z" />
    <glyph glyph-name="Uacute.ss01" horiz-adv-x="576" 
d="M153.5 21q-58.5 31 -91.5 89t-33 137v503h150v-503q0 -53 30 -85t79 -32t79 32t30 85v503h150v-503q0 -79 -33 -137t-91.5 -89t-134.5 -31t-134.5 31zM243 835h167l-96 -135h-71v135z" />
    <glyph glyph-name="Ucircumflex.ss01" horiz-adv-x="576" 
d="M153.5 21q-58.5 31 -91.5 89t-33 137v503h128l-28 -66h50v-437q0 -53 30 -85t79 -32t79 32t30 85v437h44l-28 66h134v-503q0 -79 -33 -137t-91.5 -89t-134.5 -31t-134.5 31zM212 835h146l57 -135h-92l-38 52l-38 -52h-92z" />
    <glyph glyph-name="Udieresis.ss01" horiz-adv-x="576" 
d="M153.5 21q-58.5 31 -91.5 89t-33 137v503h81q7 -24 25 -41t44 -23v-439q0 -53 30 -85t79 -32t79 32t30 85v440q24 7 41 23.5t24 39.5h85v-503q0 -79 -33 -137t-91.5 -89t-134.5 -31t-134.5 31zM151.5 721q-21.5 21 -21.5 55t21.5 55t54.5 21q34 0 55 -21t21 -55t-21 -55
t-55 -21q-33 0 -54.5 21zM311.5 721q-21.5 21 -21.5 55t21.5 55t54.5 21q34 0 55 -21t21 -55t-21 -55t-55 -21q-33 0 -54.5 21z" />
    <glyph glyph-name="Ugrave.ss01" horiz-adv-x="576" 
d="M153.5 21q-58.5 31 -91.5 89t-33 137v503h150v-503q0 -53 30 -85t79 -32t79 32t30 85v503h150v-503q0 -79 -33 -137t-91.5 -89t-134.5 -31t-134.5 31zM166 835h167v-135h-71z" />
    <glyph glyph-name="Uhungarumlaut.ss01" horiz-adv-x="576" 
d="M153.5 21q-58.5 31 -91.5 89t-33 137v503h113v-62h37v-441q0 -53 30 -85t79 -32t79 32t30 85v440h10l48 63h92v-503q0 -79 -33 -137t-91.5 -89t-134.5 -31t-134.5 31zM155 835h167l-96 -135h-71v135zM330 835h167l-96 -135h-71v135z" />
    <glyph glyph-name="Umacron.ss01" horiz-adv-x="576" 
d="M153.5 21q-58.5 31 -91.5 89t-33 137v503h113v-31h37v-472q0 -53 30 -85t79 -32t79 32t30 85v472h37v31h113v-503q0 -79 -33 -137t-91.5 -89t-134.5 -31t-134.5 31zM152 841h272v-110h-272v110z" />
    <glyph glyph-name="Uring.ss01" horiz-adv-x="576" 
d="M153.5 21q-58.5 31 -91.5 89t-33 137v503h150v-503q0 -53 30 -85t79 -32t79 32t30 85v503h150v-503q0 -79 -33 -137t-91.5 -89t-134.5 -31t-134.5 31zM219 726q-26 26 -26 65t26 65t69 26t69 -26t26 -65t-26 -65t-69 -26t-69 26zM309 770.5q8 8.5 8 20.5t-8 20.5t-21 8.5
t-21 -8.5t-8 -20.5t8 -20.5t21 -8.5t21 8.5z" />
    <glyph glyph-name="Yacute.ss01" horiz-adv-x="547" 
d="M198 253l-202 497h172l108 -305l109 305h166l-203 -497v-253h-150v253zM229 835h167l-96 -135h-71v135z" />
    <glyph glyph-name="Ydieresis.ss01" horiz-adv-x="547" 
d="M198 253l-202 497h107q9 -34 30.5 -51t57.5 -14l85 -240l86 240q71 -6 89 65h100l-203 -497v-253h-150v253zM142.5 721q-21.5 21 -21.5 55t21.5 55t54.5 21q34 0 55 -21t21 -55t-21 -55t-55 -21q-33 0 -54.5 21zM302.5 721q-21.5 21 -21.5 55t21.5 55t54.5 21
q34 0 55 -21t21 -55t-21 -55t-55 -21q-33 0 -54.5 21z" />
    <glyph glyph-name="Zacute.ss01" horiz-adv-x="508" 
d="M22 105l276 505h-276v140h171v-62h91l47 62h155v-105l-275 -505h275v-140h-464v105zM206 835h167l-96 -135h-71v135z" />
    <glyph glyph-name="Zcaron.ss01" horiz-adv-x="508" 
d="M22 105l276 505h-276v140h115l25 -63h180l24 63h120v-105l-275 -505h275v-140h-464v105zM122 834h92l38 -57l38 57h92l-52 -135h-156z" />
    <glyph glyph-name="Zdotaccent.ss01" horiz-adv-x="508" 
d="M22 105l275 505h-275v140h145q7 -29 31 -45.5t56 -16.5t56 16.5t31 45.5h145v-105l-275 -505h275v-140h-464v105zM199 721q-21 21 -21 55t21.5 55t54.5 21q34 0 55 -21t21 -55t-21 -55t-55 -21t-55 21z" />
    <glyph glyph-name="Aacute.ss03" 
d="M79.5 672.5q54.5 66.5 146.5 82.5v-67h91l47 63q83 -22 131 -87t48 -161v-503h-150v211h-218v-211h-150v503q0 103 54.5 169.5zM239 835h167l-96 -135h-71v135zM393 331v172q0 53 -30 85t-79 32t-79 -32t-30 -85v-172h218z" />
    <glyph glyph-name="Abreve.ss03" 
d="M62 647.5q37 60.5 103 89.5q32 -49 119 -49q88 0 119 48q66 -28 103 -88.5t37 -144.5v-503h-150v211h-218v-211h-150v503q0 84 37 144.5zM393 331v172q0 53 -30 85t-79 32t-79 -32t-30 -85v-172h218zM189.5 727.5q-32.5 27.5 -32.5 82.5q0 15 1 23h88q-5 -51 40 -51
q44 0 39 51h84q1 -8 1 -23q0 -110 -126 -110q-62 0 -94.5 27.5z" />
    <glyph glyph-name="Acircumflex.ss03" 
d="M94 688h143l45 58l47 -58h146q33 -34 50.5 -80.5t17.5 -104.5v-503h-150v211h-218v-211h-150v503q0 116 69 185zM200 835h163l67 -135h-92l-56 70l-57 -70h-92zM393 331v172q0 53 -30 85t-79 32t-79 -32t-30 -85v-172h218z" />
    <glyph glyph-name="Adieresis.ss03" 
d="M53.5 631.5q28.5 55.5 79.5 88.5q11 -15 30 -23.5t41 -8.5q27 0 48 13.5t32 36.5q11 -23 32 -36.5t48 -13.5q21 0 40.5 9t30.5 23q51 -32 79.5 -88t28.5 -129v-503h-150v211h-218v-211h-150v503q0 73 28.5 128.5zM147.5 721q-21.5 21 -21.5 55t21.5 55t54.5 21t54.5 -21
t21.5 -55t-21.5 -55t-54.5 -21t-54.5 21zM311.5 721q-21.5 21 -21.5 55t21.5 55t54.5 21t54.5 -21t21.5 -55t-21.5 -55t-54.5 -21t-54.5 21zM393 331v172q0 53 -30 85t-79 32t-79 -32t-30 -85v-172h218z" />
    <glyph glyph-name="Agrave.ss03" 
d="M73 664q48 65 131 87l47 -63h91v67q92 -16 146.5 -82.5t54.5 -169.5v-503h-150v211h-218v-211h-150v503q0 96 48 161zM162 835h167v-135h-71zM393 331v172q0 53 -30 85t-79 32t-79 -32t-30 -85v-172h218z" />
    <glyph glyph-name="Amacron.ss03" 
d="M93 688h382q68 -70 68 -185v-503h-150v211h-218v-211h-150v503q0 115 68 185zM393 331v172q0 53 -30 85t-79 32t-79 -32t-30 -85v-172h218zM118 810h332v-110h-332v110z" />
    <glyph glyph-name="Aring.ss03" 
d="M67 655.5q42 62.5 115 87.5q8 -33 35.5 -53.5t67.5 -20.5q39 0 66.5 20t37.5 53q72 -27 113 -88.5t41 -150.5v-503h-150v211h-218v-211h-150v503q0 90 42 152.5zM216 707q-26 26 -26 65t26 65t69 26t69 -26t26 -65t-26 -65t-69 -26t-69 26zM306 751.5q8 8.5 8 20.5
t-8 20.5t-21 8.5t-21 -8.5t-8 -20.5t8 -20.5t21 -8.5t21 8.5zM393 331v172q0 53 -30 85t-79 32t-79 -32t-30 -85v-172h218z" />
    <glyph glyph-name="Atilde.ss03" 
d="M42.5 607.5q17.5 46.5 50.5 80.5h135l-1 13q0 19 10 19q5 0 19 -9q22 -14 43.5 -22.5t53.5 -8.5q58 0 82 40q51 -32 79.5 -87.5t28.5 -129.5v-503h-150v211h-218v-211h-150v503q0 58 17.5 104.5zM302.5 700q-20.5 8 -41.5 21q-19 12 -27 12q-16 0 -16 -33h-95q-1 9 -1 25
q0 55 23.5 79.5t73.5 24.5q26 0 45 -8t41 -22q7 -4 13 -7.5t10 -3.5q16 0 16 33h95q1 -9 1 -25q0 -55 -21.5 -79.5t-65.5 -24.5q-30 0 -50.5 8zM393 331v172q0 53 -30 85t-79 32t-79 -32t-30 -85v-172h218z" />
    <glyph glyph-name="C.ss04" horiz-adv-x="780" 
d="M197.5 40.5q-88.5 50.5 -139 139t-50.5 195.5t50.5 195.5t139 139t195.5 50.5q97 0 178.5 -41.5t134.5 -115.5t67 -167h-152q-18 83 -78.5 133.5t-149.5 50.5q-69 0 -122.5 -31.5t-82.5 -87.5t-29 -126t29 -126t82.5 -87.5t122.5 -31.5q89 0 149.5 50.5t78.5 133.5h152
q-14 -93 -67 -167t-134.5 -115.5t-178.5 -41.5q-107 0 -195.5 50.5z" />
    <glyph glyph-name="Cacute.ss04" horiz-adv-x="780" 
d="M197.5 40.5q-88.5 50.5 -139 139t-50.5 195.5t50.5 195.5t139 139t195.5 50.5q97 0 178.5 -41.5t134.5 -115.5t67 -167h-152q-18 83 -78.5 133.5t-149.5 50.5q-69 0 -122.5 -31.5t-82.5 -87.5t-29 -126t29 -126t82.5 -87.5t122.5 -31.5q89 0 149.5 50.5t78.5 133.5h152
q-14 -93 -67 -167t-134.5 -115.5t-178.5 -41.5q-107 0 -195.5 50.5zM366 950h167l-116 -135h-71z" />
    <glyph glyph-name="Ccaron.ss04" horiz-adv-x="780" 
d="M197.5 40.5q-88.5 50.5 -139 139t-50.5 195.5t50.5 195.5t139 139t195.5 50.5q97 0 178.5 -41.5t134.5 -115.5t67 -167h-152q-18 83 -78.5 133.5t-149.5 50.5q-69 0 -122.5 -31.5t-82.5 -87.5t-29 -126t29 -126t82.5 -87.5t122.5 -31.5q89 0 149.5 50.5t78.5 133.5h152
q-14 -93 -67 -167t-134.5 -115.5t-178.5 -41.5q-107 0 -195.5 50.5zM230 950h102l58 -64l58 64h102l-91 -135h-138z" />
    <glyph glyph-name="Ccedilla.ss04" horiz-adv-x="780" 
d="M197.5 40.5q-88.5 50.5 -139 139t-50.5 195.5t50.5 195.5t139 139t195.5 50.5q97 0 178.5 -41.5t134.5 -115.5t67 -167h-152q-18 83 -78.5 133.5t-149.5 50.5q-69 0 -122.5 -31.5t-82.5 -87.5t-29 -126t29 -126t82.5 -87.5t122.5 -31.5q89 0 149.5 50.5t78.5 133.5h152
q-14 -93 -67 -167t-134.5 -115.5t-178.5 -41.5q-107 0 -195.5 50.5zM414 -200h-167l116 135h71z" />
    <glyph glyph-name="Ccircumflex.ss04" horiz-adv-x="780" 
d="M197.5 40.5q-88.5 50.5 -139 139t-50.5 195.5t50.5 195.5t139 139t195.5 50.5q97 0 178.5 -41.5t134.5 -115.5t67 -167h-152q-18 83 -78.5 133.5t-149.5 50.5q-69 0 -122.5 -31.5t-82.5 -87.5t-29 -126t29 -126t82.5 -87.5t122.5 -31.5q89 0 149.5 50.5t78.5 133.5h152
q-14 -93 -67 -167t-134.5 -115.5t-178.5 -41.5q-107 0 -195.5 50.5zM550 815h-102l-58 64l-58 -64h-102l91 135h138z" />
    <glyph glyph-name="Cdotaccent.ss04" horiz-adv-x="780" 
d="M197.5 40.5q-88.5 50.5 -139 139t-50.5 195.5t50.5 195.5t139 139t195.5 50.5q97 0 178.5 -41.5t134.5 -115.5t67 -167h-152q-18 83 -78.5 133.5t-149.5 50.5q-69 0 -122.5 -31.5t-82.5 -87.5t-29 -126t29 -126t82.5 -87.5t122.5 -31.5q89 0 149.5 50.5t78.5 133.5h152
q-14 -93 -67 -167t-134.5 -115.5t-178.5 -41.5q-107 0 -195.5 50.5zM329 814q-24 24 -24 61t24 61t61 24q38 0 61.5 -23.5t23.5 -61.5q0 -37 -24 -61t-61 -24t-61 24z" />
    <glyph glyph-name="D.ss04" horiz-adv-x="706" 
d="M32 0v750h282q108 0 196 -49t138 -135t50 -191t-50 -191t-138 -135t-196 -49h-282zM182 610v-470h132q66 0 119 30.5t83.5 84.5t30.5 120t-30.5 120t-83.5 84.5t-119 30.5h-132z" />
    <glyph glyph-name="Dcaron.ss04" horiz-adv-x="706" 
d="M32 0v750h282q108 0 196 -49t138 -135t50 -191t-50 -191t-138 -135t-196 -49h-282zM182 610v-470h132q66 0 119 30.5t83.5 84.5t30.5 120t-30.5 120t-83.5 84.5t-119 30.5h-132zM150 950h102l58 -64l58 64h102l-91 -135h-138z" />
    <glyph glyph-name="Dcroat.ss04" horiz-adv-x="726" 
d="M52 0v320h-52v110h52v320h282q108 0 196 -49t138 -135t50 -191t-50 -191t-138 -135t-196 -49h-282zM202 610v-180h166v-110h-166v-180h132q66 0 119 30.5t83.5 84.5t30.5 120t-30.5 120t-83.5 84.5t-119 30.5h-132z" />
    <glyph glyph-name="Eth.ss04" horiz-adv-x="726" 
d="M52 0v320h-52v110h52v320h282q108 0 196 -49t138 -135t50 -191t-50 -191t-138 -135t-196 -49h-282zM202 610v-180h166v-110h-166v-180h132q66 0 119 30.5t83.5 84.5t30.5 120t-30.5 120t-83.5 84.5t-119 30.5h-132z" />
    <glyph glyph-name="G.ss04" horiz-adv-x="820" 
d="M197.5 40.5q-88.5 50.5 -139 139t-50.5 195.5t50.5 195.5t139 139t195.5 50.5q92 0 170.5 -37.5t132 -104t72.5 -152.5h-158q-21 71 -79 113.5t-138 42.5q-69 0 -122.5 -32t-82.5 -88.5t-29 -126.5t29 -126.5t82.5 -88.5t122.5 -32q75 0 127.5 32.5t80.5 91.5h-134v123
h344v-123h-62q-35 -119 -128.5 -190.5t-227.5 -71.5q-107 0 -195.5 50.5z" />
    <glyph glyph-name="Gbreve.ss04" horiz-adv-x="820" 
d="M197.5 40.5q-88.5 50.5 -139 139t-50.5 195.5t50.5 195.5t139 139t195.5 50.5q92 0 170.5 -37.5t132 -104t72.5 -152.5h-158q-21 71 -79 113.5t-138 42.5q-69 0 -122.5 -32t-82.5 -88.5t-29 -126.5t29 -126.5t82.5 -88.5t122.5 -32q75 0 127.5 32.5t80.5 91.5h-134v123
h344v-123h-62q-35 -119 -128.5 -190.5t-227.5 -71.5q-107 0 -195.5 50.5zM277.5 853.5q-40.5 36.5 -35.5 96.5h88q-1 -23 16 -37t46 -14t45.5 14t15.5 37h84q5 -60 -35.5 -96.5t-111.5 -36.5q-72 0 -112.5 36.5z" />
    <glyph glyph-name="Gcaron.ss04" horiz-adv-x="820" 
d="M197.5 40.5q-88.5 50.5 -139 139t-50.5 195.5t50.5 195.5t139 139t195.5 50.5q92 0 170.5 -37.5t132 -104t72.5 -152.5h-158q-21 71 -79 113.5t-138 42.5q-69 0 -122.5 -32t-82.5 -88.5t-29 -126.5t29 -126.5t82.5 -88.5t122.5 -32q75 0 127.5 32.5t80.5 91.5h-134v123
h344v-123h-62q-35 -119 -128.5 -190.5t-227.5 -71.5q-107 0 -195.5 50.5zM230 950h102l58 -64l58 64h102l-91 -135h-138z" />
    <glyph glyph-name="Gcircumflex.ss04" horiz-adv-x="820" 
d="M197.5 40.5q-88.5 50.5 -139 139t-50.5 195.5t50.5 195.5t139 139t195.5 50.5q92 0 170.5 -37.5t132 -104t72.5 -152.5h-158q-21 71 -79 113.5t-138 42.5q-69 0 -122.5 -32t-82.5 -88.5t-29 -126.5t29 -126.5t82.5 -88.5t122.5 -32q75 0 127.5 32.5t80.5 91.5h-134v123
h344v-123h-62q-35 -119 -128.5 -190.5t-227.5 -71.5q-107 0 -195.5 50.5zM550 815h-102l-58 64l-58 -64h-102l91 135h138z" />
    <glyph glyph-name="uni0122.ss04" horiz-adv-x="820" 
d="M197.5 40.5q-88.5 50.5 -139 139t-50.5 195.5t50.5 195.5t139 139t195.5 50.5q92 0 170.5 -37.5t132 -104t72.5 -152.5h-158q-21 71 -79 113.5t-138 42.5q-69 0 -122.5 -32t-82.5 -88.5t-29 -126.5t29 -126.5t82.5 -88.5t122.5 -32q75 0 127.5 32.5t80.5 91.5h-134v123
h344v-123h-62q-35 -119 -128.5 -190.5t-227.5 -71.5q-107 0 -195.5 50.5zM447 -150l-52 -116l-48 21l32 70q-26 3 -41 20.5t-15 44.5q0 29 19 48t48 19t48 -19t19 -48q0 -17 -10 -40z" />
    <glyph glyph-name="Gdotaccent.ss04" horiz-adv-x="820" 
d="M197.5 40.5q-88.5 50.5 -139 139t-50.5 195.5t50.5 195.5t139 139t195.5 50.5q92 0 170.5 -37.5t132 -104t72.5 -152.5h-158q-21 71 -79 113.5t-138 42.5q-69 0 -122.5 -32t-82.5 -88.5t-29 -126.5t29 -126.5t82.5 -88.5t122.5 -32q75 0 127.5 32.5t80.5 91.5h-134v123
h344v-123h-62q-35 -119 -128.5 -190.5t-227.5 -71.5q-107 0 -195.5 50.5zM329 814q-24 24 -24 61t24 61t61 24q38 0 61.5 -23.5t23.5 -61.5q0 -37 -24 -61t-61 -24t-61 24z" />
    <glyph glyph-name="uni1E20.ss04" horiz-adv-x="820" 
d="M197.5 40.5q-88.5 50.5 -139 139t-50.5 195.5t50.5 195.5t139 139t195.5 50.5q92 0 170.5 -37.5t132 -104t72.5 -152.5h-158q-21 71 -79 113.5t-138 42.5q-69 0 -122.5 -32t-82.5 -88.5t-29 -126.5t29 -126.5t82.5 -88.5t122.5 -32q75 0 127.5 32.5t80.5 91.5h-134v123
h344v-123h-62q-35 -119 -128.5 -190.5t-227.5 -71.5q-107 0 -195.5 50.5zM536 931v-110h-292v110h292z" />
    <glyph glyph-name="O.ss04" horiz-adv-x="786" 
d="M197.5 40.5q-88.5 50.5 -139 139t-50.5 195.5t50.5 195.5t139 139t195.5 50.5t195.5 -50.5t139 -139t50.5 -195.5t-50.5 -195.5t-139 -139t-195.5 -50.5t-195.5 50.5zM515.5 161.5q53.5 31.5 82.5 87.5t29 126t-29 126t-82.5 87.5t-122.5 31.5t-122.5 -31.5t-82.5 -87.5
t-29 -126t29 -126t82.5 -87.5t122.5 -31.5t122.5 31.5z" />
    <glyph glyph-name="Oacute.ss04" horiz-adv-x="786" 
d="M197.5 40.5q-88.5 50.5 -139 139t-50.5 195.5t50.5 195.5t139 139t195.5 50.5t195.5 -50.5t139 -139t50.5 -195.5t-50.5 -195.5t-139 -139t-195.5 -50.5t-195.5 50.5zM515.5 161.5q53.5 31.5 82.5 87.5t29 126t-29 126t-82.5 87.5t-122.5 31.5t-122.5 -31.5t-82.5 -87.5
t-29 -126t29 -126t82.5 -87.5t122.5 -31.5t122.5 31.5zM369 950h167l-116 -135h-71z" />
    <glyph glyph-name="Ocircumflex.ss04" horiz-adv-x="786" 
d="M197.5 40.5q-88.5 50.5 -139 139t-50.5 195.5t50.5 195.5t139 139t195.5 50.5t195.5 -50.5t139 -139t50.5 -195.5t-50.5 -195.5t-139 -139t-195.5 -50.5t-195.5 50.5zM515.5 161.5q53.5 31.5 82.5 87.5t29 126t-29 126t-82.5 87.5t-122.5 31.5t-122.5 -31.5t-82.5 -87.5
t-29 -126t29 -126t82.5 -87.5t122.5 -31.5t122.5 31.5zM553 815h-102l-58 64l-58 -64h-102l91 135h138z" />
    <glyph glyph-name="uni1ED0.ss04" horiz-adv-x="786" 
d="M197.5 40.5q-88.5 50.5 -139 139t-50.5 195.5t50.5 195.5t139 139t195.5 50.5t195.5 -50.5t139 -139t50.5 -195.5t-50.5 -195.5t-139 -139t-195.5 -50.5t-195.5 50.5zM515.5 161.5q53.5 31.5 82.5 87.5t29 126t-29 126t-82.5 87.5t-122.5 31.5t-122.5 -31.5t-82.5 -87.5
t-29 -126t29 -126t82.5 -87.5t122.5 -31.5t122.5 31.5zM324 950h138l91 -135h-102l-58 64l-58 -64h-102zM515 1060h142l-99 -115h-60z" />
    <glyph glyph-name="uni1ED8.ss04" horiz-adv-x="786" 
d="M197.5 40.5q-88.5 50.5 -139 139t-50.5 195.5t50.5 195.5t139 139t195.5 50.5t195.5 -50.5t139 -139t50.5 -195.5t-50.5 -195.5t-139 -139t-195.5 -50.5t-195.5 50.5zM515.5 161.5q53.5 31.5 82.5 87.5t29 126t-29 126t-82.5 87.5t-122.5 31.5t-122.5 -31.5t-82.5 -87.5
t-29 -126t29 -126t82.5 -87.5t122.5 -31.5t122.5 31.5zM337.5 -168.5q-21.5 21.5 -21.5 55.5t21.5 55.5t55.5 21.5t55.5 -21.5t21.5 -55.5t-21.5 -55.5t-55.5 -21.5t-55.5 21.5zM553 815h-102l-58 64l-58 -64h-102l91 135h138z" />
    <glyph glyph-name="uni1ED2.ss04" horiz-adv-x="786" 
d="M197.5 40.5q-88.5 50.5 -139 139t-50.5 195.5t50.5 195.5t139 139t195.5 50.5t195.5 -50.5t139 -139t50.5 -195.5t-50.5 -195.5t-139 -139t-195.5 -50.5t-195.5 50.5zM515.5 161.5q53.5 31.5 82.5 87.5t29 126t-29 126t-82.5 87.5t-122.5 31.5t-122.5 -31.5t-82.5 -87.5
t-29 -126t29 -126t82.5 -87.5t122.5 -31.5t122.5 31.5zM324 950h138l91 -135h-102l-58 64l-58 -64h-102zM438 1060h142l17 -115h-61z" />
    <glyph glyph-name="uni1ED4.ss04" horiz-adv-x="786" 
d="M197.5 40.5q-88.5 50.5 -139 139t-50.5 195.5t50.5 195.5t139 139t195.5 50.5t195.5 -50.5t139 -139t50.5 -195.5t-50.5 -195.5t-139 -139t-195.5 -50.5t-195.5 50.5zM515.5 161.5q53.5 31.5 82.5 87.5t29 126t-29 126t-82.5 87.5t-122.5 31.5t-122.5 -31.5t-82.5 -87.5
t-29 -126t29 -126t82.5 -87.5t122.5 -31.5t122.5 31.5zM324 950h138l91 -135h-102l-58 64l-58 -64h-102zM552 978q11 6 11 19t-13.5 18.5t-42.5 5.5v79h14q138 0 138 -81q0 -62 -76 -72v-19h-66v43q24 1 35 7z" />
    <glyph glyph-name="uni1ED6.ss04" horiz-adv-x="786" 
d="M197.5 40.5q-88.5 50.5 -139 139t-50.5 195.5t50.5 195.5t139 139t195.5 50.5t195.5 -50.5t139 -139t50.5 -195.5t-50.5 -195.5t-139 -139t-195.5 -50.5t-195.5 50.5zM515.5 161.5q53.5 31.5 82.5 87.5t29 126t-29 126t-82.5 87.5t-122.5 31.5t-122.5 -31.5t-82.5 -87.5
t-29 -126t29 -126t82.5 -87.5t122.5 -31.5t122.5 31.5zM553 815h-102l-58 64l-58 -64h-102l91 135h138zM423.5 996q-21.5 7 -47.5 18q-30 13 -37 13q-11 0 -16 -7t-5 -28h-78q-1 8 -1 23q0 53 19.5 76t60.5 23q22 0 41 -6t49 -18q12 -5 22.5 -9t16.5 -4q11 0 16 6.5t5 27.5
h77q1 -8 1 -23q0 -53 -19.5 -76t-59.5 -23q-23 0 -44.5 7z" />
    <glyph glyph-name="Odieresis.ss04" horiz-adv-x="786" 
d="M197.5 40.5q-88.5 50.5 -139 139t-50.5 195.5t50.5 195.5t139 139t195.5 50.5t195.5 -50.5t139 -139t50.5 -195.5t-50.5 -195.5t-139 -139t-195.5 -50.5t-195.5 50.5zM515.5 161.5q53.5 31.5 82.5 87.5t29 126t-29 126t-82.5 87.5t-122.5 31.5t-122.5 -31.5t-82.5 -87.5
t-29 -126t29 -126t82.5 -87.5t122.5 -31.5t122.5 31.5zM435 818q-22 22 -22 57t22 57t57 22t57 -22t22 -57t-22 -57t-57 -22t-57 22zM237.5 818q-22.5 22 -22.5 57t22.5 57t56.5 22q35 0 57 -22t22 -57t-22 -57t-57 -22q-34 0 -56.5 22z" />
    <glyph glyph-name="uni1ECC.ss04" horiz-adv-x="786" 
d="M197.5 40.5q-88.5 50.5 -139 139t-50.5 195.5t50.5 195.5t139 139t195.5 50.5t195.5 -50.5t139 -139t50.5 -195.5t-50.5 -195.5t-139 -139t-195.5 -50.5t-195.5 50.5zM515.5 161.5q53.5 31.5 82.5 87.5t29 126t-29 126t-82.5 87.5t-122.5 31.5t-122.5 -31.5t-82.5 -87.5
t-29 -126t29 -126t82.5 -87.5t122.5 -31.5t122.5 31.5zM337.5 -168.5q-21.5 21.5 -21.5 55.5t21.5 55.5t55.5 21.5t55.5 -21.5t21.5 -55.5t-21.5 -55.5t-55.5 -21.5t-55.5 21.5z" />
    <glyph glyph-name="Ograve.ss04" horiz-adv-x="786" 
d="M197.5 40.5q-88.5 50.5 -139 139t-50.5 195.5t50.5 195.5t139 139t195.5 50.5t195.5 -50.5t139 -139t50.5 -195.5t-50.5 -195.5t-139 -139t-195.5 -50.5t-195.5 50.5zM515.5 161.5q53.5 31.5 82.5 87.5t29 126t-29 126t-82.5 87.5t-122.5 31.5t-122.5 -31.5t-82.5 -87.5
t-29 -126t29 -126t82.5 -87.5t122.5 -31.5t122.5 31.5zM356 815l-116 135h167l20 -135h-71z" />
    <glyph glyph-name="uni1ECE.ss04" horiz-adv-x="786" 
d="M197.5 40.5q-88.5 50.5 -139 139t-50.5 195.5t50.5 195.5t139 139t195.5 50.5t195.5 -50.5t139 -139t50.5 -195.5t-50.5 -195.5t-139 -139t-195.5 -50.5t-195.5 50.5zM515.5 161.5q53.5 31.5 82.5 87.5t29 126t-29 126t-82.5 87.5t-122.5 31.5t-122.5 -31.5t-82.5 -87.5
t-29 -126t29 -126t82.5 -87.5t122.5 -31.5t122.5 31.5zM398.5 866.5q11.5 6.5 11.5 19.5t-13.5 19t-44.5 6v83h15q143 0 143 -85q0 -63 -79 -75v-19h-69v44q25 1 36.5 7.5z" />
    <glyph glyph-name="Ohorn.ss04" horiz-adv-x="786" 
d="M197.5 40.5q-88.5 50.5 -139 139t-50.5 195.5t50.5 195.5t139 139t195.5 50.5q57 0 117 -10q40 -7 69 -7q31 0 48.5 17.5t17.5 46.5q0 26 -11 62h112q13 -45 13 -79q0 -47 -28 -79.5t-81 -44.5q60 -54 94 -129t34 -162q0 -107 -50.5 -195.5t-139 -139t-195.5 -50.5
t-195.5 50.5zM515.5 161.5q53.5 31.5 82.5 87.5t29 126t-29 126t-82.5 87.5t-122.5 31.5t-122.5 -31.5t-82.5 -87.5t-29 -126t29 -126t82.5 -87.5t122.5 -31.5t122.5 31.5z" />
    <glyph glyph-name="uni1EDA.ss04" horiz-adv-x="786" 
d="M197.5 40.5q-88.5 50.5 -139 139t-50.5 195.5t50.5 195.5t139 139t195.5 50.5q57 0 117 -10q40 -7 69 -7q31 0 48.5 17.5t17.5 46.5q0 26 -11 62h112q13 -45 13 -79q0 -47 -28 -79.5t-81 -44.5q60 -54 94 -129t34 -162q0 -107 -50.5 -195.5t-139 -139t-195.5 -50.5
t-195.5 50.5zM515.5 161.5q53.5 31.5 82.5 87.5t29 126t-29 126t-82.5 87.5t-122.5 31.5t-122.5 -31.5t-82.5 -87.5t-29 -126t29 -126t82.5 -87.5t122.5 -31.5t122.5 31.5zM369 950h167l-116 -135h-71z" />
    <glyph glyph-name="uni1EE2.ss04" horiz-adv-x="786" 
d="M197.5 40.5q-88.5 50.5 -139 139t-50.5 195.5t50.5 195.5t139 139t195.5 50.5q57 0 117 -10q40 -7 69 -7q31 0 48.5 17.5t17.5 46.5q0 26 -11 62h112q13 -45 13 -79q0 -47 -28 -79.5t-81 -44.5q60 -54 94 -129t34 -162q0 -107 -50.5 -195.5t-139 -139t-195.5 -50.5
t-195.5 50.5zM515.5 161.5q53.5 31.5 82.5 87.5t29 126t-29 126t-82.5 87.5t-122.5 31.5t-122.5 -31.5t-82.5 -87.5t-29 -126t29 -126t82.5 -87.5t122.5 -31.5t122.5 31.5zM337.5 -168.5q-21.5 21.5 -21.5 55.5t21.5 55.5t55.5 21.5t55.5 -21.5t21.5 -55.5t-21.5 -55.5
t-55.5 -21.5t-55.5 21.5z" />
    <glyph glyph-name="uni1EDC.ss04" horiz-adv-x="786" 
d="M197.5 40.5q-88.5 50.5 -139 139t-50.5 195.5t50.5 195.5t139 139t195.5 50.5q57 0 117 -10q40 -7 69 -7q31 0 48.5 17.5t17.5 46.5q0 26 -11 62h112q13 -45 13 -79q0 -47 -28 -79.5t-81 -44.5q60 -54 94 -129t34 -162q0 -107 -50.5 -195.5t-139 -139t-195.5 -50.5
t-195.5 50.5zM515.5 161.5q53.5 31.5 82.5 87.5t29 126t-29 126t-82.5 87.5t-122.5 31.5t-122.5 -31.5t-82.5 -87.5t-29 -126t29 -126t82.5 -87.5t122.5 -31.5t122.5 31.5zM356 815l-116 135h167l20 -135h-71z" />
    <glyph glyph-name="uni1EDE.ss04" horiz-adv-x="786" 
d="M197.5 40.5q-88.5 50.5 -139 139t-50.5 195.5t50.5 195.5t139 139t195.5 50.5q57 0 117 -10q40 -7 69 -7q31 0 48.5 17.5t17.5 46.5q0 26 -11 62h112q13 -45 13 -79q0 -47 -28 -79.5t-81 -44.5q60 -54 94 -129t34 -162q0 -107 -50.5 -195.5t-139 -139t-195.5 -50.5
t-195.5 50.5zM515.5 161.5q53.5 31.5 82.5 87.5t29 126t-29 126t-82.5 87.5t-122.5 31.5t-122.5 -31.5t-82.5 -87.5t-29 -126t29 -126t82.5 -87.5t122.5 -31.5t122.5 31.5zM398.5 866.5q11.5 6.5 11.5 19.5t-13.5 19t-44.5 6v83h15q143 0 143 -85q0 -63 -79 -75v-19h-69v44
q25 1 36.5 7.5z" />
    <glyph glyph-name="uni1EE0.ss04" horiz-adv-x="786" 
d="M197.5 40.5q-88.5 50.5 -139 139t-50.5 195.5t50.5 195.5t139 139t195.5 50.5q57 0 117 -10q40 -7 69 -7q31 0 48.5 17.5t17.5 46.5q0 26 -11 62h112q13 -45 13 -79q0 -47 -28 -79.5t-81 -44.5q60 -54 94 -129t34 -162q0 -107 -50.5 -195.5t-139 -139t-195.5 -50.5
t-195.5 50.5zM515.5 161.5q53.5 31.5 82.5 87.5t29 126t-29 126t-82.5 87.5t-122.5 31.5t-122.5 -31.5t-82.5 -87.5t-29 -126t29 -126t82.5 -87.5t122.5 -31.5t122.5 31.5zM426 820.5q-24 7.5 -51 19.5q-31 14 -42 14q-12 0 -17.5 -7.5t-5.5 -30.5h-85q-1 9 -1 26
q0 58 21.5 83t65.5 25q25 0 49 -7.5t51 -19.5q32 -14 42 -14q12 0 17.5 7.5t5.5 30.5h85q1 -9 1 -26q0 -58 -21.5 -83t-65.5 -25q-25 0 -49 7.5z" />
    <glyph glyph-name="Ohungarumlaut.ss04" horiz-adv-x="786" 
d="M197.5 40.5q-88.5 50.5 -139 139t-50.5 195.5t50.5 195.5t139 139t195.5 50.5t195.5 -50.5t139 -139t50.5 -195.5t-50.5 -195.5t-139 -139t-195.5 -50.5t-195.5 50.5zM515.5 161.5q53.5 31.5 82.5 87.5t29 126t-29 126t-82.5 87.5t-122.5 31.5t-122.5 -31.5t-82.5 -87.5
t-29 -126t29 -126t82.5 -87.5t122.5 -31.5t122.5 31.5zM447 950h167l-116 -135h-71zM272 950h167l-116 -135h-71z" />
    <glyph glyph-name="Omacron.ss04" horiz-adv-x="786" 
d="M197.5 40.5q-88.5 50.5 -139 139t-50.5 195.5t50.5 195.5t139 139t195.5 50.5t195.5 -50.5t139 -139t50.5 -195.5t-50.5 -195.5t-139 -139t-195.5 -50.5t-195.5 50.5zM515.5 161.5q53.5 31.5 82.5 87.5t29 126t-29 126t-82.5 87.5t-122.5 31.5t-122.5 -31.5t-82.5 -87.5
t-29 -126t29 -126t82.5 -87.5t122.5 -31.5t122.5 31.5zM539 931v-110h-292v110h292z" />
    <glyph glyph-name="Oslash.ss04" horiz-adv-x="786" 
d="M113 106q-50 53 -77.5 122t-27.5 147q0 107 50.5 195.5t139 139t195.5 50.5q93 0 174 -39l20 29h162l-75 -108q50 -52 77 -120.5t27 -146.5q0 -107 -50.5 -195.5t-139 -139t-195.5 -50.5q-92 0 -173 39l-20 -29h-162zM515.5 161.5q53.5 31.5 82.5 87.5t29 126
q0 90 -46 153l-268 -386q36 -12 80 -12q69 0 122.5 31.5zM206 220l268 387q-36 13 -81 13q-69 0 -122.5 -31.5t-82.5 -87.5t-29 -126q0 -91 47 -155z" />
    <glyph glyph-name="Otilde.ss04" horiz-adv-x="786" 
d="M197.5 40.5q-88.5 50.5 -139 139t-50.5 195.5t50.5 195.5t139 139t195.5 50.5t195.5 -50.5t139 -139t50.5 -195.5t-50.5 -195.5t-139 -139t-195.5 -50.5t-195.5 50.5zM515.5 161.5q53.5 31.5 82.5 87.5t29 126t-29 126t-82.5 87.5t-122.5 31.5t-122.5 -31.5t-82.5 -87.5
t-29 -126t29 -126t82.5 -87.5t122.5 -31.5t122.5 31.5zM426 820.5q-24 7.5 -51 19.5q-31 14 -42 14q-12 0 -17.5 -7.5t-5.5 -30.5h-85q-1 9 -1 26q0 58 21.5 83t65.5 25q25 0 49 -7.5t51 -19.5q32 -14 42 -14q12 0 17.5 7.5t5.5 30.5h85q1 -9 1 -26q0 -58 -21.5 -83
t-65.5 -25q-25 0 -49 7.5z" />
    <glyph glyph-name="OE.ss04" horiz-adv-x="1024" 
d="M193 49.5q-86 49.5 -135.5 135.5t-49.5 190t49.5 190t135.5 135.5t190 49.5h615v-140h-280v-156h237v-140h-237v-174h282v-140h-617q-104 0 -190 49.5zM568 140v470h-185q-66 0 -117 -30.5t-79 -84t-28 -120.5t28 -120.5t79 -84t117 -30.5h185z" />
    <glyph glyph-name="Q.ss04" horiz-adv-x="786" 
d="M515.5 161.5q53.5 31.5 82.5 87.5t29 126t-29 126t-82.5 87.5t-122.5 31.5t-122.5 -31.5t-82.5 -87.5t-29 -126t29 -126t82.5 -87.5t122.5 -31.5t122.5 31.5zM436 -143q-70 37 -85 135q-98 10 -176 62.5t-122.5 136.5t-44.5 184q0 107 50.5 195.5t139 139t195.5 50.5
t195.5 -50.5t139 -139t50.5 -195.5q0 -95 -40 -175.5t-111 -134t-161 -69.5q24 -27 67.5 -35t114.5 -8h55v-133h-63q-134 0 -204 37z" />
    <glyph glyph-name="A.ss05" horiz-adv-x="576" 
d="M422.5 729q58.5 -31 91.5 -89t33 -137v-503h-150v211h-218v-211h-150v503q0 79 33 137t91.5 89t134.5 31t134.5 -31zM397 331v172q0 53 -30 85t-79 32t-79 -32t-30 -85v-172h218z" />
    <glyph glyph-name="Aacute.ss05" horiz-adv-x="576" 
d="M422.5 729q58.5 -31 91.5 -89t33 -137v-503h-150v211h-218v-211h-150v503q0 79 33 137t91.5 89t134.5 31t134.5 -31zM397 331v172q0 53 -30 85t-79 32t-79 -32t-30 -85v-172h218zM264 950h167l-116 -135h-71z" />
    <glyph glyph-name="Abreve.ss05" horiz-adv-x="576" 
d="M422.5 729q58.5 -31 91.5 -89t33 -137v-503h-150v211h-218v-211h-150v503q0 79 33 137t91.5 89t134.5 31t134.5 -31zM397 331v172q0 53 -30 85t-79 32t-79 -32t-30 -85v-172h218zM175.5 853.5q-40.5 36.5 -35.5 96.5h88q-1 -23 16 -37t46 -14t45.5 14t15.5 37h84
q5 -60 -35.5 -96.5t-111.5 -36.5q-72 0 -112.5 36.5z" />
    <glyph glyph-name="Acircumflex.ss05" horiz-adv-x="576" 
d="M422.5 729q58.5 -31 91.5 -89t33 -137v-503h-150v211h-218v-211h-150v503q0 79 33 137t91.5 89t134.5 31t134.5 -31zM397 331v172q0 53 -30 85t-79 32t-79 -32t-30 -85v-172h218zM448 815h-102l-58 64l-58 -64h-102l91 135h138z" />
    <glyph glyph-name="Adieresis.ss05" horiz-adv-x="576" 
d="M422.5 729q58.5 -31 91.5 -89t33 -137v-503h-150v211h-218v-211h-150v503q0 79 33 137t91.5 89t134.5 31t134.5 -31zM397 331v172q0 53 -30 85t-79 32t-79 -32t-30 -85v-172h218zM330 818q-22 22 -22 57t22 57t57 22t57 -22t22 -57t-22 -57t-57 -22t-57 22zM132.5 818
q-22.5 22 -22.5 57t22.5 57t56.5 22q35 0 57 -22t22 -57t-22 -57t-57 -22q-34 0 -56.5 22z" />
    <glyph glyph-name="Agrave.ss05" horiz-adv-x="576" 
d="M422.5 729q58.5 -31 91.5 -89t33 -137v-503h-150v211h-218v-211h-150v503q0 79 33 137t91.5 89t134.5 31t134.5 -31zM397 331v172q0 53 -30 85t-79 32t-79 -32t-30 -85v-172h218zM251 815l-116 135h167l20 -135h-71z" />
    <glyph glyph-name="Amacron.ss05" horiz-adv-x="576" 
d="M422.5 729q58.5 -31 91.5 -89t33 -137v-503h-150v211h-218v-211h-150v503q0 79 33 137t91.5 89t134.5 31t134.5 -31zM397 331v172q0 53 -30 85t-79 32t-79 -32t-30 -85v-172h218zM434 931v-110h-292v110h292z" />
    <glyph glyph-name="Aogonek.ss05" horiz-adv-x="576" 
d="M422.5 729q58.5 -31 91.5 -89t33 -137v-503q-39 -43 -39 -67q0 -13 9 -23t30 -10v-79l-27 -1q-69 0 -103.5 20.5t-34.5 57.5q0 57 98 102h-83v211h-218v-211h-150v503q0 79 33 137t91.5 89t134.5 31t134.5 -31zM397 331v172q0 53 -30 85t-79 32t-79 -32t-30 -85v-172h218
z" />
    <glyph glyph-name="Aring.ss05" horiz-adv-x="576" 
d="M422.5 729q58.5 -31 91.5 -89t33 -137v-503h-150v211h-218v-211h-150v503q0 79 33 137t91.5 89t134.5 31t134.5 -31zM397 331v172q0 53 -30 85t-79 32t-79 -32t-30 -85v-172h218zM213 825q-28 25 -28 66t28 66t75 25t75 -25t28 -66t-28 -66t-75 -25t-75 25zM314.5 869
q10.5 9 10.5 22t-10.5 22t-26.5 9t-26.5 -9t-10.5 -22t10.5 -22t26.5 -9t26.5 9z" />
    <glyph glyph-name="Atilde.ss05" horiz-adv-x="576" 
d="M422.5 729q58.5 -31 91.5 -89t33 -137v-503h-150v211h-218v-211h-150v503q0 79 33 137t91.5 89t134.5 31t134.5 -31zM397 331v172q0 53 -30 85t-79 32t-79 -32t-30 -85v-172h218zM321 820.5q-24 7.5 -51 19.5q-31 14 -42 14q-12 0 -17.5 -7.5t-5.5 -30.5h-85q-1 9 -1 26
q0 58 21.5 83t65.5 25q25 0 49 -7.5t51 -19.5q32 -14 42 -14q12 0 17.5 7.5t5.5 30.5h85q1 -9 1 -26q0 -58 -21.5 -83t-65.5 -25q-25 0 -49 7.5z" />
    <glyph glyph-name="a" unicode="a" horiz-adv-x="486" 
d="M57.5 30.5q-41.5 40.5 -41.5 105.5v3q0 65 46 115.5t146 65.5l101 16v12q0 37 -16.5 57t-47.5 20q-34 0 -52.5 -20t-18.5 -57v-5h-148v13q0 61 27.5 107.5t77 71.5t114.5 25q100 0 157 -54t57 -150v-356h-130l-13 69h-5q-24 -29 -38.5 -43t-39.5 -25t-62 -11
q-72 0 -113.5 40.5zM183 133q16 -12 42 -12q36 0 60 19t24 50v41l-69 -11q-36 -6 -54.5 -18t-18.5 -35v-2q0 -20 16 -32z" />
    <glyph glyph-name="aacute" unicode="&#xe1;" horiz-adv-x="486" 
d="M57.5 30.5q-41.5 40.5 -41.5 105.5v3q0 65 46 115.5t146 65.5l101 16v12q0 37 -16.5 57t-47.5 20q-34 0 -52.5 -20t-18.5 -57v-5h-148v13q0 61 27.5 107.5t77 71.5t114.5 25q100 0 157 -54t57 -150v-356h-130l-13 69h-5q-24 -29 -38.5 -43t-39.5 -25t-62 -11
q-72 0 -113.5 40.5zM183 133q16 -12 42 -12q36 0 60 19t24 50v41l-69 -11q-36 -6 -54.5 -18t-18.5 -35v-2q0 -20 16 -32zM219 750h167l-116 -135h-71z" />
    <glyph glyph-name="abreve" unicode="&#x103;" horiz-adv-x="486" 
d="M57.5 30.5q-41.5 40.5 -41.5 105.5v3q0 65 46 115.5t146 65.5l101 16v12q0 37 -16.5 57t-47.5 20q-34 0 -52.5 -20t-18.5 -57v-5h-148v13q0 61 27.5 107.5t77 71.5t114.5 25q100 0 157 -54t57 -150v-356h-130l-13 69h-5q-24 -29 -38.5 -43t-39.5 -25t-62 -11
q-72 0 -113.5 40.5zM183 133q16 -12 42 -12q36 0 60 19t24 50v41l-69 -11q-36 -6 -54.5 -18t-18.5 -35v-2q0 -20 16 -32zM130.5 653.5q-40.5 36.5 -35.5 96.5h88q-1 -23 16 -37t46 -14t45.5 14t15.5 37h84q5 -60 -35.5 -96.5t-111.5 -36.5q-72 0 -112.5 36.5z" />
    <glyph glyph-name="uni1EAF" unicode="&#x1eaf;" horiz-adv-x="486" 
d="M57.5 30.5q-41.5 40.5 -41.5 105.5v3q0 65 46 115.5t146 65.5l101 16v12q0 37 -16.5 57t-47.5 20q-34 0 -52.5 -20t-18.5 -57v-5h-148v13q0 61 27.5 107.5t77 71.5t114.5 25q100 0 157 -54t57 -150v-356h-130l-13 69h-5q-24 -29 -38.5 -43t-39.5 -25t-62 -11
q-72 0 -113.5 40.5zM183 133q16 -12 42 -12q36 0 60 19t24 50v41l-69 -11q-36 -6 -54.5 -18t-18.5 -35v-2q0 -20 16 -32zM130.5 653.5q-40.5 36.5 -35.5 96.5h88q-1 -23 16 -37t46 -14t45.5 14t15.5 37h84q5 -60 -35.5 -96.5t-111.5 -36.5q-72 0 -112.5 36.5zM223 889h142
l-99 -115h-60z" />
    <glyph glyph-name="uni1EB7" unicode="&#x1eb7;" horiz-adv-x="486" 
d="M57.5 30.5q-41.5 40.5 -41.5 105.5v3q0 65 46 115.5t146 65.5l101 16v12q0 37 -16.5 57t-47.5 20q-34 0 -52.5 -20t-18.5 -57v-5h-148v13q0 61 27.5 107.5t77 71.5t114.5 25q100 0 157 -54t57 -150v-356h-130l-13 69h-5q-24 -29 -38.5 -43t-39.5 -25t-62 -11
q-72 0 -113.5 40.5zM183 133q16 -12 42 -12q36 0 60 19t24 50v41l-69 -11q-36 -6 -54.5 -18t-18.5 -35v-2q0 -20 16 -32zM187.5 -168.5q-21.5 21.5 -21.5 55.5t21.5 55.5t55.5 21.5t55.5 -21.5t21.5 -55.5t-21.5 -55.5t-55.5 -21.5t-55.5 21.5zM130.5 653.5
q-40.5 36.5 -35.5 96.5h88q-1 -23 16 -37t46 -14t45.5 14t15.5 37h84q5 -60 -35.5 -96.5t-111.5 -36.5q-72 0 -112.5 36.5z" />
    <glyph glyph-name="uni1EB1" unicode="&#x1eb1;" horiz-adv-x="486" 
d="M57.5 30.5q-41.5 40.5 -41.5 105.5v3q0 65 46 115.5t146 65.5l101 16v12q0 37 -16.5 57t-47.5 20q-34 0 -52.5 -20t-18.5 -57v-5h-148v13q0 61 27.5 107.5t77 71.5t114.5 25q100 0 157 -54t57 -150v-356h-130l-13 69h-5q-24 -29 -38.5 -43t-39.5 -25t-62 -11
q-72 0 -113.5 40.5zM183 133q16 -12 42 -12q36 0 60 19t24 50v41l-69 -11q-36 -6 -54.5 -18t-18.5 -35v-2q0 -20 16 -32zM130.5 653.5q-40.5 36.5 -35.5 96.5h88q-1 -23 16 -37t46 -14t45.5 14t15.5 37h84q5 -60 -35.5 -96.5t-111.5 -36.5q-72 0 -112.5 36.5zM132 889h142
l17 -115h-61z" />
    <glyph glyph-name="uni1EB3" unicode="&#x1eb3;" horiz-adv-x="486" 
d="M57.5 30.5q-41.5 40.5 -41.5 105.5v3q0 65 46 115.5t146 65.5l101 16v12q0 37 -16.5 57t-47.5 20q-34 0 -52.5 -20t-18.5 -57v-5h-148v13q0 61 27.5 107.5t77 71.5t114.5 25q100 0 157 -54t57 -150v-356h-130l-13 69h-5q-24 -29 -38.5 -43t-39.5 -25t-62 -11
q-72 0 -113.5 40.5zM183 133q16 -12 42 -12q36 0 60 19t24 50v41l-69 -11q-36 -6 -54.5 -18t-18.5 -35v-2q0 -20 16 -32zM130.5 653.5q-40.5 36.5 -35.5 96.5h88q-1 -23 16 -37t46 -14t45.5 14t15.5 37h84q5 -60 -35.5 -96.5t-111.5 -36.5q-72 0 -112.5 36.5zM248.5 821.5
q10.5 5.5 10.5 17.5q0 13 -12.5 18t-41.5 5v77h14q132 0 132 -79q0 -30 -19 -47t-54 -22v-18h-64v41q24 2 34.5 7.5z" />
    <glyph glyph-name="uni1EB5" unicode="&#x1eb5;" horiz-adv-x="486" 
d="M57.5 30.5q-41.5 40.5 -41.5 105.5v3q0 65 46 115.5t146 65.5l101 16v12q0 37 -16.5 57t-47.5 20q-34 0 -52.5 -20t-18.5 -57v-5h-148v13q0 61 27.5 107.5t77 71.5t114.5 25q100 0 157 -54t57 -150v-356h-130l-13 69h-5q-24 -29 -38.5 -43t-39.5 -25t-62 -11
q-72 0 -113.5 40.5zM183 133q16 -12 42 -12q36 0 60 19t24 50v41l-69 -11q-36 -6 -54.5 -18t-18.5 -35v-2q0 -20 16 -32zM136.5 653.5q-40.5 36.5 -35.5 96.5h88q-1 -23 16 -37t46 -14t45.5 14t15.5 37h84q5 -60 -35.5 -96.5t-111.5 -36.5q-72 0 -112.5 36.5zM278.5 796
q-21.5 7 -47.5 18q-30 13 -37 13q-11 0 -16 -7t-5 -28h-78q-1 8 -1 23q0 53 19.5 76t60.5 23q22 0 41 -6t49 -18q12 -5 22.5 -9t16.5 -4q11 0 16 6.5t5 27.5h77q1 -8 1 -23q0 -53 -19.5 -76t-59.5 -23q-23 0 -44.5 7z" />
    <glyph glyph-name="acircumflex" unicode="&#xe2;" horiz-adv-x="486" 
d="M57.5 30.5q-41.5 40.5 -41.5 105.5v3q0 65 46 115.5t146 65.5l101 16v12q0 37 -16.5 57t-47.5 20q-34 0 -52.5 -20t-18.5 -57v-5h-148v13q0 61 27.5 107.5t77 71.5t114.5 25q100 0 157 -54t57 -150v-356h-130l-13 69h-5q-24 -29 -38.5 -43t-39.5 -25t-62 -11
q-72 0 -113.5 40.5zM183 133q16 -12 42 -12q36 0 60 19t24 50v41l-69 -11q-36 -6 -54.5 -18t-18.5 -35v-2q0 -20 16 -32zM403 615h-102l-58 64l-58 -64h-102l91 135h138z" />
    <glyph glyph-name="uni1EA5" unicode="&#x1ea5;" horiz-adv-x="486" 
d="M57.5 30.5q-41.5 40.5 -41.5 105.5v3q0 65 46 115.5t146 65.5l101 16v12q0 37 -16.5 57t-47.5 20q-34 0 -52.5 -20t-18.5 -57v-5h-148v13q0 61 27.5 107.5t77 71.5t114.5 25q100 0 157 -54t57 -150v-356h-130l-13 69h-5q-24 -29 -38.5 -43t-39.5 -25t-62 -11
q-72 0 -113.5 40.5zM183 133q16 -12 42 -12q36 0 60 19t24 50v41l-69 -11q-36 -6 -54.5 -18t-18.5 -35v-2q0 -20 16 -32zM174 750h138l91 -135h-102l-58 64l-58 -64h-102zM365 860h142l-99 -115h-60z" />
    <glyph glyph-name="uni1EAD" unicode="&#x1ead;" horiz-adv-x="486" 
d="M57.5 30.5q-41.5 40.5 -41.5 105.5v3q0 65 46 115.5t146 65.5l101 16v12q0 37 -16.5 57t-47.5 20q-34 0 -52.5 -20t-18.5 -57v-5h-148v13q0 61 27.5 107.5t77 71.5t114.5 25q100 0 157 -54t57 -150v-356h-130l-13 69h-5q-24 -29 -38.5 -43t-39.5 -25t-62 -11
q-72 0 -113.5 40.5zM183 133q16 -12 42 -12q36 0 60 19t24 50v41l-69 -11q-36 -6 -54.5 -18t-18.5 -35v-2q0 -20 16 -32zM187.5 -168.5q-21.5 21.5 -21.5 55.5t21.5 55.5t55.5 21.5t55.5 -21.5t21.5 -55.5t-21.5 -55.5t-55.5 -21.5t-55.5 21.5zM403 615h-102l-58 64l-58 -64
h-102l91 135h138z" />
    <glyph glyph-name="uni1EA7" unicode="&#x1ea7;" horiz-adv-x="486" 
d="M57.5 30.5q-41.5 40.5 -41.5 105.5v3q0 65 46 115.5t146 65.5l101 16v12q0 37 -16.5 57t-47.5 20q-34 0 -52.5 -20t-18.5 -57v-5h-148v13q0 61 27.5 107.5t77 71.5t114.5 25q100 0 157 -54t57 -150v-356h-130l-13 69h-5q-24 -29 -38.5 -43t-39.5 -25t-62 -11
q-72 0 -113.5 40.5zM183 133q16 -12 42 -12q36 0 60 19t24 50v41l-69 -11q-36 -6 -54.5 -18t-18.5 -35v-2q0 -20 16 -32zM174 750h138l91 -135h-102l-58 64l-58 -64h-102zM288 860h142l17 -115h-61z" />
    <glyph glyph-name="uni1EA9" unicode="&#x1ea9;" horiz-adv-x="486" 
d="M57.5 30.5q-41.5 40.5 -41.5 105.5v3q0 65 46 115.5t146 65.5l101 16v12q0 37 -16.5 57t-47.5 20q-34 0 -52.5 -20t-18.5 -57v-5h-148v13q0 61 27.5 107.5t77 71.5t114.5 25q100 0 157 -54t57 -150v-356h-130l-13 69h-5q-24 -29 -38.5 -43t-39.5 -25t-62 -11
q-72 0 -113.5 40.5zM183 133q16 -12 42 -12q36 0 60 19t24 50v41l-69 -11q-36 -6 -54.5 -18t-18.5 -35v-2q0 -20 16 -32zM174 750h138l91 -135h-102l-58 64l-58 -64h-102zM402 778q11 6 11 19t-13.5 18.5t-42.5 5.5v79h14q138 0 138 -81q0 -62 -76 -72v-19h-66v43q24 1 35 7
z" />
    <glyph glyph-name="uni1EAB" unicode="&#x1eab;" horiz-adv-x="486" 
d="M57.5 30.5q-41.5 40.5 -41.5 105.5v3q0 65 46 115.5t146 65.5l101 16v12q0 37 -16.5 57t-47.5 20q-34 0 -52.5 -20t-18.5 -57v-5h-148v13q0 61 27.5 107.5t77 71.5t114.5 25q100 0 157 -54t57 -150v-356h-130l-13 69h-5q-24 -29 -38.5 -43t-39.5 -25t-62 -11
q-72 0 -113.5 40.5zM183 133q16 -12 42 -12q36 0 60 19t24 50v41l-69 -11q-36 -6 -54.5 -18t-18.5 -35v-2q0 -20 16 -32zM403 615h-102l-58 64l-58 -64h-102l91 135h138zM273.5 796q-21.5 7 -47.5 18q-30 13 -37 13q-11 0 -16 -7t-5 -28h-78q-1 8 -1 23q0 53 19.5 76
t60.5 23q22 0 41 -6t49 -18q12 -5 22.5 -9t16.5 -4q11 0 16 6.5t5 27.5h77q1 -8 1 -23q0 -53 -19.5 -76t-59.5 -23q-23 0 -44.5 7z" />
    <glyph glyph-name="adieresis" unicode="&#xe4;" horiz-adv-x="486" 
d="M57.5 30.5q-41.5 40.5 -41.5 105.5v3q0 65 46 115.5t146 65.5l101 16v12q0 37 -16.5 57t-47.5 20q-34 0 -52.5 -20t-18.5 -57v-5h-148v13q0 61 27.5 107.5t77 71.5t114.5 25q100 0 157 -54t57 -150v-356h-130l-13 69h-5q-24 -29 -38.5 -43t-39.5 -25t-62 -11
q-72 0 -113.5 40.5zM183 133q16 -12 42 -12q36 0 60 19t24 50v41l-69 -11q-36 -6 -54.5 -18t-18.5 -35v-2q0 -20 16 -32zM285 618q-22 22 -22 57t22 57t57 22t57 -22t22 -57t-22 -57t-57 -22t-57 22zM87.5 618q-22.5 22 -22.5 57t22.5 57t56.5 22q35 0 57 -22t22 -57
t-22 -57t-57 -22q-34 0 -56.5 22z" />
    <glyph glyph-name="uni1EA1" unicode="&#x1ea1;" horiz-adv-x="486" 
d="M57.5 30.5q-41.5 40.5 -41.5 105.5v3q0 65 46 115.5t146 65.5l101 16v12q0 37 -16.5 57t-47.5 20q-34 0 -52.5 -20t-18.5 -57v-5h-148v13q0 61 27.5 107.5t77 71.5t114.5 25q100 0 157 -54t57 -150v-356h-130l-13 69h-5q-24 -29 -38.5 -43t-39.5 -25t-62 -11
q-72 0 -113.5 40.5zM183 133q16 -12 42 -12q36 0 60 19t24 50v41l-69 -11q-36 -6 -54.5 -18t-18.5 -35v-2q0 -20 16 -32zM187.5 -168.5q-21.5 21.5 -21.5 55.5t21.5 55.5t55.5 21.5t55.5 -21.5t21.5 -55.5t-21.5 -55.5t-55.5 -21.5t-55.5 21.5z" />
    <glyph glyph-name="agrave" unicode="&#xe0;" horiz-adv-x="486" 
d="M57.5 30.5q-41.5 40.5 -41.5 105.5v3q0 65 46 115.5t146 65.5l101 16v12q0 37 -16.5 57t-47.5 20q-34 0 -52.5 -20t-18.5 -57v-5h-148v13q0 61 27.5 107.5t77 71.5t114.5 25q100 0 157 -54t57 -150v-356h-130l-13 69h-5q-24 -29 -38.5 -43t-39.5 -25t-62 -11
q-72 0 -113.5 40.5zM183 133q16 -12 42 -12q36 0 60 19t24 50v41l-69 -11q-36 -6 -54.5 -18t-18.5 -35v-2q0 -20 16 -32zM206 615l-116 135h167l20 -135h-71z" />
    <glyph glyph-name="uni1EA3" unicode="&#x1ea3;" horiz-adv-x="486" 
d="M57.5 30.5q-41.5 40.5 -41.5 105.5v3q0 65 46 115.5t146 65.5l101 16v12q0 37 -16.5 57t-47.5 20q-34 0 -52.5 -20t-18.5 -57v-5h-148v13q0 61 27.5 107.5t77 71.5t114.5 25q100 0 157 -54t57 -150v-356h-130l-13 69h-5q-24 -29 -38.5 -43t-39.5 -25t-62 -11
q-72 0 -113.5 40.5zM183 133q16 -12 42 -12q36 0 60 19t24 50v41l-69 -11q-36 -6 -54.5 -18t-18.5 -35v-2q0 -20 16 -32zM248.5 666.5q11.5 6.5 11.5 19.5t-13.5 19t-44.5 6v83h15q143 0 143 -85q0 -63 -79 -75v-19h-69v44q25 1 36.5 7.5z" />
    <glyph glyph-name="amacron" unicode="&#x101;" horiz-adv-x="486" 
d="M57.5 30.5q-41.5 40.5 -41.5 105.5v3q0 65 46 115.5t146 65.5l101 16v12q0 37 -16.5 57t-47.5 20q-34 0 -52.5 -20t-18.5 -57v-5h-148v13q0 61 27.5 107.5t77 71.5t114.5 25q100 0 157 -54t57 -150v-356h-130l-13 69h-5q-24 -29 -38.5 -43t-39.5 -25t-62 -11
q-72 0 -113.5 40.5zM183 133q16 -12 42 -12q36 0 60 19t24 50v41l-69 -11q-36 -6 -54.5 -18t-18.5 -35v-2q0 -20 16 -32zM389 731v-110h-292v110h292z" />
    <glyph glyph-name="aogonek" unicode="&#x105;" horiz-adv-x="486" 
d="M57.5 30.5q-41.5 40.5 -41.5 105.5v3q0 65 46 115.5t146 65.5l101 16v12q0 37 -16.5 57t-47.5 20q-34 0 -52.5 -20t-18.5 -57v-5h-148v13q0 61 27.5 107.5t77 71.5t114.5 25q100 0 157 -54t57 -150v-356q-39 -43 -39 -67q0 -13 9 -23t30 -10v-79l-27 -1
q-69 0 -103.5 20.5t-34.5 57.5q0 57 98 102h-63l-13 69h-5q-24 -29 -38.5 -43t-39.5 -25t-62 -11q-72 0 -113.5 40.5zM183 133q16 -12 42 -12q36 0 60 19t24 50v41l-69 -11q-36 -6 -54.5 -18t-18.5 -35v-2q0 -20 16 -32z" />
    <glyph glyph-name="aring" unicode="&#xe5;" horiz-adv-x="486" 
d="M57.5 30.5q-41.5 40.5 -41.5 105.5v3q0 65 46 115.5t146 65.5l101 16v12q0 37 -16.5 57t-47.5 20q-34 0 -52.5 -20t-18.5 -57v-5h-148v13q0 61 27.5 107.5t77 71.5t114.5 25q100 0 157 -54t57 -150v-356h-130l-13 69h-5q-24 -29 -38.5 -43t-39.5 -25t-62 -11
q-72 0 -113.5 40.5zM183 133q16 -12 42 -12q36 0 60 19t24 50v41l-69 -11q-36 -6 -54.5 -18t-18.5 -35v-2q0 -20 16 -32zM168 625q-28 25 -28 66t28 66t75 25t75 -25t28 -66t-28 -66t-75 -25t-75 25zM269.5 669q10.5 9 10.5 22t-10.5 22t-26.5 9t-26.5 -9t-10.5 -22
t10.5 -22t26.5 -9t26.5 9z" />
    <glyph glyph-name="atilde" unicode="&#xe3;" horiz-adv-x="486" 
d="M57.5 30.5q-41.5 40.5 -41.5 105.5v3q0 65 46 115.5t146 65.5l101 16v12q0 37 -16.5 57t-47.5 20q-34 0 -52.5 -20t-18.5 -57v-5h-148v13q0 61 27.5 107.5t77 71.5t114.5 25q100 0 157 -54t57 -150v-356h-130l-13 69h-5q-24 -29 -38.5 -43t-39.5 -25t-62 -11
q-72 0 -113.5 40.5zM183 133q16 -12 42 -12q36 0 60 19t24 50v41l-69 -11q-36 -6 -54.5 -18t-18.5 -35v-2q0 -20 16 -32zM276 620.5q-24 7.5 -51 19.5q-31 14 -42 14q-12 0 -17.5 -7.5t-5.5 -30.5h-85q-1 9 -1 26q0 58 21.5 83t65.5 25q25 0 49 -7.5t51 -19.5q32 -14 42 -14
q12 0 17.5 7.5t5.5 30.5h85q1 -9 1 -26q0 -58 -21.5 -83t-65.5 -25q-25 0 -49 7.5z" />
    <glyph glyph-name="ae" unicode="&#xe6;" horiz-adv-x="789" 
d="M59.5 30q-43.5 40 -43.5 106v3q0 65 46.5 115.5t145.5 65.5l101 16v12q0 37 -16.5 57t-47.5 20q-34 0 -52.5 -20t-18.5 -57v-5h-148v13q0 61 27.5 107.5t77 71.5t114.5 25q93 0 149 -47q61 47 145 47q65 0 117.5 -29t82.5 -80t30 -115v-87h-310v-49q0 -36 23 -58t61 -22
q34 0 55 22.5t21 57.5v3h146v-5q0 -59 -29 -106.5t-80 -74.5t-113 -27q-59 0 -99 20.5t-76 61.5q-39 -40 -84 -61t-103 -21q-78 0 -121.5 40zM285 140q24 19 24 50v41l-69 -11q-36 -6 -54.5 -18t-18.5 -35v-2q0 -20 16 -32t42 -12q36 0 60 19zM619 334v1q0 43 -22 68.5
t-58 25.5t-58 -25.5t-22 -68.5v-1h160z" />
    <glyph glyph-name="b" unicode="b" horiz-adv-x="512" 
d="M234.5 11q-33.5 21 -56.5 68h-3l-15 -79h-130v750h150v-279h3q19 47 51.5 68t80.5 21q84 0 129.5 -58.5t45.5 -165.5v-122q0 -107 -45.5 -165.5t-128.5 -58.5q-48 0 -81.5 21zM318.5 159.5q21.5 25.5 21.5 68.5v94q0 43 -22 68.5t-59 25.5t-58 -26t-21 -76v-78
q0 -49 21.5 -75.5t58.5 -26.5t58.5 25.5z" />
    <glyph glyph-name="c" unicode="c" horiz-adv-x="493" 
d="M129.5 19q-51.5 28 -80.5 77.5t-29 113.5v132q0 63 29 113t80.5 78t118.5 28q64 0 115.5 -28.5t81 -78.5t29.5 -112v-18h-148v5q0 41 -21 66.5t-56 25.5q-36 0 -57.5 -25.5t-21.5 -68.5v-102q0 -43 21.5 -68.5t57.5 -25.5q35 0 56 25.5t21 66.5v5h148v-18
q0 -62 -29.5 -112t-81 -78.5t-115.5 -28.5q-67 0 -118.5 28z" />
    <glyph glyph-name="cacute" unicode="&#x107;" horiz-adv-x="493" 
d="M129.5 19q-51.5 28 -80.5 77.5t-29 113.5v132q0 63 29 113t80.5 78t118.5 28q64 0 115.5 -28.5t81 -78.5t29.5 -112v-18h-148v5q0 41 -21 66.5t-56 25.5q-36 0 -57.5 -25.5t-21.5 -68.5v-102q0 -43 21.5 -68.5t57.5 -25.5q35 0 56 25.5t21 66.5v5h148v-18
q0 -62 -29.5 -112t-81 -78.5t-115.5 -28.5q-67 0 -118.5 28zM223 750h167l-116 -135h-71z" />
    <glyph glyph-name="ccaron" unicode="&#x10d;" horiz-adv-x="493" 
d="M129.5 19q-51.5 28 -80.5 77.5t-29 113.5v132q0 63 29 113t80.5 78t118.5 28q64 0 115.5 -28.5t81 -78.5t29.5 -112v-18h-148v5q0 41 -21 66.5t-56 25.5q-36 0 -57.5 -25.5t-21.5 -68.5v-102q0 -43 21.5 -68.5t57.5 -25.5q35 0 56 25.5t21 66.5v5h148v-18
q0 -62 -29.5 -112t-81 -78.5t-115.5 -28.5q-67 0 -118.5 28zM87 750h102l58 -64l58 64h102l-91 -135h-138z" />
    <glyph glyph-name="ccedilla" unicode="&#xe7;" horiz-adv-x="493" 
d="M129.5 19q-51.5 28 -80.5 77.5t-29 113.5v132q0 63 29 113t80.5 78t118.5 28q64 0 115.5 -28.5t81 -78.5t29.5 -112v-18h-148v5q0 41 -21 66.5t-56 25.5q-36 0 -57.5 -25.5t-21.5 -68.5v-102q0 -43 21.5 -68.5t57.5 -25.5q35 0 56 25.5t21 66.5v5h148v-18
q0 -62 -29.5 -112t-81 -78.5t-115.5 -28.5q-67 0 -118.5 28zM271 -200h-167l116 135h71z" />
    <glyph glyph-name="ccircumflex" unicode="&#x109;" horiz-adv-x="493" 
d="M129.5 19q-51.5 28 -80.5 77.5t-29 113.5v132q0 63 29 113t80.5 78t118.5 28q64 0 115.5 -28.5t81 -78.5t29.5 -112v-18h-148v5q0 41 -21 66.5t-56 25.5q-36 0 -57.5 -25.5t-21.5 -68.5v-102q0 -43 21.5 -68.5t57.5 -25.5q35 0 56 25.5t21 66.5v5h148v-18
q0 -62 -29.5 -112t-81 -78.5t-115.5 -28.5q-67 0 -118.5 28zM407 615h-102l-58 64l-58 -64h-102l91 135h138z" />
    <glyph glyph-name="cdotaccent" unicode="&#x10b;" horiz-adv-x="493" 
d="M129.5 19q-51.5 28 -80.5 77.5t-29 113.5v132q0 63 29 113t80.5 78t118.5 28q64 0 115.5 -28.5t81 -78.5t29.5 -112v-18h-148v5q0 41 -21 66.5t-56 25.5q-36 0 -57.5 -25.5t-21.5 -68.5v-102q0 -43 21.5 -68.5t57.5 -25.5q35 0 56 25.5t21 66.5v5h148v-18
q0 -62 -29.5 -112t-81 -78.5t-115.5 -28.5q-67 0 -118.5 28zM186 614q-24 24 -24 61t24 61t61 24q38 0 61.5 -23.5t23.5 -61.5q0 -37 -24 -61t-61 -24t-61 24z" />
    <glyph glyph-name="d" unicode="d" horiz-adv-x="512" 
d="M67.5 48.5q-45.5 58.5 -45.5 165.5v122q0 107 47.5 165.5t134.5 58.5q49 0 78.5 -21t46.5 -68h3v279h150v-750h-130l-15 79h-3q-23 -47 -56.5 -68t-81.5 -21q-83 0 -128.5 58.5zM311.5 160q20.5 26 20.5 76v78q0 49 -21.5 75.5t-59.5 26.5q-37 0 -58 -25t-21 -69v-94
q0 -43 22.5 -68.5t59.5 -25.5t57.5 26z" />
    <glyph glyph-name="dcaron" unicode="&#x10f;" horiz-adv-x="653" 
d="M67.5 48.5q-45.5 58.5 -45.5 165.5v122q0 107 47.5 165.5t134.5 58.5q49 0 78.5 -21t46.5 -68h3v279h150v-750h-130l-15 79h-3q-23 -47 -56.5 -68t-81.5 -21q-83 0 -128.5 58.5zM311.5 160q20.5 26 20.5 76v78q0 49 -21.5 75.5t-59.5 26.5q-37 0 -58 -25t-21 -69v-94
q0 -43 22.5 -68.5t59.5 -25.5t57.5 26zM522 750h137l-55 -175h-82v175z" />
    <glyph glyph-name="dcroat" unicode="&#x111;" horiz-adv-x="512" 
d="M67.5 48.5q-45.5 58.5 -45.5 165.5v122q0 107 47.5 165.5t134.5 58.5q49 0 78.5 -21t46.5 -68h3v124h-111v110h111v45h150v-45h31v-110h-31v-595h-130l-15 79h-3q-23 -47 -56.5 -68t-81.5 -21q-83 0 -128.5 58.5zM311.5 160q20.5 26 20.5 76v78q0 49 -21.5 75.5
t-59.5 26.5q-37 0 -58 -25t-21 -69v-94q0 -43 22.5 -68.5t59.5 -25.5t57.5 26z" />
    <glyph glyph-name="eth" unicode="&#xf0;" horiz-adv-x="500" 
d="M132.5 19q-52.5 29 -82.5 80t-30 115v72q0 64 28.5 115t78 80t109.5 29q57 0 94 -37q-16 59 -53 121l-126 -48l-27 65l110 43q-41 51 -95 96h170q29 -25 48 -49l91 35l27 -65l-74 -29q47 -75 63 -158t16 -188v-72q0 -69 -30 -122t-82.5 -82.5t-117.5 -29.5t-117.5 29z
M308 155.5q22 25.5 22 68.5v52q0 43 -22 68.5t-58 25.5t-58 -25.5t-22 -68.5v-52q0 -43 22 -68.5t58 -25.5t58 25.5z" />
    <glyph glyph-name="e" unicode="e" horiz-adv-x="500" 
d="M132 16.5q-53 26.5 -82.5 74t-29.5 107.5v138q0 64 30 115t82.5 80t117.5 29t117.5 -29t82.5 -80t30 -115v-87h-310v-49q0 -36 23 -58t61 -22q34 0 55 22.5t21 57.5v3h146v-5q0 -59 -29 -106.5t-80 -74.5t-113 -27q-69 0 -122 26.5zM330 334v1q0 43 -22 68.5t-58 25.5
t-58 -25.5t-22 -68.5v-1h160z" />
    <glyph glyph-name="eacute" unicode="&#xe9;" horiz-adv-x="500" 
d="M132 16.5q-53 26.5 -82.5 74t-29.5 107.5v138q0 64 30 115t82.5 80t117.5 29t117.5 -29t82.5 -80t30 -115v-87h-310v-49q0 -36 23 -58t61 -22q34 0 55 22.5t21 57.5v3h146v-5q0 -59 -29 -106.5t-80 -74.5t-113 -27q-69 0 -122 26.5zM330 334v1q0 43 -22 68.5t-58 25.5
t-58 -25.5t-22 -68.5v-1h160zM226 750h167l-116 -135h-71z" />
    <glyph glyph-name="ecaron" unicode="&#x11b;" horiz-adv-x="500" 
d="M132 16.5q-53 26.5 -82.5 74t-29.5 107.5v138q0 64 30 115t82.5 80t117.5 29t117.5 -29t82.5 -80t30 -115v-87h-310v-49q0 -36 23 -58t61 -22q34 0 55 22.5t21 57.5v3h146v-5q0 -59 -29 -106.5t-80 -74.5t-113 -27q-69 0 -122 26.5zM330 334v1q0 43 -22 68.5t-58 25.5
t-58 -25.5t-22 -68.5v-1h160zM90 750h102l58 -64l58 64h102l-91 -135h-138z" />
    <glyph glyph-name="ecircumflex" unicode="&#xea;" horiz-adv-x="500" 
d="M132 16.5q-53 26.5 -82.5 74t-29.5 107.5v138q0 64 30 115t82.5 80t117.5 29t117.5 -29t82.5 -80t30 -115v-87h-310v-49q0 -36 23 -58t61 -22q34 0 55 22.5t21 57.5v3h146v-5q0 -59 -29 -106.5t-80 -74.5t-113 -27q-69 0 -122 26.5zM330 334v1q0 43 -22 68.5t-58 25.5
t-58 -25.5t-22 -68.5v-1h160zM410 615h-102l-58 64l-58 -64h-102l91 135h138z" />
    <glyph glyph-name="uni1EBF" unicode="&#x1ebf;" horiz-adv-x="500" 
d="M132 16.5q-53 26.5 -82.5 74t-29.5 107.5v138q0 64 30 115t82.5 80t117.5 29t117.5 -29t82.5 -80t30 -115v-87h-310v-49q0 -36 23 -58t61 -22q34 0 55 22.5t21 57.5v3h146v-5q0 -59 -29 -106.5t-80 -74.5t-113 -27q-69 0 -122 26.5zM330 334v1q0 43 -22 68.5t-58 25.5
t-58 -25.5t-22 -68.5v-1h160zM181 750h138l91 -135h-102l-58 64l-58 -64h-102zM372 860h142l-99 -115h-60z" />
    <glyph glyph-name="uni1EC7" unicode="&#x1ec7;" horiz-adv-x="500" 
d="M132 16.5q-53 26.5 -82.5 74t-29.5 107.5v138q0 64 30 115t82.5 80t117.5 29t117.5 -29t82.5 -80t30 -115v-87h-310v-49q0 -36 23 -58t61 -22q34 0 55 22.5t21 57.5v3h146v-5q0 -59 -29 -106.5t-80 -74.5t-113 -27q-69 0 -122 26.5zM330 334v1q0 43 -22 68.5t-58 25.5
t-58 -25.5t-22 -68.5v-1h160zM194.5 -168.5q-21.5 21.5 -21.5 55.5t21.5 55.5t55.5 21.5t55.5 -21.5t21.5 -55.5t-21.5 -55.5t-55.5 -21.5t-55.5 21.5zM410 615h-102l-58 64l-58 -64h-102l91 135h138z" />
    <glyph glyph-name="uni1EC1" unicode="&#x1ec1;" horiz-adv-x="500" 
d="M132 16.5q-53 26.5 -82.5 74t-29.5 107.5v138q0 64 30 115t82.5 80t117.5 29t117.5 -29t82.5 -80t30 -115v-87h-310v-49q0 -36 23 -58t61 -22q34 0 55 22.5t21 57.5v3h146v-5q0 -59 -29 -106.5t-80 -74.5t-113 -27q-69 0 -122 26.5zM330 334v1q0 43 -22 68.5t-58 25.5
t-58 -25.5t-22 -68.5v-1h160zM181 750h138l91 -135h-102l-58 64l-58 -64h-102zM295 860h142l17 -115h-61z" />
    <glyph glyph-name="uni1EC3" unicode="&#x1ec3;" horiz-adv-x="500" 
d="M132 16.5q-53 26.5 -82.5 74t-29.5 107.5v138q0 64 30 115t82.5 80t117.5 29t117.5 -29t82.5 -80t30 -115v-87h-310v-49q0 -36 23 -58t61 -22q34 0 55 22.5t21 57.5v3h146v-5q0 -59 -29 -106.5t-80 -74.5t-113 -27q-69 0 -122 26.5zM330 334v1q0 43 -22 68.5t-58 25.5
t-58 -25.5t-22 -68.5v-1h160zM181 750h138l91 -135h-102l-58 64l-58 -64h-102zM409 778q11 6 11 19t-13.5 18.5t-42.5 5.5v79h14q138 0 138 -81q0 -62 -76 -72v-19h-66v43q24 1 35 7z" />
    <glyph glyph-name="uni1EC5" unicode="&#x1ec5;" horiz-adv-x="500" 
d="M132 16.5q-53 26.5 -82.5 74t-29.5 107.5v138q0 64 30 115t82.5 80t117.5 29t117.5 -29t82.5 -80t30 -115v-87h-310v-49q0 -36 23 -58t61 -22q34 0 55 22.5t21 57.5v3h146v-5q0 -59 -29 -106.5t-80 -74.5t-113 -27q-69 0 -122 26.5zM330 334v1q0 43 -22 68.5t-58 25.5
t-58 -25.5t-22 -68.5v-1h160zM410 615h-102l-58 64l-58 -64h-102l91 135h138zM280.5 796q-21.5 7 -47.5 18q-30 13 -37 13q-11 0 -16 -7t-5 -28h-78q-1 8 -1 23q0 53 19.5 76t60.5 23q22 0 41 -6t49 -18q12 -5 22.5 -9t16.5 -4q11 0 16 6.5t5 27.5h77q1 -8 1 -23
q0 -53 -19.5 -76t-59.5 -23q-23 0 -44.5 7z" />
    <glyph glyph-name="edieresis" unicode="&#xeb;" horiz-adv-x="500" 
d="M132 16.5q-53 26.5 -82.5 74t-29.5 107.5v138q0 64 30 115t82.5 80t117.5 29t117.5 -29t82.5 -80t30 -115v-87h-310v-49q0 -36 23 -58t61 -22q34 0 55 22.5t21 57.5v3h146v-5q0 -59 -29 -106.5t-80 -74.5t-113 -27q-69 0 -122 26.5zM330 334v1q0 43 -22 68.5t-58 25.5
t-58 -25.5t-22 -68.5v-1h160zM292 618q-22 22 -22 57t22 57t57 22t57 -22t22 -57t-22 -57t-57 -22t-57 22zM94.5 618q-22.5 22 -22.5 57t22.5 57t56.5 22q35 0 57 -22t22 -57t-22 -57t-57 -22q-34 0 -56.5 22z" />
    <glyph glyph-name="edotaccent" unicode="&#x117;" horiz-adv-x="500" 
d="M132 16.5q-53 26.5 -82.5 74t-29.5 107.5v138q0 64 30 115t82.5 80t117.5 29t117.5 -29t82.5 -80t30 -115v-87h-310v-49q0 -36 23 -58t61 -22q34 0 55 22.5t21 57.5v3h146v-5q0 -59 -29 -106.5t-80 -74.5t-113 -27q-69 0 -122 26.5zM330 334v1q0 43 -22 68.5t-58 25.5
t-58 -25.5t-22 -68.5v-1h160zM189 614q-24 24 -24 61t24 61t61 24q38 0 61.5 -23.5t23.5 -61.5q0 -37 -24 -61t-61 -24t-61 24z" />
    <glyph glyph-name="uni1EB9" unicode="&#x1eb9;" horiz-adv-x="500" 
d="M132 16.5q-53 26.5 -82.5 74t-29.5 107.5v138q0 64 30 115t82.5 80t117.5 29t117.5 -29t82.5 -80t30 -115v-87h-310v-49q0 -36 23 -58t61 -22q34 0 55 22.5t21 57.5v3h146v-5q0 -59 -29 -106.5t-80 -74.5t-113 -27q-69 0 -122 26.5zM330 334v1q0 43 -22 68.5t-58 25.5
t-58 -25.5t-22 -68.5v-1h160zM194.5 -168.5q-21.5 21.5 -21.5 55.5t21.5 55.5t55.5 21.5t55.5 -21.5t21.5 -55.5t-21.5 -55.5t-55.5 -21.5t-55.5 21.5z" />
    <glyph glyph-name="egrave" unicode="&#xe8;" horiz-adv-x="500" 
d="M132 16.5q-53 26.5 -82.5 74t-29.5 107.5v138q0 64 30 115t82.5 80t117.5 29t117.5 -29t82.5 -80t30 -115v-87h-310v-49q0 -36 23 -58t61 -22q34 0 55 22.5t21 57.5v3h146v-5q0 -59 -29 -106.5t-80 -74.5t-113 -27q-69 0 -122 26.5zM330 334v1q0 43 -22 68.5t-58 25.5
t-58 -25.5t-22 -68.5v-1h160zM213 615l-116 135h167l20 -135h-71z" />
    <glyph glyph-name="uni1EBB" unicode="&#x1ebb;" horiz-adv-x="500" 
d="M132 16.5q-53 26.5 -82.5 74t-29.5 107.5v138q0 64 30 115t82.5 80t117.5 29t117.5 -29t82.5 -80t30 -115v-87h-310v-49q0 -36 23 -58t61 -22q34 0 55 22.5t21 57.5v3h146v-5q0 -59 -29 -106.5t-80 -74.5t-113 -27q-69 0 -122 26.5zM330 334v1q0 43 -22 68.5t-58 25.5
t-58 -25.5t-22 -68.5v-1h160zM255.5 666.5q11.5 6.5 11.5 19.5t-13.5 19t-44.5 6v83h15q143 0 143 -85q0 -63 -79 -75v-19h-69v44q25 1 36.5 7.5z" />
    <glyph glyph-name="emacron" unicode="&#x113;" horiz-adv-x="500" 
d="M132 16.5q-53 26.5 -82.5 74t-29.5 107.5v138q0 64 30 115t82.5 80t117.5 29t117.5 -29t82.5 -80t30 -115v-87h-310v-49q0 -36 23 -58t61 -22q34 0 55 22.5t21 57.5v3h146v-5q0 -59 -29 -106.5t-80 -74.5t-113 -27q-69 0 -122 26.5zM330 334v1q0 43 -22 68.5t-58 25.5
t-58 -25.5t-22 -68.5v-1h160zM396 731v-110h-292v110h292z" />
    <glyph glyph-name="eogonek" unicode="&#x119;" horiz-adv-x="500" 
d="M299 -179q-69 0 -103.5 20.5t-34.5 57.5q0 51 76 91q-64 3 -113.5 30.5t-76.5 73.5t-27 104v138q0 64 30 115t82.5 80t117.5 29t117.5 -29t82.5 -80t30 -115v-87h-310v-49q0 -36 23 -58t61 -22q34 0 55 22.5t21 57.5v3h146v-5q0 -70 -41.5 -123.5t-109.5 -74.5
q-38 -42 -38 -66q0 -13 9 -23t30 -10v-79zM330 334v1q0 43 -22 68.5t-58 25.5t-58 -25.5t-22 -68.5v-1h160z" />
    <glyph glyph-name="uni1EBD" unicode="&#x1ebd;" horiz-adv-x="500" 
d="M132 16.5q-53 26.5 -82.5 74t-29.5 107.5v138q0 64 30 115t82.5 80t117.5 29t117.5 -29t82.5 -80t30 -115v-87h-310v-49q0 -36 23 -58t61 -22q34 0 55 22.5t21 57.5v3h146v-5q0 -59 -29 -106.5t-80 -74.5t-113 -27q-69 0 -122 26.5zM330 334v1q0 43 -22 68.5t-58 25.5
t-58 -25.5t-22 -68.5v-1h160zM283 620.5q-24 7.5 -51 19.5q-31 14 -42 14q-12 0 -17.5 -7.5t-5.5 -30.5h-85q-1 9 -1 26q0 58 21.5 83t65.5 25q25 0 49 -7.5t51 -19.5q32 -14 42 -14q12 0 17.5 7.5t5.5 30.5h85q1 -9 1 -26q0 -58 -21.5 -83t-65.5 -25q-25 0 -49 7.5z" />
    <glyph glyph-name="uni0259" unicode="&#x259;" horiz-adv-x="500" 
d="M368 533.5q53 -26.5 82.5 -74t29.5 -107.5v-138q0 -64 -30 -115t-82.5 -80t-117.5 -29t-117.5 29t-82.5 80t-30 115v87h310v49q0 36 -23 58t-61 22q-34 0 -55 -22.5t-21 -57.5v-3h-146v5q0 59 29 106.5t80 74.5t113 27q69 0 122 -26.5zM192 146.5q22 -25.5 58 -25.5
t58 25.5t22 68.5v1h-160v-1q0 -43 22 -68.5z" />
    <glyph glyph-name="f" unicode="f" horiz-adv-x="390" 
d="M146 709q51 51 153 51q35 0 73 -7v-138q-31 6 -53 6q-39 0 -56.5 -18t-17.5 -45v-8h127v-140h-127v-410h-150v410h-85v140h85v16q0 92 51 143z" />
    <glyph glyph-name="g" unicode="g" horiz-adv-x="510" 
d="M129.5 -165.5q-51.5 24.5 -78.5 67.5t-27 98v2h143q4 -25 23 -43t54 -18q41 0 63.5 26.5t22.5 71.5v78h-3q-18 -45 -50 -62t-83 -17q-78 0 -126 55.5t-48 158.5v84q0 107 47.5 165.5t134.5 58.5q48 0 79 -20.5t56 -68.5h3v79h140v-516q0 -64 -28.5 -115t-80.5 -80
t-119 -29q-71 0 -122.5 24.5zM309.5 198q20.5 26 20.5 76v40q0 49 -21.5 75.5t-59.5 26.5q-37 0 -58 -25t-21 -69v-56q0 -43 22.5 -68.5t59.5 -25.5t57.5 26z" />
    <glyph glyph-name="gbreve" unicode="&#x11f;" horiz-adv-x="510" 
d="M129.5 -165.5q-51.5 24.5 -78.5 67.5t-27 98v2h143q4 -25 23 -43t54 -18q41 0 63.5 26.5t22.5 71.5v78h-3q-18 -45 -50 -62t-83 -17q-78 0 -126 55.5t-48 158.5v84q0 107 47.5 165.5t134.5 58.5q48 0 79 -20.5t56 -68.5h3v79h140v-516q0 -64 -28.5 -115t-80.5 -80
t-119 -29q-71 0 -122.5 24.5zM309.5 198q20.5 26 20.5 76v40q0 49 -21.5 75.5t-59.5 26.5q-37 0 -58 -25t-21 -69v-56q0 -43 22.5 -68.5t59.5 -25.5t57.5 26zM142.5 653.5q-40.5 36.5 -35.5 96.5h88q-1 -23 16 -37t46 -14t45.5 14t15.5 37h84q5 -60 -35.5 -96.5
t-111.5 -36.5q-72 0 -112.5 36.5z" />
    <glyph glyph-name="gcaron" unicode="&#x1e7;" horiz-adv-x="510" 
d="M129.5 -165.5q-51.5 24.5 -78.5 67.5t-27 98v2h143q4 -25 23 -43t54 -18q41 0 63.5 26.5t22.5 71.5v78h-3q-18 -45 -50 -62t-83 -17q-78 0 -126 55.5t-48 158.5v84q0 107 47.5 165.5t134.5 58.5q48 0 79 -20.5t56 -68.5h3v79h140v-516q0 -64 -28.5 -115t-80.5 -80
t-119 -29q-71 0 -122.5 24.5zM309.5 198q20.5 26 20.5 76v40q0 49 -21.5 75.5t-59.5 26.5q-37 0 -58 -25t-21 -69v-56q0 -43 22.5 -68.5t59.5 -25.5t57.5 26zM95 750h102l58 -64l58 64h102l-91 -135h-138z" />
    <glyph glyph-name="gcircumflex" unicode="&#x11d;" horiz-adv-x="510" 
d="M129.5 -165.5q-51.5 24.5 -78.5 67.5t-27 98v2h143q4 -25 23 -43t54 -18q41 0 63.5 26.5t22.5 71.5v78h-3q-18 -45 -50 -62t-83 -17q-78 0 -126 55.5t-48 158.5v84q0 107 47.5 165.5t134.5 58.5q48 0 79 -20.5t56 -68.5h3v79h140v-516q0 -64 -28.5 -115t-80.5 -80
t-119 -29q-71 0 -122.5 24.5zM309.5 198q20.5 26 20.5 76v40q0 49 -21.5 75.5t-59.5 26.5q-37 0 -58 -25t-21 -69v-56q0 -43 22.5 -68.5t59.5 -25.5t57.5 26zM415 615h-102l-58 64l-58 -64h-102l91 135h138z" />
    <glyph glyph-name="uni0123" unicode="&#x123;" horiz-adv-x="510" 
d="M129.5 -165.5q-51.5 24.5 -78.5 67.5t-27 98v2h143q4 -25 23 -43t54 -18q41 0 63.5 26.5t22.5 71.5v78h-3q-18 -45 -50 -62t-83 -17q-78 0 -126 55.5t-48 158.5v84q0 107 47.5 165.5t134.5 58.5q48 0 79 -20.5t56 -68.5h3v79h140v-516q0 -64 -28.5 -115t-80.5 -80
t-119 -29q-71 0 -122.5 24.5zM309.5 198q20.5 26 20.5 76v40q0 49 -21.5 75.5t-59.5 26.5q-37 0 -58 -25t-21 -69v-56q0 -43 22.5 -68.5t59.5 -25.5t57.5 26zM198 706l52 116l48 -21l-32 -70q26 -3 41 -20.5t15 -44.5q0 -29 -19 -48t-48 -19t-48 19t-19 48q0 17 10 40z" />
    <glyph glyph-name="gdotaccent" unicode="&#x121;" horiz-adv-x="510" 
d="M129.5 -165.5q-51.5 24.5 -78.5 67.5t-27 98v2h143q4 -25 23 -43t54 -18q41 0 63.5 26.5t22.5 71.5v78h-3q-18 -45 -50 -62t-83 -17q-78 0 -126 55.5t-48 158.5v84q0 107 47.5 165.5t134.5 58.5q48 0 79 -20.5t56 -68.5h3v79h140v-516q0 -64 -28.5 -115t-80.5 -80
t-119 -29q-71 0 -122.5 24.5zM309.5 198q20.5 26 20.5 76v40q0 49 -21.5 75.5t-59.5 26.5q-37 0 -58 -25t-21 -69v-56q0 -43 22.5 -68.5t59.5 -25.5t57.5 26zM194 614q-24 24 -24 61t24 61t61 24q38 0 61.5 -23.5t23.5 -61.5q0 -37 -24 -61t-61 -24t-61 24z" />
    <glyph glyph-name="uni1E21" unicode="&#x1e21;" horiz-adv-x="510" 
d="M129.5 -165.5q-51.5 24.5 -78.5 67.5t-27 98v2h143q4 -25 23 -43t54 -18q41 0 63.5 26.5t22.5 71.5v78h-3q-18 -45 -50 -62t-83 -17q-78 0 -126 55.5t-48 158.5v84q0 107 47.5 165.5t134.5 58.5q48 0 79 -20.5t56 -68.5h3v79h140v-516q0 -64 -28.5 -115t-80.5 -80
t-119 -29q-71 0 -122.5 24.5zM309.5 198q20.5 26 20.5 76v40q0 49 -21.5 75.5t-59.5 26.5q-37 0 -58 -25t-21 -69v-56q0 -43 22.5 -68.5t59.5 -25.5t57.5 26zM401 731v-110h-292v110h292z" />
    <glyph glyph-name="h" unicode="h" horiz-adv-x="511" 
d="M30 750h150v-279h4q18 47 52 68t88 21q82 0 121 -50.5t39 -148.5v-361h-150v325q0 89 -72 89q-38 0 -60 -28t-22 -78v-308h-150v750z" />
    <glyph glyph-name="hbar" unicode="&#x127;" horiz-adv-x="511" 
d="M30 595h-30v110h30v45h150v-45h112v-110h-112v-124h4q18 47 52 68t88 21q82 0 121 -50.5t39 -148.5v-361h-150v325q0 89 -72 89q-38 0 -60 -28t-22 -78v-308h-150v595z" />
    <glyph glyph-name="hcircumflex" unicode="&#x125;" horiz-adv-x="511" 
d="M30 750h150v-279h4q18 47 52 68t88 21q82 0 121 -50.5t39 -148.5v-361h-150v325q0 89 -72 89q-38 0 -60 -28t-22 -78v-308h-150v750zM259 750h138l61 -135h-92l-38 62l-38 -62h-92z" />
    <glyph glyph-name="i" unicode="i" horiz-adv-x="210" 
d="M30 550h150v-550h-150v550zM44 614q-24 24 -24 61t24 61t61 24q38 0 61.5 -23.5t23.5 -61.5q0 -37 -24 -61t-61 -24t-61 24z" />
    <glyph glyph-name="dotlessi" unicode="&#x131;" horiz-adv-x="210" 
d="M180 0h-150v550h150v-550z" />
    <glyph glyph-name="iacute" unicode="&#xed;" horiz-adv-x="210" 
d="M180 0h-150v550h150v-550zM81 750h167l-116 -135h-71z" />
    <glyph glyph-name="icircumflex" unicode="&#xee;" horiz-adv-x="210" 
d="M180 0h-150v550h150v-550zM36 750h138l61 -135h-92l-38 62l-38 -62h-92z" />
    <glyph glyph-name="idieresis" unicode="&#xef;" horiz-adv-x="210" 
d="M180 0h-150v550h150v-550zM130.5 619q-21.5 21 -21.5 55t21.5 55t54.5 21q34 0 55 -21t21 -55t-21 -55t-55 -21q-33 0 -54.5 21zM-29.5 619q-21.5 21 -21.5 55t21.5 55t54.5 21q34 0 55 -21t21 -55t-21 -55t-55 -21q-33 0 -54.5 21z" />
    <glyph glyph-name="i.loclTRK" horiz-adv-x="210" 
d="M180 0h-150v550h150v-550zM44 614q-24 24 -24 61t24 61t61 24q38 0 61.5 -23.5t23.5 -61.5q0 -37 -24 -61t-61 -24t-61 24z" />
    <glyph glyph-name="uni1ECB" unicode="&#x1ecb;" horiz-adv-x="210" 
d="M30 550h150v-550h-150v550zM44 614q-24 24 -24 61t24 61t61 24q38 0 61.5 -23.5t23.5 -61.5q0 -37 -24 -61t-61 -24t-61 24zM49.5 -168.5q-21.5 21.5 -21.5 55.5t21.5 55.5t55.5 21.5t55.5 -21.5t21.5 -55.5t-21.5 -55.5t-55.5 -21.5t-55.5 21.5z" />
    <glyph glyph-name="igrave" unicode="&#xec;" horiz-adv-x="210" 
d="M180 0h-150v550h150v-550zM68 615l-116 135h167l20 -135h-71z" />
    <glyph glyph-name="uni1EC9" unicode="&#x1ec9;" horiz-adv-x="210" 
d="M180 0h-150v550h150v-550zM110.5 666.5q11.5 6.5 11.5 19.5t-13.5 19t-44.5 6v83h15q143 0 143 -85q0 -63 -79 -75v-19h-69v44q25 1 36.5 7.5z" />
    <glyph glyph-name="imacron" unicode="&#x12b;" horiz-adv-x="210" 
d="M180 0h-150v550h150v-550zM224 731v-110h-237v110h237z" />
    <glyph glyph-name="iogonek" unicode="&#x12f;" horiz-adv-x="210" 
d="M180 0q-39 -43 -39 -67q0 -13 9 -23t30 -10v-79l-27 -1q-69 0 -103.5 20.5t-34.5 57.5q0 57 98 102h-83v550h150v-550zM44 614q-24 24 -24 61t24 61t61 24q38 0 61.5 -23.5t23.5 -61.5q0 -37 -24 -61t-61 -24t-61 24z" />
    <glyph glyph-name="itilde" unicode="&#x129;" horiz-adv-x="210" 
d="M180 0h-150v550h150v-550zM125 621q-15 8 -33 22q-8 6 -15.5 10.5t-12.5 4.5q-8 0 -15 -8t-7 -29h-75l-1 19q0 53 22.5 81.5t64.5 28.5q17 0 32 -8t33 -22q8 -6 15.5 -10.5t12.5 -4.5q8 0 15 8t7 29h75l1 -19q0 -53 -22.5 -81.5t-64.5 -28.5q-17 0 -32 8z" />
    <glyph glyph-name="ij" unicode="&#x133;" horiz-adv-x="422" 
d="M30 550h150v-550h-150v550zM44 614q-24 24 -24 61t24 61t61 24q38 0 61.5 -23.5t23.5 -61.5q0 -37 -24 -61t-61 -24t-61 24zM142 -181v137h36q33 0 48.5 13.5t15.5 43.5v537h150v-556q0 -182 -170 -182q-28 0 -80 7zM256 614q-24 24 -24 61t24 61t61 24q38 0 61.5 -23.5
t23.5 -61.5q0 -37 -24 -61t-61 -24t-61 24z" />
    <glyph glyph-name="j" unicode="j" horiz-adv-x="212" 
d="M-68 -181v137h36q33 0 48.5 13.5t15.5 43.5v537h150v-556q0 -182 -170 -182q-28 0 -80 7zM46 614q-24 24 -24 61t24 61t61 24q38 0 61.5 -23.5t23.5 -61.5q0 -37 -24 -61t-61 -24t-61 24z" />
    <glyph glyph-name="uni0237" unicode="&#x237;" horiz-adv-x="212" 
d="M-68 -181v137h36q33 0 48.5 13.5t15.5 43.5v537h150v-556q0 -182 -170 -182q-28 0 -80 7z" />
    <glyph glyph-name="uni006A0301" horiz-adv-x="212" 
d="M-68 -181v137h36q33 0 48.5 13.5t15.5 43.5v537h150v-556q0 -182 -170 -182q-28 0 -80 7zM82 750h167l-116 -135h-71z" />
    <glyph glyph-name="jcircumflex" unicode="&#x135;" horiz-adv-x="212" 
d="M-68 -181v137h36q33 0 48.5 13.5t15.5 43.5v537h150v-556q0 -182 -170 -182q-28 0 -80 7zM37 750h138l61 -135h-92l-38 62l-38 -62h-92z" />
    <glyph glyph-name="k" unicode="k" horiz-adv-x="494" 
d="M30 750h150v-413h7l130 213h168l-170 -267l171 -283h-174l-126 224h-6v-224h-150v750z" />
    <glyph glyph-name="uni0137" unicode="&#x137;" horiz-adv-x="494" 
d="M30 750h150v-413h7l130 213h168l-170 -267l171 -283h-174l-126 224h-6v-224h-150v750zM304 -150l-52 -116l-48 21l32 70q-26 3 -41 20.5t-15 44.5q0 29 19 48t48 19t48 -19t19 -48q0 -17 -10 -40z" />
    <glyph glyph-name="kgreenlandic" unicode="&#x138;" horiz-adv-x="494" 
d="M30 550h150v-213h7l130 213h168l-170 -267l171 -283h-174l-126 224h-6v-224h-150v550z" />
    <glyph glyph-name="l" unicode="l" horiz-adv-x="210" 
d="M30 750h150v-750h-150v750z" />
    <glyph glyph-name="lacute" unicode="&#x13a;" horiz-adv-x="210" 
d="M30 750h150v-750h-150v750zM81 950h167l-116 -135h-71z" />
    <glyph glyph-name="lcaron" unicode="&#x13e;" horiz-adv-x="350" 
d="M219 750h137l-55 -175h-82v175zM30 750h150v-750h-150v750z" />
    <glyph glyph-name="uni013C" unicode="&#x13c;" horiz-adv-x="210" 
d="M30 750h150v-750h-150v750zM162 -150l-52 -116l-48 21l32 70q-26 3 -41 20.5t-15 44.5q0 29 19 48t48 19t48 -19t19 -48q0 -17 -10 -40z" />
    <glyph glyph-name="ldot" unicode="&#x140;" horiz-adv-x="359" 
d="M30 750h150v-750h-150v750zM220 287q-25 25 -25 65t25 65t65 25t65 -25t25 -65t-25 -65t-65 -25t-65 25z" />
    <glyph glyph-name="lslash" unicode="&#x142;" horiz-adv-x="314" 
d="M24 397l49 17v336h150v-285l72 25v-127l-72 -25v-338h-150v287l-49 -17v127z" />
    <glyph glyph-name="m" unicode="m" horiz-adv-x="783" 
d="M30 550h143v-79h5q23 47 57 68t81 21q104 0 138 -89h5q22 46 59 67.5t84 21.5q154 0 154 -195v-365h-150v329q0 42 -17 63.5t-47 21.5q-33 0 -53.5 -25.5t-20.5 -72.5v-316h-150v329q0 42 -17 63.5t-47 21.5q-33 0 -53.5 -25.5t-20.5 -72.5v-316h-150v550z" />
    <glyph glyph-name="n" unicode="n" horiz-adv-x="511" 
d="M262 414q-39 0 -60.5 -26t-21.5 -76v-312h-150v550h143v-79h5q24 49 56 69t90 20q82 0 121 -50.5t39 -148.5v-361h-150v325q0 89 -72 89z" />
    <glyph glyph-name="nacute" unicode="&#x144;" horiz-adv-x="511" 
d="M262 414q-39 0 -60.5 -26t-21.5 -76v-312h-150v550h143v-79h5q24 49 56 69t90 20q82 0 121 -50.5t39 -148.5v-361h-150v325q0 89 -72 89zM232 750h167l-116 -135h-71z" />
    <glyph glyph-name="napostrophe" unicode="&#x149;" horiz-adv-x="561" 
d="M80 550h143v-79h5q24 49 56 69t90 20q82 0 121 -50.5t39 -148.5v-361h-150v325q0 89 -72 89q-39 0 -60.5 -26t-21.5 -76v-312h-150v550zM25 582l33 71q-27 4 -42.5 22t-15.5 46q0 30 19.5 49t49.5 19t49.5 -19t19.5 -49q0 -18 -10 -42l-54 -119z" />
    <glyph glyph-name="ncaron" unicode="&#x148;" horiz-adv-x="511" 
d="M262 414q-39 0 -60.5 -26t-21.5 -76v-312h-150v550h143v-79h5q24 49 56 69t90 20q82 0 121 -50.5t39 -148.5v-361h-150v325q0 89 -72 89zM96 750h102l58 -64l58 64h102l-91 -135h-138z" />
    <glyph glyph-name="uni0146" unicode="&#x146;" horiz-adv-x="511" 
d="M262 414q-39 0 -60.5 -26t-21.5 -76v-312h-150v550h143v-79h5q24 49 56 69t90 20q82 0 121 -50.5t39 -148.5v-361h-150v325q0 89 -72 89zM313 -150l-52 -116l-48 21l32 70q-26 3 -41 20.5t-15 44.5q0 29 19 48t48 19t48 -19t19 -48q0 -17 -10 -40z" />
    <glyph glyph-name="uni0272" unicode="&#x272;" horiz-adv-x="513" 
d="M-68 -181v137h36q33 0 48.5 13.5t15.5 43.5v537h143v-79h5q24 49 56 69t90 20q82 0 121 -50.5t39 -148.5v-361h-150v325q0 89 -72 89q-39 0 -60.5 -26t-21.5 -76v-318q0 -182 -170 -182q-28 0 -80 7z" />
    <glyph glyph-name="ntilde" unicode="&#xf1;" horiz-adv-x="511" 
d="M262 414q-39 0 -60.5 -26t-21.5 -76v-312h-150v550h143v-79h5q24 49 56 69t90 20q82 0 121 -50.5t39 -148.5v-361h-150v325q0 89 -72 89zM289 620.5q-24 7.5 -51 19.5q-31 14 -42 14q-12 0 -17.5 -7.5t-5.5 -30.5h-85q-1 9 -1 26q0 58 21.5 83t65.5 25q25 0 49 -7.5
t51 -19.5q32 -14 42 -14q12 0 17.5 7.5t5.5 30.5h85q1 -9 1 -26q0 -58 -21.5 -83t-65.5 -25q-25 0 -49 7.5z" />
    <glyph glyph-name="eng" unicode="&#x14b;" horiz-adv-x="511" 
d="M234 -181v137h36q33 0 48.5 13.5t15.5 43.5v312q0 89 -72 89q-39 0 -60.5 -26t-21.5 -76v-312h-150v550h143v-79h5q24 49 56 69t90 20q82 0 121 -50.5t39 -148.5v-367q0 -182 -170 -182q-28 0 -80 7z" />
    <glyph glyph-name="o" unicode="o" horiz-adv-x="500" 
d="M132.5 19q-52.5 29 -82.5 80t-30 115v122q0 64 30 115t82.5 80t117.5 29t117.5 -29t82.5 -80t30 -115v-122q0 -64 -30 -115t-82.5 -80t-117.5 -29t-117.5 29zM192 155.5q22 -25.5 58 -25.5t58 25.5t22 68.5v102q0 43 -22 68.5t-58 25.5t-58 -25.5t-22 -68.5v-102
q0 -43 22 -68.5z" />
    <glyph glyph-name="oacute" unicode="&#xf3;" horiz-adv-x="500" 
d="M132.5 19q-52.5 29 -82.5 80t-30 115v122q0 64 30 115t82.5 80t117.5 29t117.5 -29t82.5 -80t30 -115v-122q0 -64 -30 -115t-82.5 -80t-117.5 -29t-117.5 29zM192 155.5q22 -25.5 58 -25.5t58 25.5t22 68.5v102q0 43 -22 68.5t-58 25.5t-58 -25.5t-22 -68.5v-102
q0 -43 22 -68.5zM226 750h167l-116 -135h-71z" />
    <glyph glyph-name="ocircumflex" unicode="&#xf4;" horiz-adv-x="500" 
d="M132.5 19q-52.5 29 -82.5 80t-30 115v122q0 64 30 115t82.5 80t117.5 29t117.5 -29t82.5 -80t30 -115v-122q0 -64 -30 -115t-82.5 -80t-117.5 -29t-117.5 29zM192 155.5q22 -25.5 58 -25.5t58 25.5t22 68.5v102q0 43 -22 68.5t-58 25.5t-58 -25.5t-22 -68.5v-102
q0 -43 22 -68.5zM410 615h-102l-58 64l-58 -64h-102l91 135h138z" />
    <glyph glyph-name="uni1ED1" unicode="&#x1ed1;" horiz-adv-x="500" 
d="M132.5 19q-52.5 29 -82.5 80t-30 115v122q0 64 30 115t82.5 80t117.5 29t117.5 -29t82.5 -80t30 -115v-122q0 -64 -30 -115t-82.5 -80t-117.5 -29t-117.5 29zM192 155.5q22 -25.5 58 -25.5t58 25.5t22 68.5v102q0 43 -22 68.5t-58 25.5t-58 -25.5t-22 -68.5v-102
q0 -43 22 -68.5zM181 750h138l91 -135h-102l-58 64l-58 -64h-102zM372 860h142l-99 -115h-60z" />
    <glyph glyph-name="uni1ED9" unicode="&#x1ed9;" horiz-adv-x="500" 
d="M132.5 19q-52.5 29 -82.5 80t-30 115v122q0 64 30 115t82.5 80t117.5 29t117.5 -29t82.5 -80t30 -115v-122q0 -64 -30 -115t-82.5 -80t-117.5 -29t-117.5 29zM192 155.5q22 -25.5 58 -25.5t58 25.5t22 68.5v102q0 43 -22 68.5t-58 25.5t-58 -25.5t-22 -68.5v-102
q0 -43 22 -68.5zM194.5 -168.5q-21.5 21.5 -21.5 55.5t21.5 55.5t55.5 21.5t55.5 -21.5t21.5 -55.5t-21.5 -55.5t-55.5 -21.5t-55.5 21.5zM410 615h-102l-58 64l-58 -64h-102l91 135h138z" />
    <glyph glyph-name="uni1ED3" unicode="&#x1ed3;" horiz-adv-x="500" 
d="M132.5 19q-52.5 29 -82.5 80t-30 115v122q0 64 30 115t82.5 80t117.5 29t117.5 -29t82.5 -80t30 -115v-122q0 -64 -30 -115t-82.5 -80t-117.5 -29t-117.5 29zM192 155.5q22 -25.5 58 -25.5t58 25.5t22 68.5v102q0 43 -22 68.5t-58 25.5t-58 -25.5t-22 -68.5v-102
q0 -43 22 -68.5zM181 750h138l91 -135h-102l-58 64l-58 -64h-102zM295 860h142l17 -115h-61z" />
    <glyph glyph-name="uni1ED5" unicode="&#x1ed5;" horiz-adv-x="500" 
d="M132.5 19q-52.5 29 -82.5 80t-30 115v122q0 64 30 115t82.5 80t117.5 29t117.5 -29t82.5 -80t30 -115v-122q0 -64 -30 -115t-82.5 -80t-117.5 -29t-117.5 29zM192 155.5q22 -25.5 58 -25.5t58 25.5t22 68.5v102q0 43 -22 68.5t-58 25.5t-58 -25.5t-22 -68.5v-102
q0 -43 22 -68.5zM181 750h138l91 -135h-102l-58 64l-58 -64h-102zM409 778q11 6 11 19t-13.5 18.5t-42.5 5.5v79h14q138 0 138 -81q0 -62 -76 -72v-19h-66v43q24 1 35 7z" />
    <glyph glyph-name="uni1ED7" unicode="&#x1ed7;" horiz-adv-x="500" 
d="M132.5 19q-52.5 29 -82.5 80t-30 115v122q0 64 30 115t82.5 80t117.5 29t117.5 -29t82.5 -80t30 -115v-122q0 -64 -30 -115t-82.5 -80t-117.5 -29t-117.5 29zM192 155.5q22 -25.5 58 -25.5t58 25.5t22 68.5v102q0 43 -22 68.5t-58 25.5t-58 -25.5t-22 -68.5v-102
q0 -43 22 -68.5zM410 615h-102l-58 64l-58 -64h-102l91 135h138zM280.5 796q-21.5 7 -47.5 18q-30 13 -37 13q-11 0 -16 -7t-5 -28h-78q-1 8 -1 23q0 53 19.5 76t60.5 23q22 0 41 -6t49 -18q12 -5 22.5 -9t16.5 -4q11 0 16 6.5t5 27.5h77q1 -8 1 -23q0 -53 -19.5 -76
t-59.5 -23q-23 0 -44.5 7z" />
    <glyph glyph-name="odieresis" unicode="&#xf6;" horiz-adv-x="500" 
d="M132.5 19q-52.5 29 -82.5 80t-30 115v122q0 64 30 115t82.5 80t117.5 29t117.5 -29t82.5 -80t30 -115v-122q0 -64 -30 -115t-82.5 -80t-117.5 -29t-117.5 29zM192 155.5q22 -25.5 58 -25.5t58 25.5t22 68.5v102q0 43 -22 68.5t-58 25.5t-58 -25.5t-22 -68.5v-102
q0 -43 22 -68.5zM292 618q-22 22 -22 57t22 57t57 22t57 -22t22 -57t-22 -57t-57 -22t-57 22zM94.5 618q-22.5 22 -22.5 57t22.5 57t56.5 22q35 0 57 -22t22 -57t-22 -57t-57 -22q-34 0 -56.5 22z" />
    <glyph glyph-name="uni1ECD" unicode="&#x1ecd;" horiz-adv-x="500" 
d="M132.5 19q-52.5 29 -82.5 80t-30 115v122q0 64 30 115t82.5 80t117.5 29t117.5 -29t82.5 -80t30 -115v-122q0 -64 -30 -115t-82.5 -80t-117.5 -29t-117.5 29zM192 155.5q22 -25.5 58 -25.5t58 25.5t22 68.5v102q0 43 -22 68.5t-58 25.5t-58 -25.5t-22 -68.5v-102
q0 -43 22 -68.5zM194.5 -168.5q-21.5 21.5 -21.5 55.5t21.5 55.5t55.5 21.5t55.5 -21.5t21.5 -55.5t-21.5 -55.5t-55.5 -21.5t-55.5 21.5z" />
    <glyph glyph-name="ograve" unicode="&#xf2;" horiz-adv-x="500" 
d="M132.5 19q-52.5 29 -82.5 80t-30 115v122q0 64 30 115t82.5 80t117.5 29t117.5 -29t82.5 -80t30 -115v-122q0 -64 -30 -115t-82.5 -80t-117.5 -29t-117.5 29zM192 155.5q22 -25.5 58 -25.5t58 25.5t22 68.5v102q0 43 -22 68.5t-58 25.5t-58 -25.5t-22 -68.5v-102
q0 -43 22 -68.5zM213 615l-116 135h167l20 -135h-71z" />
    <glyph glyph-name="uni1ECF" unicode="&#x1ecf;" horiz-adv-x="500" 
d="M132.5 19q-52.5 29 -82.5 80t-30 115v122q0 64 30 115t82.5 80t117.5 29t117.5 -29t82.5 -80t30 -115v-122q0 -64 -30 -115t-82.5 -80t-117.5 -29t-117.5 29zM192 155.5q22 -25.5 58 -25.5t58 25.5t22 68.5v102q0 43 -22 68.5t-58 25.5t-58 -25.5t-22 -68.5v-102
q0 -43 22 -68.5zM255.5 666.5q11.5 6.5 11.5 19.5t-13.5 19t-44.5 6v83h15q143 0 143 -85q0 -63 -79 -75v-19h-69v44q25 1 36.5 7.5z" />
    <glyph glyph-name="ohorn" unicode="&#x1a1;" horiz-adv-x="510" 
d="M132.5 19q-52.5 29 -82.5 80t-30 115v122q0 64 30 115t82.5 80t117.5 29q26 0 60 -8q26 -6 38 -6q60 0 60 59q0 28 -11 64h112q13 -45 13 -79q0 -41 -22 -71.5t-64 -46.5q44 -58 44 -136v-122q0 -64 -30 -115t-82.5 -80t-117.5 -29t-117.5 29zM192 155.5
q22 -25.5 58 -25.5t58 25.5t22 68.5v102q0 43 -22 68.5t-58 25.5t-58 -25.5t-22 -68.5v-102q0 -43 22 -68.5z" />
    <glyph glyph-name="uni1EDB" unicode="&#x1edb;" horiz-adv-x="510" 
d="M132.5 19q-52.5 29 -82.5 80t-30 115v122q0 64 30 115t82.5 80t117.5 29q26 0 60 -8q26 -6 38 -6q60 0 60 59q0 28 -11 64h112q13 -45 13 -79q0 -41 -22 -71.5t-64 -46.5q44 -58 44 -136v-122q0 -64 -30 -115t-82.5 -80t-117.5 -29t-117.5 29zM192 155.5
q22 -25.5 58 -25.5t58 25.5t22 68.5v102q0 43 -22 68.5t-58 25.5t-58 -25.5t-22 -68.5v-102q0 -43 22 -68.5zM228 750h167l-116 -135h-71z" />
    <glyph glyph-name="uni1EE3" unicode="&#x1ee3;" horiz-adv-x="510" 
d="M132.5 19q-52.5 29 -82.5 80t-30 115v122q0 64 30 115t82.5 80t117.5 29q26 0 60 -8q26 -6 38 -6q60 0 60 59q0 28 -11 64h112q13 -45 13 -79q0 -41 -22 -71.5t-64 -46.5q44 -58 44 -136v-122q0 -64 -30 -115t-82.5 -80t-117.5 -29t-117.5 29zM192 155.5
q22 -25.5 58 -25.5t58 25.5t22 68.5v102q0 43 -22 68.5t-58 25.5t-58 -25.5t-22 -68.5v-102q0 -43 22 -68.5zM195.5 -168.5q-21.5 21.5 -21.5 55.5t21.5 55.5t55.5 21.5t55.5 -21.5t21.5 -55.5t-21.5 -55.5t-55.5 -21.5t-55.5 21.5z" />
    <glyph glyph-name="uni1EDD" unicode="&#x1edd;" horiz-adv-x="510" 
d="M132.5 19q-52.5 29 -82.5 80t-30 115v122q0 64 30 115t82.5 80t117.5 29q26 0 60 -8q26 -6 38 -6q60 0 60 59q0 28 -11 64h112q13 -45 13 -79q0 -41 -22 -71.5t-64 -46.5q44 -58 44 -136v-122q0 -64 -30 -115t-82.5 -80t-117.5 -29t-117.5 29zM192 155.5
q22 -25.5 58 -25.5t58 25.5t22 68.5v102q0 43 -22 68.5t-58 25.5t-58 -25.5t-22 -68.5v-102q0 -43 22 -68.5zM215 615l-116 135h167l20 -135h-71z" />
    <glyph glyph-name="uni1EDF" unicode="&#x1edf;" horiz-adv-x="510" 
d="M132.5 19q-52.5 29 -82.5 80t-30 115v122q0 64 30 115t82.5 80t117.5 29q26 0 60 -8q26 -6 38 -6q60 0 60 59q0 28 -11 64h112q13 -45 13 -79q0 -41 -22 -71.5t-64 -46.5q44 -58 44 -136v-122q0 -64 -30 -115t-82.5 -80t-117.5 -29t-117.5 29zM192 155.5
q22 -25.5 58 -25.5t58 25.5t22 68.5v102q0 43 -22 68.5t-58 25.5t-58 -25.5t-22 -68.5v-102q0 -43 22 -68.5zM257.5 666.5q11.5 6.5 11.5 19.5t-13.5 19t-44.5 6v83h15q143 0 143 -85q0 -63 -79 -75v-19h-69v44q25 1 36.5 7.5z" />
    <glyph glyph-name="uni1EE1" unicode="&#x1ee1;" horiz-adv-x="510" 
d="M132.5 19q-52.5 29 -82.5 80t-30 115v122q0 64 30 115t82.5 80t117.5 29q26 0 60 -8q26 -6 38 -6q60 0 60 59q0 28 -11 64h112q13 -45 13 -79q0 -41 -22 -71.5t-64 -46.5q44 -58 44 -136v-122q0 -64 -30 -115t-82.5 -80t-117.5 -29t-117.5 29zM192 155.5
q22 -25.5 58 -25.5t58 25.5t22 68.5v102q0 43 -22 68.5t-58 25.5t-58 -25.5t-22 -68.5v-102q0 -43 22 -68.5zM261 621q-15 8 -33 22q-8 6 -15.5 10.5t-12.5 4.5q-8 0 -15 -8t-7 -29h-75l-1 19q0 53 22.5 81.5t64.5 28.5q17 0 32 -8t33 -22q8 -6 15.5 -10.5t12.5 -4.5
q8 0 15 8t7 29h75l1 -19q0 -53 -22.5 -81.5t-64.5 -28.5q-17 0 -32 8z" />
    <glyph glyph-name="ohungarumlaut" unicode="&#x151;" horiz-adv-x="500" 
d="M132.5 19q-52.5 29 -82.5 80t-30 115v122q0 64 30 115t82.5 80t117.5 29t117.5 -29t82.5 -80t30 -115v-122q0 -64 -30 -115t-82.5 -80t-117.5 -29t-117.5 29zM192 155.5q22 -25.5 58 -25.5t58 25.5t22 68.5v102q0 43 -22 68.5t-58 25.5t-58 -25.5t-22 -68.5v-102
q0 -43 22 -68.5zM304 750h167l-116 -135h-71zM129 750h167l-116 -135h-71z" />
    <glyph glyph-name="omacron" unicode="&#x14d;" horiz-adv-x="500" 
d="M132.5 19q-52.5 29 -82.5 80t-30 115v122q0 64 30 115t82.5 80t117.5 29t117.5 -29t82.5 -80t30 -115v-122q0 -64 -30 -115t-82.5 -80t-117.5 -29t-117.5 29zM192 155.5q22 -25.5 58 -25.5t58 25.5t22 68.5v102q0 43 -22 68.5t-58 25.5t-58 -25.5t-22 -68.5v-102
q0 -43 22 -68.5zM396 731v-110h-292v110h292z" />
    <glyph glyph-name="oslash" unicode="&#xf8;" horiz-adv-x="500" 
d="M170 3l-16 -29h-109l42 78q-32 31 -49.5 72t-17.5 90v122q0 64 30 115t82.5 80t117.5 29q40 0 81 -13l16 29h109l-41 -80q31 -30 48 -71t17 -89v-122q0 -64 -30 -115t-82.5 -80t-117.5 -29q-44 0 -80 13zM308 155.5q22 25.5 22 68.5v102q0 43 -22 68.5t-58 25.5
t-58 -25.5t-22 -68.5v-102q0 -43 22 -68.5t58 -25.5t58 25.5z" />
    <glyph glyph-name="otilde" unicode="&#xf5;" horiz-adv-x="500" 
d="M132.5 19q-52.5 29 -82.5 80t-30 115v122q0 64 30 115t82.5 80t117.5 29t117.5 -29t82.5 -80t30 -115v-122q0 -64 -30 -115t-82.5 -80t-117.5 -29t-117.5 29zM192 155.5q22 -25.5 58 -25.5t58 25.5t22 68.5v102q0 43 -22 68.5t-58 25.5t-58 -25.5t-22 -68.5v-102
q0 -43 22 -68.5zM283 620.5q-24 7.5 -51 19.5q-31 14 -42 14q-12 0 -17.5 -7.5t-5.5 -30.5h-85q-1 9 -1 26q0 58 21.5 83t65.5 25q25 0 49 -7.5t51 -19.5q32 -14 42 -14q12 0 17.5 7.5t5.5 30.5h85q1 -9 1 -26q0 -58 -21.5 -83t-65.5 -25q-25 0 -49 7.5z" />
    <glyph glyph-name="oe" unicode="&#x153;" horiz-adv-x="810" 
d="M132.5 19q-52.5 29 -82.5 80t-30 115v122q0 64 30 115t82.5 80t117.5 29q45 0 85 -14t70 -41q30 27 70 41t85 14q65 0 117.5 -29t82.5 -80t30 -115v-87h-310v-49q0 -36 23 -58t61 -22q34 0 55 22.5t21 57.5v3h146v-5q0 -59 -29 -106.5t-80 -74.5t-113 -27q-99 0 -162 52
q-30 -25 -69 -38.5t-83 -13.5q-65 0 -117.5 29zM308 155.5q22 25.5 22 68.5v102q0 43 -22 68.5t-58 25.5t-58 -25.5t-22 -68.5v-102q0 -43 22 -68.5t58 -25.5t58 25.5zM640 334v1q0 43 -22 68.5t-58 25.5t-58 -25.5t-22 -68.5v-1h160z" />
    <glyph glyph-name="p" unicode="p" horiz-adv-x="512" 
d="M30 550h140v-79h4q23 47 58 68t84 21q83 0 128.5 -58.5t45.5 -165.5v-122q0 -107 -47.5 -165.5t-134.5 -58.5q-48 0 -76 20t-48 67h-4v-257h-150v730zM319 159q21 25 21 69v94q0 43 -22.5 68.5t-59.5 25.5t-57.5 -26t-20.5 -76v-78q0 -49 21.5 -75.5t59.5 -26.5
q37 0 58 25z" />
    <glyph glyph-name="thorn" unicode="&#xfe;" horiz-adv-x="512" 
d="M232 10q-28 20 -48 67h-4v-257h-150v930h140v-279h4q23 47 58 68t84 21q83 0 128.5 -58.5t45.5 -165.5v-122q0 -107 -47.5 -165.5t-134.5 -58.5q-48 0 -76 20zM201.5 160.5q21.5 -26.5 59.5 -26.5q37 0 58 25t21 69v94q0 43 -22.5 68.5t-59.5 25.5t-57.5 -26t-20.5 -76
v-78q0 -49 21.5 -75.5z" />
    <glyph glyph-name="q" unicode="q" horiz-adv-x="510" 
d="M330 77h-4q-20 -47 -48 -67t-76 -20q-87 0 -134.5 58.5t-47.5 165.5v122q0 107 45.5 165.5t128.5 58.5q49 0 84 -21t58 -68h4v79h140v-730h-150v257zM308.5 160.5q21.5 26.5 21.5 75.5v78q0 50 -20.5 76t-57.5 26t-59.5 -25.5t-22.5 -68.5v-94q0 -44 21 -69t58 -25
q38 0 59.5 26.5z" />
    <glyph glyph-name="r" unicode="r" horiz-adv-x="355" 
d="M30 550h143v-101h3q11 62 42 86.5t75 24.5q32 0 52 -10v-150h-47q-67 0 -92.5 -29t-25.5 -85v-286h-150v550z" />
    <glyph glyph-name="racute" unicode="&#x155;" horiz-adv-x="355" 
d="M30 550h143v-101h3q11 62 42 86.5t75 24.5q32 0 52 -10v-150h-47q-67 0 -92.5 -29t-25.5 -85v-286h-150v550zM164 750h167l-116 -135h-71z" />
    <glyph glyph-name="rcaron" unicode="&#x159;" horiz-adv-x="355" 
d="M30 550h143v-101h3q11 62 42 86.5t75 24.5q32 0 52 -10v-150h-47q-67 0 -92.5 -29t-25.5 -85v-286h-150v550zM28 750h102l58 -64l58 64h102l-91 -135h-138z" />
    <glyph glyph-name="uni0157" unicode="&#x157;" horiz-adv-x="355" 
d="M30 550h143v-101h3q11 62 42 86.5t75 24.5q32 0 52 -10v-150h-47q-67 0 -92.5 -29t-25.5 -85v-286h-150v550zM167 -150l-52 -116l-48 21l32 70q-26 3 -41 20.5t-15 44.5q0 29 19 48t48 19t48 -19t19 -48q0 -17 -10 -40z" />
    <glyph glyph-name="s" unicode="s" horiz-adv-x="468" 
d="M79 34.5q-56 44.5 -56 126.5v26h150v-14q0 -29 17.5 -44.5t49.5 -15.5q26 0 40.5 10.5t14.5 29.5v2q0 28 -36 39l-121 39q-113 36 -113 152q0 84 56.5 129.5t151.5 45.5q94 0 150 -45.5t56 -119.5v-24h-149v15q0 22 -14.5 36.5t-44.5 14.5q-26 0 -40.5 -11t-14.5 -31v-1
q0 -16 10.5 -25.5t31.5 -15.5l112 -36q116 -38 116 -157q0 -83 -55.5 -126.5t-152.5 -43.5q-103 0 -159 44.5z" />
    <glyph glyph-name="sacute" unicode="&#x15b;" horiz-adv-x="468" 
d="M79 34.5q-56 44.5 -56 126.5v26h150v-14q0 -29 17.5 -44.5t49.5 -15.5q26 0 40.5 10.5t14.5 29.5v2q0 28 -36 39l-121 39q-113 36 -113 152q0 84 56.5 129.5t151.5 45.5q94 0 150 -45.5t56 -119.5v-24h-149v15q0 22 -14.5 36.5t-44.5 14.5q-26 0 -40.5 -11t-14.5 -31v-1
q0 -16 10.5 -25.5t31.5 -15.5l112 -36q116 -38 116 -157q0 -83 -55.5 -126.5t-152.5 -43.5q-103 0 -159 44.5zM210 750h167l-116 -135h-71z" />
    <glyph glyph-name="scaron" unicode="&#x161;" horiz-adv-x="468" 
d="M79 34.5q-56 44.5 -56 126.5v26h150v-14q0 -29 17.5 -44.5t49.5 -15.5q26 0 40.5 10.5t14.5 29.5v2q0 28 -36 39l-121 39q-113 36 -113 152q0 84 56.5 129.5t151.5 45.5q94 0 150 -45.5t56 -119.5v-24h-149v15q0 22 -14.5 36.5t-44.5 14.5q-26 0 -40.5 -11t-14.5 -31v-1
q0 -16 10.5 -25.5t31.5 -15.5l112 -36q116 -38 116 -157q0 -83 -55.5 -126.5t-152.5 -43.5q-103 0 -159 44.5zM74 750h102l58 -64l58 64h102l-91 -135h-138z" />
    <glyph glyph-name="scedilla" unicode="&#x15f;" horiz-adv-x="468" 
d="M79 34.5q-56 44.5 -56 126.5v26h150v-14q0 -29 17.5 -44.5t49.5 -15.5q26 0 40.5 10.5t14.5 29.5v2q0 28 -36 39l-121 39q-113 36 -113 152q0 84 56.5 129.5t151.5 45.5q94 0 150 -45.5t56 -119.5v-24h-149v15q0 22 -14.5 36.5t-44.5 14.5q-26 0 -40.5 -11t-14.5 -31v-1
q0 -16 10.5 -25.5t31.5 -15.5l112 -36q116 -38 116 -157q0 -83 -55.5 -126.5t-152.5 -43.5q-103 0 -159 44.5zM258 -200h-167l116 135h71z" />
    <glyph glyph-name="scircumflex" unicode="&#x15d;" horiz-adv-x="468" 
d="M79 34.5q-56 44.5 -56 126.5v26h150v-14q0 -29 17.5 -44.5t49.5 -15.5q26 0 40.5 10.5t14.5 29.5v2q0 28 -36 39l-121 39q-113 36 -113 152q0 84 56.5 129.5t151.5 45.5q94 0 150 -45.5t56 -119.5v-24h-149v15q0 22 -14.5 36.5t-44.5 14.5q-26 0 -40.5 -11t-14.5 -31v-1
q0 -16 10.5 -25.5t31.5 -15.5l112 -36q116 -38 116 -157q0 -83 -55.5 -126.5t-152.5 -43.5q-103 0 -159 44.5zM394 615h-102l-58 64l-58 -64h-102l91 135h138z" />
    <glyph glyph-name="uni0219" unicode="&#x219;" horiz-adv-x="468" 
d="M79 34.5q-56 44.5 -56 126.5v26h150v-14q0 -29 17.5 -44.5t49.5 -15.5q26 0 40.5 10.5t14.5 29.5v2q0 28 -36 39l-121 39q-113 36 -113 152q0 84 56.5 129.5t151.5 45.5q94 0 150 -45.5t56 -119.5v-24h-149v15q0 22 -14.5 36.5t-44.5 14.5q-26 0 -40.5 -11t-14.5 -31v-1
q0 -16 10.5 -25.5t31.5 -15.5l112 -36q116 -38 116 -157q0 -83 -55.5 -126.5t-152.5 -43.5q-103 0 -159 44.5zM291 -150l-52 -116l-48 21l32 70q-26 3 -41 20.5t-15 44.5q0 29 19 48t48 19t48 -19t19 -48q0 -17 -10 -40z" />
    <glyph glyph-name="germandbls" unicode="&#xdf;" horiz-adv-x="549" 
d="M377 195v2q0 26 -13.5 43.5t-40.5 39.5q-29 25 -43 43.5t-14 47.5t12.5 48.5t37.5 43.5q24 25 35 41.5t11 40.5v4q0 33 -24.5 54.5t-63.5 21.5q-45 0 -69.5 -28.5t-24.5 -74.5v-522h-150v528q0 108 67 170t180 62q63 0 114.5 -23t81.5 -64.5t30 -94.5v-8
q0 -40 -18.5 -66.5t-52.5 -55.5q-19 -15 -28 -25.5t-9 -21.5q0 -10 8.5 -19t27.5 -22q28 -21 47.5 -40.5t34 -52t14.5 -78.5v-8q0 -92 -67.5 -141.5t-190.5 -49.5v137q108 0 108 68z" />
    <glyph glyph-name="t" unicode="t" horiz-adv-x="381" 
d="M132.5 40q-42.5 45 -42.5 150v220h-80v140h80v125l150 25v-150h119v-140h-119v-193q0 -33 13.5 -52t51.5 -19q23 0 54 7v-147q-46 -11 -97 -11q-87 0 -129.5 45z" />
    <glyph glyph-name="tbar" unicode="&#x167;" horiz-adv-x="381" 
d="M132.5 40q-42.5 45 -42.5 150v66h-56v110h56v44h-80v140h80v125l150 25v-150h119v-140h-119v-44h86v-110h-86v-39q0 -33 13.5 -52t51.5 -19q23 0 54 7v-147q-46 -11 -97 -11q-87 0 -129.5 45z" />
    <glyph glyph-name="tcaron" unicode="&#x165;" horiz-adv-x="401" 
d="M132.5 40q-42.5 45 -42.5 150v220h-80v140h80v125l150 25v-150h119v-140h-119v-193q0 -33 13.5 -52t51.5 -19q23 0 54 7v-147q-46 -11 -97 -11q-87 0 -129.5 45zM279 750h131l-53 -162h-78v162z" />
    <glyph glyph-name="uni0163" unicode="&#x163;" horiz-adv-x="381" 
d="M132.5 40q-42.5 45 -42.5 150v220h-80v140h80v125l150 25v-150h119v-140h-119v-193q0 -33 13.5 -52t51.5 -19q23 0 54 7v-147q-46 -11 -97 -11q-87 0 -129.5 45zM245 -200h-167l116 135h71z" />
    <glyph glyph-name="uni021B" unicode="&#x21b;" horiz-adv-x="381" 
d="M132.5 40q-42.5 45 -42.5 150v220h-80v140h80v125l150 25v-150h119v-140h-119v-193q0 -33 13.5 -52t51.5 -19q23 0 54 7v-147q-46 -11 -97 -11q-87 0 -129.5 45zM278 -150l-52 -116l-48 21l32 70q-26 3 -41 20.5t-15 44.5q0 29 19 48t48 19t48 -19t19 -48q0 -17 -10 -40z
" />
    <glyph glyph-name="u" unicode="u" horiz-adv-x="506" 
d="M65 40q-38 50 -38 149v361h150v-325q0 -89 70 -89q37 0 58 26t21 76v312h150v-550h-130l-15 79h-4q-24 -48 -55.5 -68.5t-86.5 -20.5q-82 0 -120 50z" />
    <glyph glyph-name="uacute" unicode="&#xfa;" horiz-adv-x="506" 
d="M65 40q-38 50 -38 149v361h150v-325q0 -89 70 -89q37 0 58 26t21 76v312h150v-550h-130l-15 79h-4q-24 -48 -55.5 -68.5t-86.5 -20.5q-82 0 -120 50zM229 750h167l-116 -135h-71z" />
    <glyph glyph-name="ubreve" unicode="&#x16d;" horiz-adv-x="506" 
d="M65 40q-38 50 -38 149v361h150v-325q0 -89 70 -89q37 0 58 26t21 76v312h150v-550h-130l-15 79h-4q-24 -48 -55.5 -68.5t-86.5 -20.5q-82 0 -120 50zM140.5 653.5q-40.5 36.5 -35.5 96.5h88q-1 -23 16 -37t46 -14t45.5 14t15.5 37h84q5 -60 -35.5 -96.5t-111.5 -36.5
q-72 0 -112.5 36.5z" />
    <glyph glyph-name="ucircumflex" unicode="&#xfb;" horiz-adv-x="506" 
d="M65 40q-38 50 -38 149v361h150v-325q0 -89 70 -89q37 0 58 26t21 76v312h150v-550h-130l-15 79h-4q-24 -48 -55.5 -68.5t-86.5 -20.5q-82 0 -120 50zM413 615h-102l-58 64l-58 -64h-102l91 135h138z" />
    <glyph glyph-name="udieresis" unicode="&#xfc;" horiz-adv-x="506" 
d="M65 40q-38 50 -38 149v361h150v-325q0 -89 70 -89q37 0 58 26t21 76v312h150v-550h-130l-15 79h-4q-24 -48 -55.5 -68.5t-86.5 -20.5q-82 0 -120 50zM295 618q-22 22 -22 57t22 57t57 22t57 -22t22 -57t-22 -57t-57 -22t-57 22zM97.5 618q-22.5 22 -22.5 57t22.5 57
t56.5 22q35 0 57 -22t22 -57t-22 -57t-57 -22q-34 0 -56.5 22z" />
    <glyph glyph-name="uni1EE5" unicode="&#x1ee5;" horiz-adv-x="506" 
d="M65 40q-38 50 -38 149v361h150v-325q0 -89 70 -89q37 0 58 26t21 76v312h150v-550h-130l-15 79h-4q-24 -48 -55.5 -68.5t-86.5 -20.5q-82 0 -120 50zM197.5 -168.5q-21.5 21.5 -21.5 55.5t21.5 55.5t55.5 21.5t55.5 -21.5t21.5 -55.5t-21.5 -55.5t-55.5 -21.5t-55.5 21.5
z" />
    <glyph glyph-name="ugrave" unicode="&#xf9;" horiz-adv-x="506" 
d="M65 40q-38 50 -38 149v361h150v-325q0 -89 70 -89q37 0 58 26t21 76v312h150v-550h-130l-15 79h-4q-24 -48 -55.5 -68.5t-86.5 -20.5q-82 0 -120 50zM216 615l-116 135h167l20 -135h-71z" />
    <glyph glyph-name="uni1EE7" unicode="&#x1ee7;" horiz-adv-x="506" 
d="M65 40q-38 50 -38 149v361h150v-325q0 -89 70 -89q37 0 58 26t21 76v312h150v-550h-130l-15 79h-4q-24 -48 -55.5 -68.5t-86.5 -20.5q-82 0 -120 50zM258.5 666.5q11.5 6.5 11.5 19.5t-13.5 19t-44.5 6v83h15q143 0 143 -85q0 -63 -79 -75v-19h-69v44q25 1 36.5 7.5z" />
    <glyph glyph-name="uhorn" unicode="&#x1b0;" horiz-adv-x="538" 
d="M65 40q-38 50 -38 149v361h150v-325q0 -89 70 -89q37 0 58 26t21 76v312h36q31 0 48 14.5t17 42.5q0 26 -11 62h112q13 -45 13 -79q0 -36 -16.5 -64t-48.5 -44v-482h-130l-15 79h-4q-24 -48 -55.5 -68.5t-86.5 -20.5q-82 0 -120 50z" />
    <glyph glyph-name="uni1EE9" unicode="&#x1ee9;" horiz-adv-x="538" 
d="M65 40q-38 50 -38 149v361h150v-325q0 -89 70 -89q37 0 58 26t21 76v312h36q31 0 48 14.5t17 42.5q0 26 -11 62h112q13 -45 13 -79q0 -36 -16.5 -64t-48.5 -44v-482h-130l-15 79h-4q-24 -48 -55.5 -68.5t-86.5 -20.5q-82 0 -120 50zM229 750h167l-116 -135h-71z" />
    <glyph glyph-name="uni1EF1" unicode="&#x1ef1;" horiz-adv-x="538" 
d="M65 40q-38 50 -38 149v361h150v-325q0 -89 70 -89q37 0 58 26t21 76v312h36q31 0 48 14.5t17 42.5q0 26 -11 62h112q13 -45 13 -79q0 -36 -16.5 -64t-48.5 -44v-482h-130l-15 79h-4q-24 -48 -55.5 -68.5t-86.5 -20.5q-82 0 -120 50zM197.5 -168.5q-21.5 21.5 -21.5 55.5
t21.5 55.5t55.5 21.5t55.5 -21.5t21.5 -55.5t-21.5 -55.5t-55.5 -21.5t-55.5 21.5z" />
    <glyph glyph-name="uni1EEB" unicode="&#x1eeb;" horiz-adv-x="538" 
d="M65 40q-38 50 -38 149v361h150v-325q0 -89 70 -89q37 0 58 26t21 76v312h36q31 0 48 14.5t17 42.5q0 26 -11 62h112q13 -45 13 -79q0 -36 -16.5 -64t-48.5 -44v-482h-130l-15 79h-4q-24 -48 -55.5 -68.5t-86.5 -20.5q-82 0 -120 50zM216 615l-116 135h167l20 -135h-71z
" />
    <glyph glyph-name="uni1EED" unicode="&#x1eed;" horiz-adv-x="538" 
d="M65 40q-38 50 -38 149v361h150v-325q0 -89 70 -89q37 0 58 26t21 76v312h36q31 0 48 14.5t17 42.5q0 26 -11 62h112q13 -45 13 -79q0 -36 -16.5 -64t-48.5 -44v-482h-130l-15 79h-4q-24 -48 -55.5 -68.5t-86.5 -20.5q-82 0 -120 50zM258.5 637.5q11.5 6.5 11.5 19.5
t-13.5 19t-44.5 6v83h15q143 0 143 -85q0 -63 -79 -75v-19h-69v44q25 1 36.5 7.5z" />
    <glyph glyph-name="uni1EEF" unicode="&#x1eef;" horiz-adv-x="538" 
d="M65 40q-38 50 -38 149v361h150v-325q0 -89 70 -89q37 0 58 26t21 76v312h36q31 0 48 14.5t17 42.5q0 26 -11 62h112q13 -45 13 -79q0 -36 -16.5 -64t-48.5 -44v-482h-130l-15 79h-4q-24 -48 -55.5 -68.5t-86.5 -20.5q-82 0 -120 50zM273 621q-15 8 -33 22
q-8 6 -15.5 10.5t-12.5 4.5q-8 0 -15 -8t-7 -29h-75l-1 19q0 53 22.5 81.5t64.5 28.5q17 0 32 -8t33 -22q8 -6 15.5 -10.5t12.5 -4.5q8 0 15 8t7 29h75l1 -19q0 -53 -22.5 -81.5t-64.5 -28.5q-17 0 -32 8z" />
    <glyph glyph-name="uhungarumlaut" unicode="&#x171;" horiz-adv-x="506" 
d="M65 40q-38 50 -38 149v361h150v-325q0 -89 70 -89q37 0 58 26t21 76v312h150v-550h-130l-15 79h-4q-24 -48 -55.5 -68.5t-86.5 -20.5q-82 0 -120 50zM307 750h167l-116 -135h-71zM132 750h167l-116 -135h-71z" />
    <glyph glyph-name="umacron" unicode="&#x16b;" horiz-adv-x="506" 
d="M65 40q-38 50 -38 149v361h150v-325q0 -89 70 -89q37 0 58 26t21 76v312h150v-550h-130l-15 79h-4q-24 -48 -55.5 -68.5t-86.5 -20.5q-82 0 -120 50zM399 731v-110h-292v110h292z" />
    <glyph glyph-name="uogonek" unicode="&#x173;" horiz-adv-x="506" 
d="M65 40q-38 50 -38 149v361h150v-325q0 -89 70 -89q37 0 58 26t21 76v312h150v-550q-39 -43 -39 -67q0 -13 9 -23t30 -10v-79l-27 -1q-69 0 -103.5 20.5t-34.5 57.5q0 57 98 102h-63l-15 79h-4q-24 -48 -55.5 -68.5t-86.5 -20.5q-82 0 -120 50z" />
    <glyph glyph-name="uring" unicode="&#x16f;" horiz-adv-x="506" 
d="M65 40q-38 50 -38 149v361h150v-325q0 -89 70 -89q37 0 58 26t21 76v312h150v-550h-130l-15 79h-4q-24 -48 -55.5 -68.5t-86.5 -20.5q-82 0 -120 50zM178 625q-28 25 -28 66t28 66t75 25t75 -25t28 -66t-28 -66t-75 -25t-75 25zM279.5 669q10.5 9 10.5 22t-10.5 22
t-26.5 9t-26.5 -9t-10.5 -22t10.5 -22t26.5 -9t26.5 9z" />
    <glyph glyph-name="utilde" unicode="&#x169;" horiz-adv-x="506" 
d="M65 40q-38 50 -38 149v361h150v-325q0 -89 70 -89q37 0 58 26t21 76v312h150v-550h-130l-15 79h-4q-24 -48 -55.5 -68.5t-86.5 -20.5q-82 0 -120 50zM286 620.5q-24 7.5 -51 19.5q-31 14 -42 14q-12 0 -17.5 -7.5t-5.5 -30.5h-85q-1 9 -1 26q0 58 21.5 83t65.5 25
q25 0 49 -7.5t51 -19.5q32 -14 42 -14q12 0 17.5 7.5t5.5 30.5h85q1 -9 1 -26q0 -58 -21.5 -83t-65.5 -25q-25 0 -49 7.5z" />
    <glyph glyph-name="v" unicode="v" horiz-adv-x="520" 
d="M11 550h159l91 -370h4l91 370h153l-148 -550h-203z" />
    <glyph glyph-name="w" unicode="w" horiz-adv-x="782" 
d="M17 550h159l56 -370h4l81 370h154l81 -370h4l56 370h153l-113 -550h-192l-67 287h-4l-69 -287h-191z" />
    <glyph glyph-name="wacute" unicode="&#x1e83;" horiz-adv-x="782" 
d="M17 550h159l56 -370h4l81 370h154l81 -370h4l56 370h153l-113 -550h-192l-67 287h-4l-69 -287h-191zM367 750h167l-116 -135h-71z" />
    <glyph glyph-name="wcircumflex" unicode="&#x175;" horiz-adv-x="782" 
d="M17 550h159l56 -370h4l81 370h154l81 -370h4l56 370h153l-113 -550h-192l-67 287h-4l-69 -287h-191zM551 615h-102l-58 64l-58 -64h-102l91 135h138z" />
    <glyph glyph-name="wdieresis" unicode="&#x1e85;" horiz-adv-x="782" 
d="M17 550h159l56 -370h4l81 370h154l81 -370h4l56 370h153l-113 -550h-192l-67 287h-4l-69 -287h-191zM433 618q-22 22 -22 57t22 57t57 22t57 -22t22 -57t-22 -57t-57 -22t-57 22zM235.5 618q-22.5 22 -22.5 57t22.5 57t56.5 22q35 0 57 -22t22 -57t-22 -57t-57 -22
q-34 0 -56.5 22z" />
    <glyph glyph-name="wgrave" unicode="&#x1e81;" horiz-adv-x="782" 
d="M17 550h159l56 -370h4l81 370h154l81 -370h4l56 370h153l-113 -550h-192l-67 287h-4l-69 -287h-191zM354 615l-116 135h167l20 -135h-71z" />
    <glyph glyph-name="x" unicode="x" horiz-adv-x="531" 
d="M183 276l-162 274h169l81 -144h5l84 144h150l-159 -267l169 -283h-169l-91 153h-5l-94 -153h-150z" />
    <glyph glyph-name="y" unicode="y" horiz-adv-x="520" 
d="M36 -172v142q51 -17 87 -17q49 0 70.5 15.5t29.5 48.5l1 3h-71l-142 530h159l91 -370h4l91 370h153l-146 -539q-20 -75 -46.5 -117.5t-68.5 -61.5t-111 -19q-45 0 -101 15z" />
    <glyph glyph-name="yacute" unicode="&#xfd;" horiz-adv-x="520" 
d="M36 -172v142q51 -17 87 -17q49 0 70.5 15.5t29.5 48.5l1 3h-71l-142 530h159l91 -370h4l91 370h153l-146 -539q-20 -75 -46.5 -117.5t-68.5 -61.5t-111 -19q-45 0 -101 15zM236 750h167l-116 -135h-71z" />
    <glyph glyph-name="ycircumflex" unicode="&#x177;" horiz-adv-x="520" 
d="M36 -172v142q51 -17 87 -17q49 0 70.5 15.5t29.5 48.5l1 3h-71l-142 530h159l91 -370h4l91 370h153l-146 -539q-20 -75 -46.5 -117.5t-68.5 -61.5t-111 -19q-45 0 -101 15zM420 615h-102l-58 64l-58 -64h-102l91 135h138z" />
    <glyph glyph-name="ydieresis" unicode="&#xff;" horiz-adv-x="520" 
d="M36 -172v142q51 -17 87 -17q49 0 70.5 15.5t29.5 48.5l1 3h-71l-142 530h159l91 -370h4l91 370h153l-146 -539q-20 -75 -46.5 -117.5t-68.5 -61.5t-111 -19q-45 0 -101 15zM302 618q-22 22 -22 57t22 57t57 22t57 -22t22 -57t-22 -57t-57 -22t-57 22zM104.5 618
q-22.5 22 -22.5 57t22.5 57t56.5 22q35 0 57 -22t22 -57t-22 -57t-57 -22q-34 0 -56.5 22z" />
    <glyph glyph-name="uni1EF5" unicode="&#x1ef5;" horiz-adv-x="520" 
d="M36 -172v142q51 -17 87 -17q49 0 70.5 15.5t29.5 48.5l1 3h-71l-142 530h159l91 -370h4l91 370h153l-146 -539q-20 -75 -46.5 -117.5t-68.5 -61.5t-111 -19q-45 0 -101 15zM404.5 -168.5q-21.5 21.5 -21.5 55.5t21.5 55.5t55.5 21.5t55.5 -21.5t21.5 -55.5t-21.5 -55.5
t-55.5 -21.5t-55.5 21.5z" />
    <glyph glyph-name="ygrave" unicode="&#x1ef3;" horiz-adv-x="520" 
d="M36 -172v142q51 -17 87 -17q49 0 70.5 15.5t29.5 48.5l1 3h-71l-142 530h159l91 -370h4l91 370h153l-146 -539q-20 -75 -46.5 -117.5t-68.5 -61.5t-111 -19q-45 0 -101 15zM223 615l-116 135h167l20 -135h-71z" />
    <glyph glyph-name="uni1EF7" unicode="&#x1ef7;" horiz-adv-x="520" 
d="M36 -172v142q51 -17 87 -17q49 0 70.5 15.5t29.5 48.5l1 3h-71l-142 530h159l91 -370h4l91 370h153l-146 -539q-20 -75 -46.5 -117.5t-68.5 -61.5t-111 -19q-45 0 -101 15zM265.5 666.5q11.5 6.5 11.5 19.5t-13.5 19t-44.5 6v83h15q143 0 143 -85q0 -63 -79 -75v-19h-69
v44q25 1 36.5 7.5z" />
    <glyph glyph-name="uni0233" unicode="&#x233;" horiz-adv-x="520" 
d="M36 -172v142q51 -17 87 -17q49 0 70.5 15.5t29.5 48.5l1 3h-71l-142 530h159l91 -370h4l91 370h153l-146 -539q-20 -75 -46.5 -117.5t-68.5 -61.5t-111 -19q-45 0 -101 15zM406 731v-110h-292v110h292z" />
    <glyph glyph-name="uni1EF9" unicode="&#x1ef9;" horiz-adv-x="520" 
d="M36 -172v142q51 -17 87 -17q49 0 70.5 15.5t29.5 48.5l1 3h-71l-142 530h159l91 -370h4l91 370h153l-146 -539q-20 -75 -46.5 -117.5t-68.5 -61.5t-111 -19q-45 0 -101 15zM293 620.5q-24 7.5 -51 19.5q-31 14 -42 14q-12 0 -17.5 -7.5t-5.5 -30.5h-85q-1 9 -1 26
q0 58 21.5 83t65.5 25q25 0 49 -7.5t51 -19.5q32 -14 42 -14q12 0 17.5 7.5t5.5 30.5h85q1 -9 1 -26q0 -58 -21.5 -83t-65.5 -25q-25 0 -49 7.5z" />
    <glyph glyph-name="z" unicode="z" horiz-adv-x="462" 
d="M24 123l220 288h-216v139h402v-124l-221 -289h229v-137h-414v123z" />
    <glyph glyph-name="zacute" unicode="&#x17a;" horiz-adv-x="462" 
d="M24 123l220 288h-216v139h402v-124l-221 -289h229v-137h-414v123zM207 750h167l-116 -135h-71z" />
    <glyph glyph-name="zcaron" unicode="&#x17e;" horiz-adv-x="462" 
d="M24 123l220 288h-216v139h402v-124l-221 -289h229v-137h-414v123zM71 750h102l58 -64l58 64h102l-91 -135h-138z" />
    <glyph glyph-name="zdotaccent" unicode="&#x17c;" horiz-adv-x="462" 
d="M24 123l220 288h-216v139h402v-124l-221 -289h229v-137h-414v123zM170 614q-24 24 -24 61t24 61t61 24q38 0 61.5 -23.5t23.5 -61.5q0 -37 -24 -61t-61 -24t-61 24z" />
    <glyph glyph-name="uniA78C" unicode="&#xa78c;" horiz-adv-x="210" 
d="M30 750h150v-498h-150v498z" />
    <glyph glyph-name="oslash.bold" horiz-adv-x="500" 
d="M171 2l-17 -28h-109l42 78q-32 31 -49.5 72t-17.5 90v122q0 64 30 115t82.5 80t117.5 29q40 0 81 -13l16 29h109l-42 -79q31 -31 48.5 -72t17.5 -89v-122q0 -64 -30 -115t-82.5 -80t-117.5 -29q-43 0 -79 12zM175 188l106 226q-13 6 -31 6q-36 0 -58 -25.5t-22 -68.5
v-102q0 -18 5 -36zM250 130q36 0 58 25.5t22 68.5v102q0 17 -5 35l-106 -225q15 -6 31 -6z" />
    <glyph glyph-name="f.001" horiz-adv-x="385" 
d="M145.5 708.5q50.5 51.5 148.5 51.5q35 0 73 -7v-138q-31 6 -53 6q-35 0 -52 -18.5t-17 -44.5v-8h197v-140h-197v-410h-150v410h-85v140h85v16q0 91 50.5 142.5z" />
    <glyph glyph-name="cacute.loclPLK" horiz-adv-x="493" 
d="M129.5 19q-51.5 28 -80.5 77.5t-29 113.5v132q0 63 29 113t80.5 78t118.5 28q64 0 115.5 -28.5t81 -78.5t29.5 -112v-18h-148v5q0 41 -21 66.5t-56 25.5q-36 0 -57.5 -25.5t-21.5 -68.5v-102q0 -43 21.5 -68.5t57.5 -25.5q35 0 56 25.5t21 66.5v5h148v-18
q0 -62 -29.5 -112t-81 -78.5t-115.5 -28.5q-67 0 -118.5 28zM203 750h167l-96 -135h-71v135z" />
    <glyph glyph-name="nacute.loclPLK" horiz-adv-x="511" 
d="M262 414q-39 0 -60.5 -26t-21.5 -76v-312h-150v550h143v-79h5q24 49 56 69t90 20q82 0 121 -50.5t39 -148.5v-361h-150v325q0 89 -72 89zM212 750h167l-96 -135h-71v135z" />
    <glyph glyph-name="oacute.loclPLK" horiz-adv-x="500" 
d="M132.5 19q-52.5 29 -82.5 80t-30 115v122q0 64 30 115t82.5 80t117.5 29t117.5 -29t82.5 -80t30 -115v-122q0 -64 -30 -115t-82.5 -80t-117.5 -29t-117.5 29zM192 155.5q22 -25.5 58 -25.5t58 25.5t22 68.5v102q0 43 -22 68.5t-58 25.5t-58 -25.5t-22 -68.5v-102
q0 -43 22 -68.5zM206 750h167l-96 -135h-71v135z" />
    <glyph glyph-name="sacute.loclPLK" horiz-adv-x="468" 
d="M79 34.5q-56 44.5 -56 126.5v26h150v-14q0 -29 17.5 -44.5t49.5 -15.5q26 0 40.5 10.5t14.5 29.5v2q0 28 -36 39l-121 39q-113 36 -113 152q0 84 56.5 129.5t151.5 45.5q94 0 150 -45.5t56 -119.5v-24h-149v15q0 22 -14.5 36.5t-44.5 14.5q-26 0 -40.5 -11t-14.5 -31v-1
q0 -16 10.5 -25.5t31.5 -15.5l112 -36q116 -38 116 -157q0 -83 -55.5 -126.5t-152.5 -43.5q-103 0 -159 44.5zM190 750h167l-96 -135h-71v135z" />
    <glyph glyph-name="zacute.loclPLK" horiz-adv-x="462" 
d="M24 123l220 288h-216v139h402v-124l-221 -289h229v-137h-414v123zM187 750h167l-96 -135h-71v135z" />
    <glyph glyph-name="A.sups" horiz-adv-x="385" 
d="M114 750h157l114 -495h-146l-6 52h-89l-8 -52h-136zM215 403l-26 188l-28 -188h54z" />
    <glyph glyph-name="B.sups" horiz-adv-x="408" 
d="M32 750h207q62 0 99.5 -35t37.5 -89v-48q0 -45 -26 -71q36 -27 36 -79v-49q0 -52 -38 -88t-99 -36h-217v495zM259 375q5 7 5 24v18q0 15 -4 23t-18 8h-89v-80h89q12 0 17 7zM248.5 567q4.5 6 4.5 22v17q0 16 -3.5 23.5t-17.5 7.5h-79v-76h79q12 0 16.5 6z" />
    <glyph glyph-name="C.sups" horiz-adv-x="407" 
d="M74 297q-49 47 -49 131v154q0 82 49 128.5t129 46.5q79 0 128.5 -46t50.5 -129v-27h-121v24q0 29 -16 47t-42 18t-42 -18t-16 -47v-151q0 -29 16 -46.5t42 -17.5t42 17.5t16 46.5v41h121v-41q0 -83 -49.5 -130.5t-129.5 -47.5t-129 47z" />
    <glyph glyph-name="D.sups" horiz-adv-x="416" 
d="M32 750h180q80 0 129.5 -47.5t49.5 -130.5v-139q0 -83 -49.5 -130.5t-129.5 -47.5h-180v495zM253.5 386q15.5 18 15.5 47v140q0 28 -15.5 46t-41.5 18h-59v-269h59q26 0 41.5 18z" />
    <glyph glyph-name="E.sups" horiz-adv-x="357" 
d="M32 750h291v-113h-170v-67h150v-113h-150v-89h180v-113h-301v495z" />
    <glyph glyph-name="F.sups" horiz-adv-x="367" 
d="M32 750h318v-113h-197v-94h175v-113h-175v-175h-121v495z" />
    <glyph glyph-name="G.sups" horiz-adv-x="406" 
d="M74 297q-49 47 -49 131v154q0 82 49 128.5t129 46.5q79 0 128.5 -46t50.5 -129v-27h-121v24q0 29 -16 47t-42 18t-42 -18t-16 -47v-151q0 -29 16 -46.5t42 -17.5q24 0 39 14t18 39h-57v109h192v-109h-13q-4 -78 -52.5 -122.5t-126.5 -44.5q-80 0 -129 47z" />
    <glyph glyph-name="H.sups" horiz-adv-x="452" 
d="M299 439h-146v-184h-121v495h121v-199h146v199h121v-495h-121v184z" />
    <glyph glyph-name="I.sups" horiz-adv-x="185" 
d="M32 750h121v-495h-121v495z" />
    <glyph glyph-name="J.sups" horiz-adv-x="370" 
d="M63.5 289q-44.5 39 -44.5 109v41h121v-41q0 -15 10.5 -23t29.5 -8t29 8t10 23v352h122v-352q0 -70 -44.5 -109t-116.5 -39t-116.5 39z" />
    <glyph glyph-name="K.sups" horiz-adv-x="443" 
d="M32 750h121v-206l146 206h144l-166 -224l170 -271h-150l-144 241v-241h-121v495z" />
    <glyph glyph-name="L.sups" horiz-adv-x="328" 
d="M32 752h121v-384h169v-113h-290v497z" />
    <glyph glyph-name="M.sups" horiz-adv-x="507" 
d="M32 750h170l53 -218l54 218h166v-495h-123v267l-64 -267h-68l-66 267v-267h-122v495z" />
    <glyph glyph-name="N.sups" horiz-adv-x="429" 
d="M32 750h107l137 -234v234h121v-495h-108l-136 234v-234h-121v495z" />
    <glyph glyph-name="O.sups" horiz-adv-x="408" 
d="M74.5 296q-49.5 47 -49.5 130v153q0 83 49.5 130.5t129.5 47.5q81 0 130 -47t49 -131v-153q0 -83 -49.5 -130t-129.5 -47t-129.5 47zM246 379.5q16 17.5 16 46.5v153q0 29 -16 47t-42 18t-42 -18t-16 -47v-153q0 -29 16 -46.5t42 -17.5t42 17.5z" />
    <glyph glyph-name="P.sups" horiz-adv-x="427" 
d="M32 750h188q183 0 183 -160v-2q0 -83 -51 -121t-132 -38h-67v-174h-121v495zM266 553.5q15 11.5 15 33.5v3q0 23 -14.5 35t-41.5 12h-72v-95h72q26 0 41 11.5z" />
    <glyph glyph-name="Q.sups" horiz-adv-x="408" 
d="M205 161q-29 25 -29 80v10q-69 8 -110 53.5t-41 121.5v153q0 83 49.5 130.5t129.5 47.5q81 0 130 -47t49 -131v-153q0 -74 -38.5 -119t-104.5 -55q1 -17 15 -22.5t40 -5.5h37v-88h-42q-56 0 -85 25zM246 379.5q16 17.5 16 46.5v153q0 29 -16 47t-42 18t-42 -18t-16 -47
v-153q0 -29 16 -46.5t42 -17.5t42 17.5z" />
    <glyph glyph-name="R.sups" horiz-adv-x="415" 
d="M32 750h189q79 0 126 -37t47 -127v-4q0 -45 -17 -82t-46 -56l71 -189h-131l-57 163h-16h-45v-163h-121v495zM272 582v4q0 51 -47 51h-72v-106h72q47 0 47 51z" />
    <glyph glyph-name="S.sups" horiz-adv-x="404" 
d="M73.5 288q-53.5 39 -53.5 115v43h121v-29q0 -27 18 -41t53 -14q51 0 51 30q0 12 -4 19t-22 16.5t-61 27.5q-54 23 -84 41.5t-46.5 46t-16.5 69.5q0 66 47.5 105.5t125.5 39.5q81 0 127.5 -42t46.5 -113v-25h-121v17q0 50 -60 50q-21 0 -33 -8.5t-12 -23.5q0 -14 16.5 -25
t68.5 -32q71 -28 103 -53t39 -47t7 -59q0 -75 -48 -111t-126 -36q-83 0 -136.5 39z" />
    <glyph glyph-name="T.sups" horiz-adv-x="355" 
d="M115 636h-109v113h343v-113h-113v-382h-121v382z" />
    <glyph glyph-name="U.sups" horiz-adv-x="416" 
d="M78.5 296q-49.5 47 -49.5 130v324h121v-324q0 -29 16 -46.5t42 -17.5t42 17.5t16 46.5v324h121v-324q0 -83 -49.5 -130t-129.5 -47t-129.5 47z" />
    <glyph glyph-name="V.sups" horiz-adv-x="416" 
d="M0 750h143l68 -339l70 339h135l-131 -495h-155z" />
    <glyph glyph-name="W.sups" horiz-adv-x="575" 
d="M8 750h139l34 -300l39 300h141l38 -293l35 293h133l-100 -495h-141l-38 262l-39 -262h-141z" />
    <glyph glyph-name="X.sups" horiz-adv-x="437" 
d="M135 503l-127 247h146l70 -152l70 152h135l-128 -247l131 -248h-146l-73 156l-74 -156h-134z" />
    <glyph glyph-name="Y.sups" horiz-adv-x="382" 
d="M130 437l-134 313h138l59 -152l59 152h134l-135 -314v-181h-121v182z" />
    <glyph glyph-name="Z.sups" horiz-adv-x="376" 
d="M22 343l172 294h-172v113h332v-80l-178 -302h178v-113h-332v88z" />
    <glyph glyph-name="ordfeminine" unicode="&#xaa;" horiz-adv-x="350" 
d="M41 368q-31 30 -31 78v2q0 49 34 86.5t109 48.5l75 12v9q0 27 -12.5 42t-35.5 15q-25 0 -38.5 -15t-13.5 -42v-4h-111v10q0 69 45.5 110.5t117.5 41.5q74 0 117 -40.5t43 -111.5v-265h-97l-10 51h-4q-16 -20 -27 -31t-30 -19t-47 -8q-53 0 -84 30zM133.5 444
q11.5 -9 31.5 -9q27 0 45 14t18 37v30l-51 -7q-27 -4 -41 -13t-14 -27v-1q0 -15 11.5 -24z" />
    <glyph glyph-name="ordmasculine" unicode="&#xba;" horiz-adv-x="362" 
d="M94 358.5q-39 21.5 -61.5 59.5t-22.5 85v91q0 48 22.5 86t61.5 59.5t87 21.5t87.5 -21.5t61.5 -59.5t22 -86v-91q0 -47 -22.5 -85t-61.5 -59.5t-87 -21.5t-87 21.5zM138.5 460q16.5 -19 42.5 -19q27 0 43.5 19t16.5 51v76q0 32 -16.5 51t-43.5 19q-26 0 -42.5 -19
t-16.5 -51v-76q0 -32 16.5 -51z" />
    <glyph glyph-name="uni0394" unicode="&#x394;" horiz-adv-x="565" 
d="M379 750l186 -750h-565l186 750h193zM364 120l-86 441l-88 -441h174z" />
    <glyph glyph-name="uni03A9" unicode="&#x3a9;" horiz-adv-x="562" 
d="M415.5 729q58.5 -31 91.5 -89t33 -137v-216q0 -106 -67 -157h77v-130h-249v150q89 16 89 117v236q0 53 -30 85t-79 32t-79 -32t-30 -85v-236q0 -101 89 -117v-150h-249v130h77q-67 51 -67 157v216q0 79 33 137t91.5 89t134.5 31t134.5 -31z" />
    <glyph glyph-name="uni03BC" unicode="&#x3bc;" horiz-adv-x="501" 
d="M30 550h150v-325q0 -89 70 -89q37 0 58 26t21 76v312h150v-550h-130l-15 79h-4q-24 -48 -55.5 -68.5t-86.5 -20.5h-8v-170h-150v730z" />
    <glyph glyph-name="pi" unicode="&#x3c0;" horiz-adv-x="630" 
d="M397 40q-41 45 -41 150v220h-89l-36 -410h-153l36 410h-102v140h596v-140h-106v-193q0 -33 13.5 -52t51.5 -19q15 0 31 3v-148q-36 -6 -74 -6q-86 0 -127 45z" />
    <glyph glyph-name="zero" unicode="0" 
d="M149.5 21q-58.5 31 -91.5 89t-33 137v256q0 79 33 137t91.5 89t134.5 31t134.5 -31t91.5 -89t33 -137v-256q0 -79 -33 -137t-91.5 -89t-134.5 -31t-134.5 31zM363 162q30 32 30 85v256q0 53 -30 85t-79 32t-79 -32t-30 -85v-256q0 -53 30 -85t79 -32t79 32z" />
    <glyph glyph-name="one" unicode="1" horiz-adv-x="441" 
d="M38 140h113v470h-113v140h263v-610h125v-140h-388v140z" />
    <glyph glyph-name="two" unicode="2" horiz-adv-x="525" 
d="M29.5 177q10.5 33 53 75.5t136.5 106.5q59 40 87.5 72t35 54.5t6.5 50.5v2q0 38 -21.5 60t-63.5 22q-43 0 -65 -21.5t-22 -59.5v-39h-150v39q0 102 64 161.5t173 59.5q108 0 171.5 -60t63.5 -163v-2q0 -52 -12 -93.5t-52.5 -89t-121.5 -101.5q-60 -40 -89 -64t-39 -47
h324v-140h-489v91q0 53 10.5 86z" />
    <glyph glyph-name="three" unicode="3" horiz-adv-x="562" 
d="M87.5 48.5q-67.5 58.5 -67.5 168.5v33h150v-26q0 -49 27 -73t82 -24q53 0 80.5 22.5t27.5 62.5v10q0 92 -98 92h-111v129h109q85 0 85 89v6q0 38 -24 61.5t-63 23.5q-47 0 -71 -24t-24 -70v-29h-150v38q0 67 31 117.5t86.5 77.5t127.5 27q108 0 172.5 -55.5t64.5 -156.5
v-3q0 -53 -23 -94t-64 -68q48 -23 75 -63.5t27 -98.5v-5q0 -108 -66.5 -167t-188.5 -59q-127 0 -194.5 58.5z" />
    <glyph glyph-name="four" unicode="4" horiz-adv-x="556" 
d="M323 134h-303v133l142 483h156l-139 -476h144v165h148v-165h76v-140h-76v-134h-148v134z" />
    <glyph glyph-name="five" unicode="5" horiz-adv-x="528" 
d="M85.5 52q-63.5 62 -63.5 172h150q0 -49 25 -73t68 -24t67 27t24 83v32q0 51 -25 80.5t-67 29.5q-39 0 -63.5 -22t-24.5 -60v-5h-148v91l31 367h427v-140h-301l-11 -146q40 52 121 52q59 0 107 -27t76 -81t28 -132v-46q0 -118 -64.5 -179t-175.5 -61q-117 0 -180.5 62z
" />
    <glyph glyph-name="six" unicode="6" horiz-adv-x="546" 
d="M512 536v-19h-150v12q0 43 -19.5 68.5t-71.5 25.5q-53 0 -74.5 -28.5t-21.5 -85.5v-82q40 53 129 53q100 0 158.5 -62.5t58.5 -177.5q0 -77 -30.5 -133.5t-86.5 -86.5t-130 -30t-130.5 29.5t-87.5 84.5t-31 129v273q0 130 65.5 192t182.5 62q239 0 239 -224zM200 155.5
q25 -28.5 73 -28.5t73 28.5t25 79.5t-25 79.5t-72 28.5q-46 0 -72.5 -28.5t-26.5 -79.5t25 -79.5z" />
    <glyph glyph-name="seven" unicode="7" horiz-adv-x="508" 
d="M311 610h-287v140h464v-131l-234 -619h-173z" />
    <glyph glyph-name="eight" unicode="8" horiz-adv-x="566" 
d="M92 49.5q-67 59.5 -67 162.5q0 62 26 105t73 68q-41 25 -63.5 65t-22.5 94q0 65 30.5 114t86 75.5t128.5 26.5t128.5 -26.5t86 -75.5t30.5 -114q0 -54 -22.5 -94t-63.5 -65q47 -25 73 -68t26 -105q0 -103 -67 -162.5t-191 -59.5t-191 59.5zM363.5 152.5
q27.5 25.5 27.5 70.5q0 48 -29 71.5t-79 23.5t-79 -23.5t-29 -71.5q0 -45 27.5 -70.5t80.5 -25.5t80.5 25.5zM351.5 469.5q26.5 22.5 26.5 64.5q0 40 -25 63t-70 23t-70 -23t-25 -63q0 -42 26.5 -64.5t68.5 -22.5t68.5 22.5z" />
    <glyph glyph-name="nine" unicode="9" horiz-adv-x="546" 
d="M34 214v19h150v-12q0 -43 19.5 -68.5t71.5 -25.5q53 0 74.5 28.5t21.5 85.5v82q-40 -53 -129 -53q-100 0 -158.5 62.5t-58.5 177.5q0 77 30.5 133.5t86.5 86.5t130 30t130.5 -29.5t87.5 -84.5t31 -129v-273q0 -130 -65.5 -192t-182.5 -62q-239 0 -239 224zM200 435.5
q25 -28.5 72 -28.5q46 0 72.5 28.5t26.5 79.5t-25 79.5t-73 28.5t-73 -28.5t-25 -79.5t25 -79.5z" />
    <glyph glyph-name="uni24FF" unicode="&#x24ff;" horiz-adv-x="798" 
d="M226.5 30q-77.5 40 -122 110t-44.5 156v158q0 86 44.5 156t122 110t172.5 40t172.5 -40t122 -110t44.5 -156v-158q0 -86 -44.5 -156t-122 -110t-172.5 -40t-172.5 40zM532.5 170q51.5 49 51.5 130v152q0 80 -51.5 129t-133.5 49t-133 -49t-51 -129v-152q0 -81 51 -130
t133 -49t133.5 49zM352.5 250q-18.5 19 -18.5 50v152q0 30 18.5 49t46.5 19t47 -19t19 -49v-152q0 -31 -19 -50t-47 -19t-46.5 19z" />
    <glyph glyph-name="uni2776" unicode="&#x2776;" horiz-adv-x="798" 
d="M226.5 30q-77.5 40 -122 110t-44.5 156v158q0 86 44.5 156t122 110t172.5 40t172.5 -40t122 -110t44.5 -156v-158q0 -86 -44.5 -156t-122 -110t-172.5 -40t-172.5 40zM542 127v110h-81v386h-206v-110h87v-276h-87v-110h287z" />
    <glyph glyph-name="uni2777" unicode="&#x2777;" horiz-adv-x="798" 
d="M226.5 30q-77.5 40 -122 110t-44.5 156v158q0 86 44.5 156t122 110t172.5 40t172.5 -40t122 -110t44.5 -156v-158q0 -86 -44.5 -156t-122 -110t-172.5 -40t-172.5 40zM576 124v105h-220q15 19 74 56q87 53 115 97t28 93v2q0 68 -49 108.5t-127 40.5q-77 0 -124 -41.5
t-47 -116.5v-25h113v15q0 34 16.5 50.5t46.5 16.5q28 0 42.5 -14t14.5 -35q0 -16 -6.5 -30t-29 -33.5t-67.5 -47.5q-67 -42 -95.5 -71t-34 -50t-5.5 -59v-61h355z" />
    <glyph glyph-name="uni2778" unicode="&#x2778;" horiz-adv-x="798" 
d="M226.5 30q-77.5 40 -122 110t-44.5 156v158q0 86 44.5 156t122 110t172.5 40t172.5 -40t122 -110t44.5 -156v-158q0 -86 -44.5 -156t-122 -110t-172.5 -40t-172.5 40zM537.5 158.5q48.5 37.5 48.5 106.5v2q0 44 -18.5 71t-52.5 43q28 19 44 46t16 61v1q0 67 -45 104
t-127 37h-1q-83 0 -129.5 -42t-46.5 -114v-17h108v18q0 24 17.5 40t48.5 16h1q29 0 44.5 -13t15.5 -37v-1q0 -30 -13 -43.5t-41 -13.5h-81v-92h82q33 0 48.5 -13t15.5 -43v-5q0 -24 -19 -37t-54 -13h-1q-37 0 -57.5 18t-20.5 47v11h-108v-16q0 -74 49 -116.5t138 -42.5h1
q89 0 137.5 37.5z" />
    <glyph glyph-name="uni2779" unicode="&#x2779;" horiz-adv-x="798" 
d="M226.5 30q-77.5 40 -122 110t-44.5 156v158q0 86 44.5 156t122 110t172.5 40t172.5 -40t122 -110t44.5 -156v-158q0 -86 -44.5 -156t-122 -110t-172.5 -40t-172.5 40zM534 127v86h54v101h-54v106h-107v-106h-95l85 309h-116l-92 -314v-96h218v-86h107z" />
    <glyph glyph-name="uni277A" unicode="&#x277a;" horiz-adv-x="798" 
d="M226.5 30q-77.5 40 -122 110t-44.5 156v158q0 86 44.5 156t122 110t172.5 40t172.5 -40t122 -110t44.5 -156v-158q0 -86 -44.5 -156t-122 -110t-172.5 -40t-172.5 40zM527.5 165.5q50.5 41.5 50.5 117.5v30q0 51 -22.5 87t-58.5 54t-76 18q-53 0 -80 -35l7 92h199v97
h-302l-21 -242v-60h118v3q0 25 16 39.5t42 14.5q28 0 44.5 -19.5t16.5 -52.5v-22q0 -32 -16 -48.5t-44 -16.5t-44.5 15t-16.5 42h-119q0 -71 50.5 -113t130.5 -42q75 0 125.5 41.5z" />
    <glyph glyph-name="uni277B" unicode="&#x277b;" horiz-adv-x="798" 
d="M226.5 30q-77.5 40 -122 110t-44.5 156v158q0 86 44.5 156t122 110t172.5 40t172.5 -40t122 -110t44.5 -156v-158q0 -86 -44.5 -156t-122 -110t-172.5 -40t-172.5 40zM352 237q-18 18 -18 48v2q0 30 18 48t47 18t46.5 -18t17.5 -48v-2q0 -30 -17.5 -48t-46.5 -18t-47 18z
M530 165q50 45 50 118v2q0 71 -42.5 115t-108.5 44q-65 0 -95 -42v63q0 29 17.5 47t45.5 18t44.5 -14.5t16.5 -37.5v-10h117v13q0 67 -48.5 107.5t-127.5 40.5q-83 0 -132.5 -47.5t-49.5 -130.5v-150q0 -86 49 -133.5t133 -47.5q81 0 131 45z" />
    <glyph glyph-name="uni277C" unicode="&#x277c;" horiz-adv-x="798" 
d="M226.5 30q-77.5 40 -122 110t-44.5 156v158q0 86 44.5 156t122 110t172.5 40t172.5 -40t122 -110t44.5 -156v-158q0 -86 -44.5 -156t-122 -110t-172.5 -40t-172.5 40zM408 127l154 410v86h-326v-107h201l-151 -389h122z" />
    <glyph glyph-name="uni277D" unicode="&#x277d;" horiz-adv-x="798" 
d="M226.5 30q-77.5 40 -122 110t-44.5 156v158q0 86 44.5 156t122 110t172.5 40t172.5 -40t122 -110t44.5 -156v-158q0 -86 -44.5 -156t-122 -110t-172.5 -40t-172.5 40zM347 232q-19 17 -19 44v1q0 30 18.5 45t51.5 15h1q33 0 52 -15t19 -45v-1q0 -27 -19.5 -44t-51.5 -17
h-1q-32 0 -51 17zM534 160q51 40 51 107v1q0 77 -75 113q66 36 66 105v1q0 64 -48.5 103t-128.5 39h-1q-80 0 -128.5 -39t-48.5 -103v-1q0 -69 67 -105q-75 -36 -75 -113v-1q0 -67 50.5 -107t134.5 -40h1q84 0 135 40zM353.5 439.5q-17.5 14.5 -17.5 39.5v1q0 24 17 39
t45 15h1q28 0 45 -15t17 -39v-1q0 -25 -17.5 -39.5t-44.5 -14.5h-1q-27 0 -44.5 14.5z" />
    <glyph glyph-name="uni277E" unicode="&#x277e;" horiz-adv-x="798" 
d="M226.5 30q-77.5 40 -122 110t-44.5 156v158q0 86 44.5 156t122 110t172.5 40t172.5 -40t122 -110t44.5 -156v-158q0 -86 -44.5 -156t-122 -110t-172.5 -40t-172.5 40zM530.5 168.5q49.5 47.5 49.5 130.5v150q0 86 -49 133.5t-133 47.5q-82 0 -131.5 -45.5t-49.5 -119.5
v-1q0 -71 42.5 -114.5t108.5 -43.5q65 0 95 42v-63q0 -29 -17.5 -47t-45.5 -18t-44.5 14.5t-16.5 37.5v10h-117v-13q0 -67 48.5 -107.5t127.5 -40.5q83 0 132.5 47.5zM351.5 415q-17.5 18 -17.5 48v2q0 30 17.5 48t46.5 18t47 -18t18 -48v-2q0 -30 -18 -48t-47 -18t-46.5 18
z" />
    <glyph glyph-name="uni24EA" unicode="&#x24ea;" horiz-adv-x="798" 
d="M226.5 30q-77.5 40 -122 110t-44.5 156v158q0 86 44.5 156t122 110t172.5 40t172.5 -40t122 -110t44.5 -156v-158q0 -86 -44.5 -156t-122 -110t-172.5 -40t-172.5 40zM537 91.5q60 29.5 93 85t33 129.5v138q0 74 -33 129.5t-93 85t-138 29.5t-138 -29.5t-93 -85
t-33 -129.5v-138q0 -74 33 -129.5t93 -85t138 -29.5t138 29.5zM265 170q-51 49 -51 130v152q0 80 51 129t133 49t133.5 -49t51.5 -129v-152q0 -81 -51.5 -130t-133.5 -49t-133 49zM445 250q19 19 19 50v152q0 30 -19 49t-47 19t-46.5 -19t-18.5 -49v-152q0 -31 18.5 -50
t46.5 -19t47 19z" />
    <glyph glyph-name="uni2460" unicode="&#x2460;" horiz-adv-x="798" 
d="M226.5 30q-77.5 40 -122 110t-44.5 156v158q0 86 44.5 156t122 110t172.5 40t172.5 -40t122 -110t44.5 -156v-158q0 -86 -44.5 -156t-122 -110t-172.5 -40t-172.5 40zM537 91.5q60 29.5 93 85t33 129.5v138q0 74 -33 129.5t-93 85t-138 29.5t-138 -29.5t-93 -85
t-33 -129.5v-138q0 -74 33 -129.5t93 -85t138 -29.5t138 29.5zM256 237h87v276h-87v110h206v-386h81v-110h-287v110z" />
    <glyph glyph-name="uni2461" unicode="&#x2461;" horiz-adv-x="798" 
d="M226.5 30q-77.5 40 -122 110t-44.5 156v158q0 86 44.5 156t122 110t172.5 40t172.5 -40t122 -110t44.5 -156v-158q0 -86 -44.5 -156t-122 -110t-172.5 -40t-172.5 40zM227.5 244q5.5 21 34 50t95.5 71q46 29 68.5 49t28.5 33t6 29v1q0 20 -15 34t-42 14
q-30 0 -46.5 -16.5t-16.5 -50.5v-15h-113v25q0 75 47 116.5t124 41.5q78 0 127 -40.5t49 -108.5v-2q0 -49 -28 -93t-115 -97q-59 -37 -74 -56h220v-105h-355v61q0 38 5.5 59zM537 91.5q60 29.5 93 85t33 129.5v138q0 74 -33 129.5t-93 85t-138 29.5t-138 -29.5t-93 -85
t-33 -129.5v-138q0 -74 33 -129.5t93 -85t138 -29.5t138 29.5z" />
    <glyph glyph-name="uni2462" unicode="&#x2462;" horiz-adv-x="798" 
d="M226.5 30q-77.5 40 -122 110t-44.5 156v158q0 86 44.5 156t122 110t172.5 40t172.5 -40t122 -110t44.5 -156v-158q0 -86 -44.5 -156t-122 -110t-172.5 -40t-172.5 40zM537 91.5q60 29.5 93 85t33 129.5v138q0 74 -33 129.5t-93 85t-138 29.5t-138 -29.5t-93 -85
t-33 -129.5v-138q0 -74 33 -129.5t93 -85t138 -29.5t138 29.5zM261 163.5q-49 42.5 -49 116.5v16h108v-11q0 -29 20.5 -47t57.5 -18h1q35 0 54 13t19 37v5q0 30 -15.5 43t-48.5 13h-82v92h81q28 0 41 13.5t13 43.5v1q0 24 -15.5 37t-44.5 13h-1q-31 0 -48.5 -16t-17.5 -40
v-18h-108v17q0 72 46.5 114t129.5 42h1q82 0 127 -37t45 -104v-1q0 -34 -16 -61t-44 -46q34 -16 52.5 -43t18.5 -71v-2q0 -69 -48.5 -106.5t-137.5 -37.5h-1q-89 0 -138 42.5z" />
    <glyph glyph-name="uni2463" unicode="&#x2463;" horiz-adv-x="798" 
d="M226.5 30q-77.5 40 -122 110t-44.5 156v158q0 86 44.5 156t122 110t172.5 40t172.5 -40t122 -110t44.5 -156v-158q0 -86 -44.5 -156t-122 -110t-172.5 -40t-172.5 40zM428 213h-218v96l92 314h116l-85 -309h95v106h107v-106h54v-101h-54v-86h-107v86zM537 91.5
q60 29.5 93 85t33 129.5v138q0 74 -33 129.5t-93 85t-138 29.5t-138 -29.5t-93 -85t-33 -129.5v-138q0 -74 33 -129.5t93 -85t138 -29.5t138 29.5z" />
    <glyph glyph-name="uni2464" unicode="&#x2464;" horiz-adv-x="798" 
d="M226.5 30q-77.5 40 -122 110t-44.5 156v158q0 86 44.5 156t122 110t172.5 40t172.5 -40t122 -110t44.5 -156v-158q0 -86 -44.5 -156t-122 -110t-172.5 -40t-172.5 40zM271.5 166q-50.5 42 -50.5 113h119q0 -27 16.5 -42t44.5 -15t44 16.5t16 48.5v22q0 33 -16.5 52.5
t-44.5 19.5q-26 0 -42 -14.5t-16 -39.5v-3h-118v60l21 242h302v-97h-199l-7 -92q27 35 80 35q40 0 76 -18t58.5 -54t22.5 -87v-30q0 -76 -50.5 -117.5t-125.5 -41.5q-80 0 -130.5 42zM537 91.5q60 29.5 93 85t33 129.5v138q0 74 -33 129.5t-93 85t-138 29.5t-138 -29.5
t-93 -85t-33 -129.5v-138q0 -74 33 -129.5t93 -85t138 -29.5t138 29.5z" />
    <glyph glyph-name="uni2465" unicode="&#x2465;" horiz-adv-x="798" 
d="M226.5 30q-77.5 40 -122 110t-44.5 156v158q0 86 44.5 156t122 110t172.5 40t172.5 -40t122 -110t44.5 -156v-158q0 -86 -44.5 -156t-122 -110t-172.5 -40t-172.5 40zM537 91.5q60 29.5 93 85t33 129.5v138q0 74 -33 129.5t-93 85t-138 29.5t-138 -29.5t-93 -85
t-33 -129.5v-138q0 -74 33 -129.5t93 -85t138 -29.5t138 29.5zM267 167.5q-49 47.5 -49 133.5v150q0 83 49.5 130.5t132.5 47.5q79 0 127.5 -40.5t48.5 -107.5v-13h-117v10q0 23 -16.5 37.5t-44.5 14.5t-45.5 -18t-17.5 -47v-63q30 42 95 42q66 0 108.5 -44t42.5 -115
q0 -74 -49.5 -119.5t-131.5 -45.5q-84 0 -133 47.5zM353 237q18 -18 47 -18t46.5 18t17.5 48v2q0 30 -17.5 48t-46.5 18t-47 -18t-18 -48v-2q0 -30 18 -48z" />
    <glyph glyph-name="uni2466" unicode="&#x2466;" horiz-adv-x="798" 
d="M226.5 30q-77.5 40 -122 110t-44.5 156v158q0 86 44.5 156t122 110t172.5 40t172.5 -40t122 -110t44.5 -156v-158q0 -86 -44.5 -156t-122 -110t-172.5 -40t-172.5 40zM537 91.5q60 29.5 93 85t33 129.5v138q0 74 -33 129.5t-93 85t-138 29.5t-138 -29.5t-93 -85
t-33 -129.5v-138q0 -74 33 -129.5t93 -85t138 -29.5t138 29.5zM437 516h-201v107h326v-86l-154 -410h-122z" />
    <glyph glyph-name="uni2467" unicode="&#x2467;" horiz-adv-x="798" 
d="M226.5 30q-77.5 40 -122 110t-44.5 156v158q0 86 44.5 156t122 110t172.5 40t172.5 -40t122 -110t44.5 -156v-158q0 -86 -44.5 -156t-122 -110t-172.5 -40t-172.5 40zM450.5 232q19.5 17 19.5 44v1q0 30 -19 45t-52 15h-1q-33 0 -51.5 -15t-18.5 -45v-1q0 -27 19 -44
t51 -17h1q32 0 51.5 17zM537 91.5q60 29.5 93 85t33 129.5v138q0 74 -33 129.5t-93 85t-138 29.5t-138 -29.5t-93 -85t-33 -129.5v-138q0 -74 33 -129.5t93 -85t138 -29.5t138 29.5zM263.5 160q-50.5 40 -50.5 107v1q0 77 75 113q-67 36 -67 105v1q0 64 48.5 103t128.5 39h1
q80 0 128.5 -39t48.5 -103v-1q0 -69 -66 -105q75 -36 75 -113v-1q0 -67 -51 -107t-135 -40h-1q-84 0 -134.5 40zM443.5 439.5q17.5 14.5 17.5 39.5v1q0 24 -17 39t-45 15h-1q-28 0 -45 -15t-17 -39v-1q0 -25 17.5 -39.5t44.5 -14.5h1q27 0 44.5 14.5z" />
    <glyph glyph-name="uni2468" unicode="&#x2468;" horiz-adv-x="798" 
d="M226.5 30q-77.5 40 -122 110t-44.5 156v158q0 86 44.5 156t122 110t172.5 40t172.5 -40t122 -110t44.5 -156v-158q0 -86 -44.5 -156t-122 -110t-172.5 -40t-172.5 40zM537 91.5q60 29.5 93 85t33 129.5v138q0 74 -33 129.5t-93 85t-138 29.5t-138 -29.5t-93 -85
t-33 -129.5v-138q0 -74 33 -129.5t93 -85t138 -29.5t138 29.5zM271.5 160.5q-48.5 40.5 -48.5 107.5v13h117v-10q0 -23 16.5 -37.5t44.5 -14.5t45.5 18t17.5 47v63q-30 -42 -95 -42q-66 0 -108.5 44t-42.5 115q0 74 49.5 119.5t131.5 45.5q84 0 133 -47.5t49 -133.5v-150
q0 -83 -49.5 -130.5t-132.5 -47.5q-79 0 -127.5 40.5zM446 512q-18 18 -47 18t-46.5 -18t-17.5 -48v-2q0 -30 17.5 -48t46.5 -18t47 18t18 48v2q0 30 -18 48z" />
    <glyph glyph-name="zero.osf" 
d="M148.5 21.5q-58.5 31.5 -91 92.5t-32.5 146v30q0 85 32.5 146t91 92.5t135.5 31.5t135.5 -31.5t91 -92.5t32.5 -146v-30q0 -85 -32.5 -146t-91 -92.5t-135.5 -31.5t-135.5 31.5zM368 165.5q32 34.5 32 94.5v30q0 60 -32 94.5t-84 34.5t-84 -34.5t-32 -94.5v-30
q0 -60 32 -94.5t84 -34.5t84 34.5z" />
    <glyph glyph-name="one.osf" horiz-adv-x="321" 
d="M141 410h-123v140h273v-550h-150v410z" />
    <glyph glyph-name="two.osf" horiz-adv-x="525" 
d="M38.5 170q19.5 43 63.5 71.5t122 51.5q51 15 74.5 25.5t31.5 21.5t8 28v2q0 51 -72 51q-80 0 -80 -62v-19h-150v19q0 96 60.5 148.5t170.5 52.5q105 0 163 -48t58 -135v-2q0 -45 -15 -76.5t-54 -56.5t-110 -48q-67 -21 -95.5 -34t-38.5 -30h323v-130h-479v61
q0 66 19.5 109z" />
    <glyph glyph-name="three.osf" horiz-adv-x="546" 
d="M139.5 -162q-56.5 28 -88 79.5t-31.5 119.5v33h150v-26q0 -47 27 -73t72 -26q43 0 70.5 23t27.5 61v8q0 46 -26 67t-67 21h-76v129h74q36 0 58 21t22 63v5q0 37 -22.5 59.5t-59.5 22.5q-42 0 -66 -24t-24 -68v-15h-150v28q0 63 29.5 111.5t83 75.5t123.5 27h4
q70 0 122.5 -26t81 -72.5t28.5 -107.5v-3q0 -50 -23.5 -90.5t-63.5 -66.5q48 -22 75 -62.5t27 -95.5v-5q0 -65 -30.5 -115t-85.5 -78t-127 -28h-5q-73 0 -129.5 28z" />
    <glyph glyph-name="four.osf" horiz-adv-x="539" 
d="M303 0h-286v133l106 417h156l-103 -410h127v165h148v-165h76v-140h-76v-180h-148v180z" />
    <glyph glyph-name="five.osf" horiz-adv-x="526" 
d="M83.5 -128q-63.5 62 -63.5 172h150v-7q0 -49 25 -73t68 -24t67 27t24 83v31q0 51 -25 80.5t-67 29.5q-39 0 -64.5 -22t-29.5 -60l-1 -9h-143l45 450h395v-132h-264l-14 -140q42 37 111 37q92 0 149.5 -57.5t57.5 -173.5v-34q0 -118 -64.5 -179t-175.5 -61
q-117 0 -180.5 62z" />
    <glyph glyph-name="six.osf" horiz-adv-x="546" 
d="M512 536v-19h-150v12q0 43 -19.5 68.5t-71.5 25.5q-53 0 -74.5 -28.5t-21.5 -85.5v-82q40 53 129 53q100 0 158.5 -62.5t58.5 -177.5q0 -77 -30.5 -133.5t-86.5 -86.5t-130 -30t-130.5 29.5t-87.5 84.5t-31 129v273q0 130 65.5 192t182.5 62q239 0 239 -224zM200 155.5
q25 -28.5 73 -28.5t73 28.5t25 79.5t-25 79.5t-72 28.5q-46 0 -72.5 -28.5t-26.5 -79.5t25 -79.5z" />
    <glyph glyph-name="seven.osf" horiz-adv-x="508" 
d="M301 409h-287v140h464v-131l-244 -598h-173z" />
    <glyph glyph-name="eight.osf" horiz-adv-x="566" 
d="M92 49.5q-67 59.5 -67 162.5q0 62 26 105t73 68q-41 25 -63.5 65t-22.5 94q0 65 30.5 114t86 75.5t128.5 26.5t128.5 -26.5t86 -75.5t30.5 -114q0 -54 -22.5 -94t-63.5 -65q47 -25 73 -68t26 -105q0 -103 -67 -162.5t-191 -59.5t-191 59.5zM363.5 152.5
q27.5 25.5 27.5 70.5q0 48 -29 71.5t-79 23.5t-79 -23.5t-29 -71.5q0 -45 27.5 -70.5t80.5 -25.5t80.5 25.5zM351.5 469.5q26.5 22.5 26.5 64.5q0 40 -25 63t-70 23t-70 -23t-25 -63q0 -42 26.5 -64.5t68.5 -22.5t68.5 22.5z" />
    <glyph glyph-name="nine.osf" horiz-adv-x="544" 
d="M94.5 -131.5q-62.5 57.5 -62.5 156.5v11h150v-4q0 -37 20 -61.5t71 -24.5q53 0 74.5 28t21.5 80v75q-40 -49 -129 -49q-101 0 -159 58t-58 172q0 77 30.5 133.5t86.5 86.5t130 30t130.5 -29.5t87.5 -84.5t31 -129v-260q0 -124 -65 -185t-176 -61q-121 0 -183.5 57.5z
M198 235.5q25 -28.5 72 -28.5q46 0 72.5 28.5t26.5 79.5t-25 79.5t-73 28.5t-73 -28.5t-25 -79.5t25 -79.5z" />
    <glyph glyph-name="zero.tf" horiz-adv-x="580" 
d="M155.5 21q-58.5 31 -91.5 89t-33 137v256q0 79 33 137t91.5 89t134.5 31t134.5 -31t91.5 -89t33 -137v-256q0 -79 -33 -137t-91.5 -89t-134.5 -31t-134.5 31zM369 162q30 32 30 85v256q0 53 -30 85t-79 32t-79 -32t-30 -85v-256q0 -53 30 -85t79 -32t79 32z" />
    <glyph glyph-name="one.tf" horiz-adv-x="580" 
d="M76 140h140v470h-140v140h290v-610h138v-140h-428v140z" />
    <glyph glyph-name="two.tf" horiz-adv-x="580" 
d="M56.5 177q10.5 33 53 75.5t136.5 106.5q59 40 87.5 72t35 54.5t6.5 50.5v2q0 38 -21.5 60t-63.5 22q-43 0 -65 -21.5t-22 -59.5v-39h-150v39q0 102 64 161.5t173 59.5q108 0 171.5 -60t63.5 -163v-2q0 -52 -12 -93.5t-52.5 -89t-121.5 -101.5q-60 -40 -89 -64t-39 -47
h324v-140h-489v91q0 53 10.5 86z" />
    <glyph glyph-name="three.tf" horiz-adv-x="580" 
d="M99.5 48.5q-67.5 58.5 -67.5 168.5v33h150v-26q0 -49 27 -73t82 -24q53 0 80.5 22.5t27.5 62.5v10q0 92 -98 92h-111v129h109q85 0 85 89v6q0 38 -24 61.5t-63 23.5q-47 0 -71 -24t-24 -70v-29h-150v38q0 67 31 117.5t86.5 77.5t127.5 27q108 0 172.5 -55.5t64.5 -156.5
v-3q0 -53 -23 -94t-64 -68q48 -23 75 -63.5t27 -98.5v-5q0 -108 -66.5 -167t-188.5 -59q-127 0 -194.5 58.5z" />
    <glyph glyph-name="four.tf" horiz-adv-x="580" 
d="M330 134h-303v133l142 483h156l-139 -476h144v165h148v-165h76v-140h-76v-134h-148v134z" />
    <glyph glyph-name="five.tf" horiz-adv-x="580" 
d="M111.5 52q-63.5 62 -63.5 172h150q0 -49 25 -73t68 -24t67 27t24 83v32q0 51 -25 80.5t-67 29.5q-39 0 -63.5 -22t-24.5 -60v-5h-148v91l31 367h427v-140h-301l-11 -146q40 52 121 52q59 0 107 -27t76 -81t28 -132v-46q0 -118 -64.5 -179t-175.5 -61q-117 0 -180.5 62z
" />
    <glyph glyph-name="six.tf" horiz-adv-x="580" 
d="M529 536v-19h-150v12q0 43 -19.5 68.5t-71.5 25.5q-53 0 -74.5 -28.5t-21.5 -85.5v-82q40 53 129 53q100 0 158.5 -62.5t58.5 -177.5q0 -77 -30.5 -133.5t-86.5 -86.5t-130 -30t-130.5 29.5t-87.5 84.5t-31 129v273q0 130 65.5 192t182.5 62q239 0 239 -224zM217 155.5
q25 -28.5 73 -28.5t73 28.5t25 79.5t-25 79.5t-72 28.5q-46 0 -72.5 -28.5t-26.5 -79.5t25 -79.5z" />
    <glyph glyph-name="seven.tf" horiz-adv-x="580" 
d="M345 610h-287v140h464v-131l-234 -619h-173z" />
    <glyph glyph-name="eight.tf" horiz-adv-x="580" 
d="M99 49.5q-67 59.5 -67 162.5q0 62 26 105t73 68q-41 25 -63.5 65t-22.5 94q0 65 30.5 114t86 75.5t128.5 26.5t128.5 -26.5t86 -75.5t30.5 -114q0 -54 -22.5 -94t-63.5 -65q47 -25 73 -68t26 -105q0 -103 -67 -162.5t-191 -59.5t-191 59.5zM370.5 152.5
q27.5 25.5 27.5 70.5q0 48 -29 71.5t-79 23.5t-79 -23.5t-29 -71.5q0 -45 27.5 -70.5t80.5 -25.5t80.5 25.5zM358.5 469.5q26.5 22.5 26.5 64.5q0 40 -25 63t-70 23t-70 -23t-25 -63q0 -42 26.5 -64.5t68.5 -22.5t68.5 22.5z" />
    <glyph glyph-name="nine.tf" horiz-adv-x="580" 
d="M51 214v19h150v-12q0 -43 19.5 -68.5t71.5 -25.5q53 0 74.5 28.5t21.5 85.5v82q-40 -53 -129 -53q-100 0 -158.5 62.5t-58.5 177.5q0 77 30.5 133.5t86.5 86.5t130 30t130.5 -29.5t87.5 -84.5t31 -129v-273q0 -130 -65.5 -192t-182.5 -62q-239 0 -239 224zM217 435.5
q25 -28.5 72 -28.5q46 0 72.5 28.5t26.5 79.5t-25 79.5t-73 28.5t-73 -28.5t-25 -79.5t25 -79.5z" />
    <glyph glyph-name="zero.dnom" horiz-adv-x="419" 
d="M76 42q-51 49 -51 130v152q0 80 51 129t133 49t133.5 -49t51.5 -129v-152q0 -81 -51.5 -130t-133.5 -49t-133 49zM162.5 122q18.5 -19 46.5 -19t47 19t19 50v152q0 30 -19 49t-47 19t-46.5 -19t-18.5 -49v-152q0 -31 18.5 -50z" />
    <glyph glyph-name="one.dnom" horiz-adv-x="340" 
d="M38 110h87v276h-87v110h206v-386h81v-110h-287v110z" />
    <glyph glyph-name="two.dnom" horiz-adv-x="391" 
d="M24.5 120q5.5 21 34 50t95.5 71q65 40 84 63t19 46v2q0 21 -14.5 35t-42.5 14q-30 0 -46.5 -16.5t-16.5 -50.5v-15h-113v25q0 75 47 116.5t124 41.5q78 0 127 -40.5t49 -108.5v-2q0 -49 -28 -93t-115 -97q-59 -37 -74 -56h220v-105h-355v61q0 38 5.5 59z" />
    <glyph glyph-name="three.dnom" horiz-adv-x="419" 
d="M69 35.5q-49 42.5 -49 116.5v16h108v-11q0 -29 20.5 -47t57.5 -18h1q35 0 54 13t19 37v5q0 30 -15.5 43t-48.5 13h-82v92h81q28 0 41 13.5t13 43.5v1q0 24 -15.5 37t-44.5 13h-1q-31 0 -48.5 -16t-17.5 -40v-18h-108v17q0 72 46.5 114t129.5 42h1q82 0 127 -37t45 -104
v-1q0 -34 -16 -61t-44 -46q34 -16 52.5 -43t18.5 -71v-2q0 -69 -48.5 -106.5t-137.5 -37.5h-1q-89 0 -138 42.5z" />
    <glyph glyph-name="four.dnom" horiz-adv-x="408" 
d="M238 86h-218v96l92 314h116l-85 -309h95v106h107v-106h54v-101h-54v-86h-107v86z" />
    <glyph glyph-name="five.dnom" horiz-adv-x="401" 
d="M72.5 36q-50.5 42 -50.5 113h119q0 -27 16.5 -42t44.5 -15t44 16.5t16 48.5v22q0 33 -16.5 52.5t-44.5 19.5q-26 0 -42 -14.5t-16 -39.5v-3h-118v60l21 242h302v-97h-199l-7 -92q27 35 80 35q40 0 76 -18t58.5 -54t22.5 -87v-30q0 -76 -50.5 -117.5t-125.5 -41.5
q-80 0 -130.5 42z" />
    <glyph glyph-name="six.dnom" horiz-adv-x="413" 
d="M74 40.5q-49 47.5 -49 133.5v150q0 83 49.5 130.5t132.5 47.5q79 0 127.5 -40.5t48.5 -107.5v-13h-117v10q0 23 -16.5 37.5t-44.5 14.5t-45.5 -18t-17.5 -47v-63q30 42 95 42q66 0 108.5 -44t42.5 -115q0 -74 -49.5 -119.5t-131.5 -45.5q-84 0 -133 47.5zM160 110
q18 -18 47 -18t46.5 18t17.5 48v2q0 30 -17.5 48t-46.5 18t-47 -18t-18 -48v-2q0 -30 18 -48z" />
    <glyph glyph-name="seven.dnom" horiz-adv-x="370" 
d="M225 389h-201v107h326v-86l-154 -410h-122z" />
    <glyph glyph-name="eight.dnom" horiz-adv-x="422" 
d="M76 33q-51 40 -51 107q0 40 20 68.5t55 45.5q-67 36 -67 105q0 64 49 103.5t129 39.5t128.5 -39t48.5 -104q0 -69 -66 -105q35 -17 55 -45.5t20 -68.5q0 -67 -51 -107t-135 -40t-135 40zM262.5 105q19.5 17 19.5 44q0 30 -19 45.5t-52 15.5t-52 -15.5t-19 -45.5
q0 -27 19.5 -44t51.5 -17t51.5 17zM255.5 312.5q17.5 14.5 17.5 39.5q0 24 -17 39.5t-45 15.5t-45.5 -15.5t-17.5 -39.5q0 -25 18 -39.5t45 -14.5t44.5 14.5z" />
    <glyph glyph-name="nine.dnom" horiz-adv-x="413" 
d="M339 454.5q49 -47.5 49 -133.5v-150q0 -83 -49.5 -130.5t-132.5 -47.5q-79 0 -127.5 40.5t-48.5 107.5v13h117v-10q0 -23 16.5 -37.5t44.5 -14.5t45.5 18t17.5 47v63q-30 -42 -95 -42q-66 0 -108.5 44t-42.5 115q0 74 49.5 119.5t131.5 45.5q84 0 133 -47.5zM253 385
q-18 18 -47 18t-46.5 -18t-17.5 -48v-2q0 -30 17.5 -48t46.5 -18t47 18t18 48v2q0 30 -18 48z" />
    <glyph glyph-name="zero.numr" horiz-adv-x="419" 
d="M76 296q-51 49 -51 130v152q0 80 51 129t133 49t133.5 -49t51.5 -129v-152q0 -81 -51.5 -130t-133.5 -49t-133 49zM162.5 376q18.5 -19 46.5 -19t47 19t19 50v152q0 30 -19 49t-47 19t-46.5 -19t-18.5 -49v-152q0 -31 18.5 -50z" />
    <glyph glyph-name="one.numr" horiz-adv-x="340" 
d="M38 364h87v276h-87v110h206v-386h81v-110h-287v110z" />
    <glyph glyph-name="two.numr" horiz-adv-x="391" 
d="M24.5 374q5.5 21 34 50t95.5 71q65 40 84 63t19 46v2q0 21 -14.5 35t-42.5 14q-30 0 -46.5 -16.5t-16.5 -50.5v-15h-113v25q0 75 47 116.5t124 41.5q78 0 127 -40.5t49 -108.5v-2q0 -49 -28 -93t-115 -97q-59 -37 -74 -56h220v-105h-355v61q0 38 5.5 59z" />
    <glyph glyph-name="three.numr" horiz-adv-x="419" 
d="M69 289.5q-49 42.5 -49 116.5v16h108v-11q0 -29 20.5 -47t57.5 -18h1q35 0 54 13t19 37v5q0 30 -15.5 43t-48.5 13h-82v92h81q28 0 41 13.5t13 43.5v1q0 24 -15.5 37t-44.5 13h-1q-31 0 -48.5 -16t-17.5 -40v-18h-108v17q0 72 46.5 114t129.5 42h1q82 0 127 -37t45 -104
v-1q0 -34 -16 -61t-44 -46q34 -16 52.5 -43t18.5 -71v-2q0 -69 -48.5 -106.5t-137.5 -37.5h-1q-89 0 -138 42.5z" />
    <glyph glyph-name="four.numr" horiz-adv-x="408" 
d="M238 340h-218v96l92 314h116l-85 -309h95v106h107v-106h54v-101h-54v-86h-107v86z" />
    <glyph glyph-name="five.numr" horiz-adv-x="401" 
d="M72.5 290q-50.5 42 -50.5 113h119q0 -27 16.5 -42t44.5 -15t44 16.5t16 48.5v22q0 33 -16.5 52.5t-44.5 19.5q-26 0 -42 -14.5t-16 -39.5v-3h-118v60l21 242h302v-97h-199l-7 -92q27 35 80 35q40 0 76 -18t58.5 -54t22.5 -87v-30q0 -76 -50.5 -117.5t-125.5 -41.5
q-80 0 -130.5 42z" />
    <glyph glyph-name="six.numr" horiz-adv-x="413" 
d="M74 294.5q-49 47.5 -49 133.5v150q0 83 49.5 130.5t132.5 47.5q79 0 127.5 -40.5t48.5 -107.5v-13h-117v10q0 23 -16.5 37.5t-44.5 14.5t-45.5 -18t-17.5 -47v-63q30 42 95 42q66 0 108.5 -44t42.5 -115q0 -74 -49.5 -119.5t-131.5 -45.5q-84 0 -133 47.5zM160 364
q18 -18 47 -18t46.5 18t17.5 48v2q0 30 -17.5 48t-46.5 18t-47 -18t-18 -48v-2q0 -30 18 -48z" />
    <glyph glyph-name="seven.numr" horiz-adv-x="370" 
d="M225 643h-201v107h326v-86l-154 -410h-122z" />
    <glyph glyph-name="eight.numr" horiz-adv-x="422" 
d="M76 287q-51 40 -51 107q0 40 20 68.5t55 45.5q-67 36 -67 105q0 64 49 103.5t129 39.5t128.5 -39t48.5 -104q0 -69 -66 -105q35 -17 55 -45.5t20 -68.5q0 -67 -51 -107t-135 -40t-135 40zM262.5 359q19.5 17 19.5 44q0 30 -19 45.5t-52 15.5t-52 -15.5t-19 -45.5
q0 -27 19.5 -44t51.5 -17t51.5 17zM255.5 566.5q17.5 14.5 17.5 39.5q0 24 -17 39.5t-45 15.5t-45.5 -15.5t-17.5 -39.5q0 -25 18 -39.5t45 -14.5t44.5 14.5z" />
    <glyph glyph-name="nine.numr" horiz-adv-x="413" 
d="M339 708.5q49 -47.5 49 -133.5v-150q0 -83 -49.5 -130.5t-132.5 -47.5q-79 0 -127.5 40.5t-48.5 107.5v13h117v-10q0 -23 16.5 -37.5t44.5 -14.5t45.5 18t17.5 47v63q-30 -42 -95 -42q-66 0 -108.5 44t-42.5 115q0 74 49.5 119.5t131.5 45.5q84 0 133 -47.5zM253 639
q-18 18 -47 18t-46.5 -18t-17.5 -48v-2q0 -30 17.5 -48t46.5 -18t47 18t18 48v2q0 30 -18 48z" />
    <glyph glyph-name="fraction" unicode="&#x2044;" horiz-adv-x="198" 
d="M64 0h-134l224 750h134z" />
    <glyph glyph-name="onehalf" unicode="&#xbd;" horiz-adv-x="925" 
d="M38 364h87v276h-87v110h206v-386h81v-110h-287v110zM402 0h-134l224 750h134zM558.5 120q5.5 21 34 50t95.5 71q65 40 84 63t19 46v2q0 21 -14.5 35t-42.5 14q-30 0 -46.5 -16.5t-16.5 -50.5v-15h-113v25q0 75 47 116.5t124 41.5q78 0 127 -40.5t49 -108.5v-2
q0 -49 -28 -93t-115 -97q-59 -37 -74 -56h220v-105h-355v61q0 38 5.5 59z" />
    <glyph glyph-name="onequarter" unicode="&#xbc;" horiz-adv-x="916" 
d="M38 364h87v276h-87v110h206v-386h81v-110h-287v110zM402 0h-134l224 750h134zM746 86h-218v96l92 314h116l-85 -309h95v106h107v-106h54v-101h-54v-86h-107v86z" />
    <glyph glyph-name="threequarters" unicode="&#xbe;" horiz-adv-x="982" 
d="M69 289.5q-49 42.5 -49 116.5v16h108v-11q0 -29 20.5 -47t57.5 -18h1q35 0 54 13t19 37v5q0 30 -15.5 43t-48.5 13h-82v92h81q28 0 41 13.5t13 43.5v1q0 24 -15.5 37t-44.5 13h-1q-31 0 -48.5 -16t-17.5 -40v-18h-108v17q0 72 46.5 114t129.5 42h1q82 0 127 -37t45 -104
v-1q0 -34 -16 -61t-44 -46q34 -16 52.5 -43t18.5 -71v-2q0 -69 -48.5 -106.5t-137.5 -37.5h-1q-89 0 -138 42.5zM468 0h-134l224 750h134zM812 86h-218v96l92 314h116l-85 -309h95v106h107v-106h54v-101h-54v-86h-107v86z" />
    <glyph glyph-name="oneeighth" unicode="&#x215b;" horiz-adv-x="952" 
d="M38 364h87v276h-87v110h206v-386h81v-110h-287v110zM402 0h-134l224 750h134zM606 33q-51 40 -51 107q0 40 20 68.5t55 45.5q-67 36 -67 105q0 64 49 103.5t129 39.5t128.5 -39t48.5 -104q0 -69 -66 -105q35 -17 55 -45.5t20 -68.5q0 -67 -51 -107t-135 -40t-135 40z
M792.5 105q19.5 17 19.5 44q0 30 -19 45.5t-52 15.5t-52 -15.5t-19 -45.5q0 -27 19.5 -44t51.5 -17t51.5 17zM785.5 312.5q17.5 14.5 17.5 39.5q0 24 -17 39.5t-45 15.5t-45.5 -15.5t-17.5 -39.5q0 -25 18 -39.5t45 -14.5t44.5 14.5z" />
    <glyph glyph-name="threeeighths" unicode="&#x215c;" horiz-adv-x="1018" 
d="M69 289.5q-49 42.5 -49 116.5v16h108v-11q0 -29 20.5 -47t57.5 -18h1q35 0 54 13t19 37v5q0 30 -15.5 43t-48.5 13h-82v92h81q28 0 41 13.5t13 43.5v1q0 24 -15.5 37t-44.5 13h-1q-31 0 -48.5 -16t-17.5 -40v-18h-108v17q0 72 46.5 114t129.5 42h1q82 0 127 -37t45 -104
v-1q0 -34 -16 -61t-44 -46q34 -16 52.5 -43t18.5 -71v-2q0 -69 -48.5 -106.5t-137.5 -37.5h-1q-89 0 -138 42.5zM468 0h-134l224 750h134zM672 33q-51 40 -51 107q0 40 20 68.5t55 45.5q-67 36 -67 105q0 64 49 103.5t129 39.5t128.5 -39t48.5 -104q0 -69 -66 -105
q35 -17 55 -45.5t20 -68.5q0 -67 -51 -107t-135 -40t-135 40zM858.5 105q19.5 17 19.5 44q0 30 -19 45.5t-52 15.5t-52 -15.5t-19 -45.5q0 -27 19.5 -44t51.5 -17t51.5 17zM851.5 312.5q17.5 14.5 17.5 39.5q0 24 -17 39.5t-45 15.5t-45.5 -15.5t-17.5 -39.5q0 -25 18 -39.5
t45 -14.5t44.5 14.5z" />
    <glyph glyph-name="fiveeighths" unicode="&#x215d;" horiz-adv-x="999" 
d="M72.5 290q-50.5 42 -50.5 113h119q0 -27 16.5 -42t44.5 -15t44 16.5t16 48.5v22q0 33 -16.5 52.5t-44.5 19.5q-26 0 -42 -14.5t-16 -39.5v-3h-118v60l21 242h302v-97h-199l-7 -92q27 35 80 35q40 0 76 -18t58.5 -54t22.5 -87v-30q0 -76 -50.5 -117.5t-125.5 -41.5
q-80 0 -130.5 42zM449 0h-134l224 750h134zM653 33q-51 40 -51 107q0 40 20 68.5t55 45.5q-67 36 -67 105q0 64 49 103.5t129 39.5t128.5 -39t48.5 -104q0 -69 -66 -105q35 -17 55 -45.5t20 -68.5q0 -67 -51 -107t-135 -40t-135 40zM839.5 105q19.5 17 19.5 44
q0 30 -19 45.5t-52 15.5t-52 -15.5t-19 -45.5q0 -27 19.5 -44t51.5 -17t51.5 17zM832.5 312.5q17.5 14.5 17.5 39.5q0 24 -17 39.5t-45 15.5t-45.5 -15.5t-17.5 -39.5q0 -25 18 -39.5t45 -14.5t44.5 14.5z" />
    <glyph glyph-name="seveneighths" unicode="&#x215e;" horiz-adv-x="920" 
d="M225 643h-201v107h326v-86l-154 -410h-122zM370 0h-134l224 750h134zM574 33q-51 40 -51 107q0 40 20 68.5t55 45.5q-67 36 -67 105q0 64 49 103.5t129 39.5t128.5 -39t48.5 -104q0 -69 -66 -105q35 -17 55 -45.5t20 -68.5q0 -67 -51 -107t-135 -40t-135 40zM760.5 105
q19.5 17 19.5 44q0 30 -19 45.5t-52 15.5t-52 -15.5t-19 -45.5q0 -27 19.5 -44t51.5 -17t51.5 17zM753.5 312.5q17.5 14.5 17.5 39.5q0 24 -17 39.5t-45 15.5t-45.5 -15.5t-17.5 -39.5q0 -25 18 -39.5t45 -14.5t44.5 14.5z" />
    <glyph glyph-name="uni2080" unicode="&#x2080;" horiz-adv-x="419" 
d="M76 42q-51 49 -51 130v152q0 80 51 129t133 49t133.5 -49t51.5 -129v-152q0 -81 -51.5 -130t-133.5 -49t-133 49zM162.5 122q18.5 -19 46.5 -19t47 19t19 50v152q0 30 -19 49t-47 19t-46.5 -19t-18.5 -49v-152q0 -31 18.5 -50z" />
    <glyph glyph-name="uni2081" unicode="&#x2081;" horiz-adv-x="340" 
d="M38 110h87v276h-87v110h206v-386h81v-110h-287v110z" />
    <glyph glyph-name="uni2082" unicode="&#x2082;" horiz-adv-x="391" 
d="M24.5 120q5.5 21 34 50t95.5 71q65 40 84 63t19 46v2q0 21 -14.5 35t-42.5 14q-30 0 -46.5 -16.5t-16.5 -50.5v-15h-113v25q0 75 47 116.5t124 41.5q78 0 127 -40.5t49 -108.5v-2q0 -49 -28 -93t-115 -97q-59 -37 -74 -56h220v-105h-355v61q0 38 5.5 59z" />
    <glyph glyph-name="uni2083" unicode="&#x2083;" horiz-adv-x="419" 
d="M69 35.5q-49 42.5 -49 116.5v16h108v-11q0 -29 20.5 -47t57.5 -18h1q35 0 54 13t19 37v5q0 30 -15.5 43t-48.5 13h-82v92h81q28 0 41 13.5t13 43.5v1q0 24 -15.5 37t-44.5 13h-1q-31 0 -48.5 -16t-17.5 -40v-18h-108v17q0 72 46.5 114t129.5 42h1q82 0 127 -37t45 -104
v-1q0 -34 -16 -61t-44 -46q34 -16 52.5 -43t18.5 -71v-2q0 -69 -48.5 -106.5t-137.5 -37.5h-1q-89 0 -138 42.5z" />
    <glyph glyph-name="uni2084" unicode="&#x2084;" horiz-adv-x="408" 
d="M238 86h-218v96l92 314h116l-85 -309h95v106h107v-106h54v-101h-54v-86h-107v86z" />
    <glyph glyph-name="uni2085" unicode="&#x2085;" horiz-adv-x="401" 
d="M72.5 36q-50.5 42 -50.5 113h119q0 -27 16.5 -42t44.5 -15t44 16.5t16 48.5v22q0 33 -16.5 52.5t-44.5 19.5q-26 0 -42 -14.5t-16 -39.5v-3h-118v60l21 242h302v-97h-199l-7 -92q27 35 80 35q40 0 76 -18t58.5 -54t22.5 -87v-30q0 -76 -50.5 -117.5t-125.5 -41.5
q-80 0 -130.5 42z" />
    <glyph glyph-name="uni2086" unicode="&#x2086;" horiz-adv-x="413" 
d="M74 40.5q-49 47.5 -49 133.5v150q0 83 49.5 130.5t132.5 47.5q79 0 127.5 -40.5t48.5 -107.5v-13h-117v10q0 23 -16.5 37.5t-44.5 14.5t-45.5 -18t-17.5 -47v-63q30 42 95 42q66 0 108.5 -44t42.5 -115q0 -74 -49.5 -119.5t-131.5 -45.5q-84 0 -133 47.5zM160 110
q18 -18 47 -18t46.5 18t17.5 48v2q0 30 -17.5 48t-46.5 18t-47 -18t-18 -48v-2q0 -30 18 -48z" />
    <glyph glyph-name="uni2087" unicode="&#x2087;" horiz-adv-x="370" 
d="M225 389h-201v107h326v-86l-154 -410h-122z" />
    <glyph glyph-name="uni2088" unicode="&#x2088;" horiz-adv-x="422" 
d="M76 33q-51 40 -51 107q0 40 20 68.5t55 45.5q-67 36 -67 105q0 64 49 103.5t129 39.5t128.5 -39t48.5 -104q0 -69 -66 -105q35 -17 55 -45.5t20 -68.5q0 -67 -51 -107t-135 -40t-135 40zM262.5 105q19.5 17 19.5 44q0 30 -19 45.5t-52 15.5t-52 -15.5t-19 -45.5
q0 -27 19.5 -44t51.5 -17t51.5 17zM255.5 312.5q17.5 14.5 17.5 39.5q0 24 -17 39.5t-45 15.5t-45.5 -15.5t-17.5 -39.5q0 -25 18 -39.5t45 -14.5t44.5 14.5z" />
    <glyph glyph-name="uni2089" unicode="&#x2089;" horiz-adv-x="413" 
d="M339 454.5q49 -47.5 49 -133.5v-150q0 -83 -49.5 -130.5t-132.5 -47.5q-79 0 -127.5 40.5t-48.5 107.5v13h117v-10q0 -23 16.5 -37.5t44.5 -14.5t45.5 18t17.5 47v63q-30 -42 -95 -42q-66 0 -108.5 44t-42.5 115q0 74 49.5 119.5t131.5 45.5q84 0 133 -47.5zM253 385
q-18 18 -47 18t-46.5 -18t-17.5 -48v-2q0 -30 17.5 -48t46.5 -18t47 18t18 48v2q0 30 -18 48z" />
    <glyph glyph-name="uni2070" unicode="&#x2070;" horiz-adv-x="419" 
d="M76 296q-51 49 -51 130v152q0 80 51 129t133 49t133.5 -49t51.5 -129v-152q0 -81 -51.5 -130t-133.5 -49t-133 49zM162.5 376q18.5 -19 46.5 -19t47 19t19 50v152q0 30 -19 49t-47 19t-46.5 -19t-18.5 -49v-152q0 -31 18.5 -50z" />
    <glyph glyph-name="uni00B9" unicode="&#xb9;" horiz-adv-x="340" 
d="M38 364h87v276h-87v110h206v-386h81v-110h-287v110z" />
    <glyph glyph-name="uni00B2" unicode="&#xb2;" horiz-adv-x="391" 
d="M24.5 374q5.5 21 34 50t95.5 71q65 40 84 63t19 46v2q0 21 -14.5 35t-42.5 14q-30 0 -46.5 -16.5t-16.5 -50.5v-15h-113v25q0 75 47 116.5t124 41.5q78 0 127 -40.5t49 -108.5v-2q0 -49 -28 -93t-115 -97q-59 -37 -74 -56h220v-105h-355v61q0 38 5.5 59z" />
    <glyph glyph-name="uni00B3" unicode="&#xb3;" horiz-adv-x="419" 
d="M69 289.5q-49 42.5 -49 116.5v16h108v-11q0 -29 20.5 -47t57.5 -18h1q35 0 54 13t19 37v5q0 30 -15.5 43t-48.5 13h-82v92h81q28 0 41 13.5t13 43.5v1q0 24 -15.5 37t-44.5 13h-1q-31 0 -48.5 -16t-17.5 -40v-18h-108v17q0 72 46.5 114t129.5 42h1q82 0 127 -37t45 -104
v-1q0 -34 -16 -61t-44 -46q34 -16 52.5 -43t18.5 -71v-2q0 -69 -48.5 -106.5t-137.5 -37.5h-1q-89 0 -138 42.5z" />
    <glyph glyph-name="uni2074" unicode="&#x2074;" horiz-adv-x="408" 
d="M238 340h-218v96l92 314h116l-85 -309h95v106h107v-106h54v-101h-54v-86h-107v86z" />
    <glyph glyph-name="uni2075" unicode="&#x2075;" horiz-adv-x="401" 
d="M72.5 290q-50.5 42 -50.5 113h119q0 -27 16.5 -42t44.5 -15t44 16.5t16 48.5v22q0 33 -16.5 52.5t-44.5 19.5q-26 0 -42 -14.5t-16 -39.5v-3h-118v60l21 242h302v-97h-199l-7 -92q27 35 80 35q40 0 76 -18t58.5 -54t22.5 -87v-30q0 -76 -50.5 -117.5t-125.5 -41.5
q-80 0 -130.5 42z" />
    </font>
</defs>
</svg>
